osu file format v14

[General]
AudioFilename: audio.mp3
AudioLeadIn: 0
PreviewTime: 180
Countdown: 1
SampleSet: Soft
StackLeniency: 0.4
Mode: 0
LetterboxInBreaks: 0
WidescreenStoryboard: 0

[Editor]
DistanceSpacing: 1
BeatDivisor: 4
GridSize: 16
TimelineZoom: 1

[Metadata]
Title:Harumachi Clover (TV Size)
TitleUnicode:春待ちクローバー (TV Size)
Artist:Hanasaka Yui (CV: M.A.O)
ArtistUnicode:花坂結衣 (CV:M・A・O)
Creator:Hanasaka Yui
Version:Hanasaka Yui
Source:OneRoom
Tags:One Room Opening OP Kantoku ワンルーム カントク one_room takekii japanese anime
BeatmapID:1948941
BeatmapSetID:933554

[Difficulty]
HPDrainRate:6.5
CircleSize:4.5
OverallDifficulty:8.5
ApproachRate:8.5
SliderMultiplier:1.4
SliderTickRate:1

[Events]
//Background and Video events
0,0,"800555.png",0,0
//Break Periods
//Storyboard Layer 0 (Background)
//Storyboard Layer 1 (Fail)
//Storyboard Layer 2 (Pass)
//Storyboard Layer 3 (Foreground)
//Storyboard Sound Samples

[TimingPoints]
-348,422.535211267606,4,2,1,65,1,0
285,-100,4,2,1,40,0,0
1342,-100,4,2,1,65,0,0
30285,-100,4,2,1,30,0,0

[Colours]
Combo1 : 250,180,240
Combo2 : 110,190,225
Combo3 : 255,230,130
Combo4 : 150,230,140

[HitObjects]
456,82,285,5,2,0:0:0:0:
453,175,496,1,2,0:0:0:0:
456,82,708,5,2,0:0:0:0:
453,175,919,1,2,0:0:0:0:
450,268,1130,1,2,0:0:0:0:
293,96,1342,5,4,0:0:0:0:
378,227,1553,1,2,3:2:0:0:
378,227,1658,1,0,3:0:0:0:
378,227,1764,1,10,3:2:0:0:
219,178,1975,1,2,0:2:0:0:
407,118,2187,1,2,3:2:0:0:
185,66,2398,1,2,0:2:0:0:
438,183,2609,1,10,0:2:0:0:
175,267,2820,1,2,3:2:0:0:
175,267,2926,1,0,3:0:0:0:
175,267,3032,5,6,3:2:0:0:
301,169,3243,1,2,0:0:0:0:
267,355,3454,1,10,3:2:0:0:
123,184,3665,1,2,3:2:0:0:
96,171,3771,1,0,3:0:0:0:
72,160,3877,5,0,3:0:0:0:
266,241,4088,1,0,3:0:0:0:
52,276,4299,1,8,0:0:0:0:
212,164,4511,1,0,3:2:0:0:
212,164,4616,1,0,3:0:0:0:
212,164,4722,5,4,3:2:0:0:
156,318,4933,1,2,0:2:0:0:
301,169,5144,1,10,0:2:0:0:
118,217,5356,1,2,0:2:0:0:
212,15,5567,5,2,3:2:0:0:
212,164,5778,1,2,0:2:0:0:
39,12,5989,1,10,0:2:0:0:
33,230,6201,1,2,3:2:0:0:
33,230,6306,1,0,3:0:0:0:
33,230,6412,5,6,3:2:0:0:
233,77,6623,1,2,0:0:0:0:
283,265,6834,1,10,0:0:0:0:
410,74,7046,1,2,3:2:0:0:
414,90,7151,1,0,3:0:0:0:
419,105,7257,1,0,3:0:0:0:
251,82,7468,1,0,3:0:0:0:
479,159,7680,1,8,0:0:0:0:
171,258,7891,1,2,3:2:0:0:
171,258,7996,1,0,3:0:0:0:
171,258,8102,5,6,3:2:0:0:
376,335,8313,1,2,0:0:0:0:
216,372,8525,1,10,0:0:0:0:
321,155,8736,1,2,3:2:0:0:
459,375,8947,1,2,3:2:0:0:
326,259,9158,1,2,3:2:0:0:
291,253,9263,1,0,3:0:0:0:
256,248,9369,1,8,3:2:0:0:
478,160,9581,1,2,3:2:0:0:
472,194,9686,1,0,3:0:0:0:
467,229,9792,5,4,3:2:0:0:
339,146,10003,1,0,0:0:0:0:
447,325,10215,1,10,0:0:0:0:
415,126,10426,1,2,0:2:0:0:
305,313,10637,1,2,3:2:0:0:
253,110,10849,1,2,3:2:0:0:
397,237,11060,1,10,0:0:0:0:
168,269,11271,1,2,3:2:0:0:
168,269,11377,1,0,3:2:0:0:
168,269,11482,5,4,3:2:0:0:
253,110,11694,1,0,3:0:0:0:
3,156,11905,1,8,0:0:0:0:
125,358,12116,1,0,3:0:0:0:
127,334,12222,1,0,3:0:0:0:
129,305,12327,5,0,3:0:0:0:
231,370,12539,1,0,3:0:0:0:
31,263,12750,1,10,0:0:0:0:
233,134,12961,1,2,3:2:0:0:
233,134,13067,1,0,3:0:0:0:
233,134,13172,5,12,3:2:0:0:
314,322,13384,1,0,3:0:0:0:
324,73,13595,5,8,0:0:0:0:
233,350,13806,1,0,3:0:0:0:
228,37,14018,1,8,3:2:0:0:
218,60,14123,1,0,3:0:0:0:
213,86,14229,1,0,3:0:0:0:
214,112,14334,1,0,3:0:0:0:
221,138,14440,1,8,3:2:0:0:
229,161,14546,1,0,3:0:0:0:
238,202,14651,1,0,3:0:0:0:
235,244,14757,1,0,3:0:0:0:
219,284,14863,5,6,3:2:0:0:
300,98,15074,1,2,0:0:0:0:
141,216,15285,1,10,0:0:0:0:
341,248,15496,1,2,0:0:0:0:
158,368,15708,5,2,3:2:0:0:
275,172,15919,1,2,0:0:0:0:
334,342,16130,1,10,0:0:0:0:
125,222,16342,1,2,3:2:0:0:
111,255,16447,1,0,3:0:0:0:
97,289,16553,5,6,3:2:0:0:
234,375,16764,1,2,0:0:0:0:
195,130,16975,1,10,0:0:0:0:
380,226,17187,1,2,3:2:0:0:
380,226,17292,1,0,3:0:0:0:
380,226,17398,5,0,3:0:0:0:
263,268,17609,1,0,0:0:0:0:
469,281,17820,1,8,0:0:0:0:
288,160,18032,1,2,3:2:0:0:
314,153,18137,1,0,3:0:0:0:
341,145,18243,5,6,3:2:0:0:
371,330,18454,1,2,0:0:0:0:
456,143,18665,1,10,0:0:0:0:
491,369,18877,1,2,0:0:0:0:
237,223,19088,5,2,3:2:0:0:
480,288,19299,1,2,0:0:0:0:
266,106,19511,1,10,0:0:0:0:
363,311,19722,1,2,3:2:0:0:
359,345,19827,1,0,3:0:0:0:
339,371,19933,5,6,3:2:0:0:
476,220,20144,1,2,0:0:0:0:
199,162,20356,1,10,0:0:0:0:
390,218,20567,1,2,3:2:0:0:
355,224,20672,1,0,3:0:0:0:
321,230,20778,1,0,3:0:0:0:
384,108,20989,1,0,3:0:0:0:
275,311,21201,1,8,0:0:0:0:
222,69,21412,1,2,3:2:0:0:
222,69,21518,1,0,3:0:0:0:
222,69,21623,5,6,3:2:0:0:
476,109,21834,1,2,0:0:0:0:
278,4,22046,1,10,0:0:0:0:
390,167,22257,1,2,3:2:0:0:
393,132,22362,1,0,3:0:0:0:
396,97,22468,1,10,3:2:0:0:
266,187,22680,1,2,3:2:0:0:
456,33,22891,1,10,0:0:0:0:
137,21,23102,1,6,0:0:0:0:
137,21,23525,5,2,3:2:0:0:
298,167,23736,1,10,0:0:0:0:
35,75,23947,1,2,3:2:0:0:
35,75,24053,1,0,3:0:0:0:
35,75,24159,1,2,3:2:0:0:
309,55,24370,1,2,3:2:0:0:
161,253,24581,1,10,0:0:0:0:
68,4,24792,1,6,0:0:0:0:
68,4,25215,5,0,3:0:0:0:
214,147,25426,1,8,0:0:0:0:
35,173,25637,1,0,3:0:0:0:
55,144,25742,1,0,3:0:0:0:
82,121,25848,1,0,3:0:0:0:
114,257,26060,1,0,3:0:0:0:
139,45,26271,1,8,0:0:0:0:
226,344,26482,1,6,3:2:0:0:
226,344,26905,5,2,3:2:0:0:
24,316,27116,1,10,0:0:0:0:
230,261,27327,1,2,3:2:0:0:
196,270,27432,1,0,3:0:0:0:
162,280,27538,1,0,3:0:0:0:
348,366,27750,1,2,3:2:0:0:
443,165,27961,1,10,0:0:0:0:
432,198,28066,1,8,0:0:0:0:
430,233,28172,1,8,0:0:0:0:
438,267,28277,1,8,0:0:0:0:
454,298,28383,1,14,0:0:0:0:
256,192,28489,12,0,30285,0:0:0:0:
