osu file format v14

[General]
AudioFilename: Harumachi Clover (TV Size).mp3
AudioLeadIn: 1400
PreviewTime: 643
Countdown: 0
SampleSet: Soft
StackLeniency: 0.3
Mode: 0
LetterboxInBreaks: 0
WidescreenStoryboard: 1

[Editor]
DistanceSpacing: 1
BeatDivisor: 4
GridSize: 32
TimelineZoom: 1.7

[Metadata]
Title:Harumachi Clover (TV Size)
TitleUnicode:春待ちクローバー (TV Size)
Artist:Hanasaka Yui (CV: M.A.O)
ArtistUnicode:花坂結衣 (CV: M・A・O)
Creator:DJPop
Version:Insane
Source:OneRoom
Tags:One Room tvsize Opening OP Kantoku ワンルーム カントク
BeatmapID:1817450
BeatmapSetID:866408

[Difficulty]
HPDrainRate:7
CircleSize:5
OverallDifficulty:8
ApproachRate:8
SliderMultiplier:1.92
SliderTickRate:2

[Events]
//Background and Video events
0,0,"Harumachi Clover 4.jpg",0,0
//Break Periods
//Storyboard Layer 0 (Background)
//Storyboard Layer 1 (Fail)
//Storyboard Layer 2 (Pass)
//Storyboard Layer 3 (Foreground)
//Storyboard Sound Samples

[TimingPoints]
10,422.535211267606,4,2,1,34,1,0
1594,-100,4,2,1,85,0,0
2017,-100,4,2,2,85,0,0
2228,-100,4,2,1,85,0,0
2862,-100,4,2,2,85,0,0
3073,-100,4,2,1,85,0,0
3707,-100,4,2,2,85,0,0
3918,-105.263157894737,4,2,1,85,0,0
4129,-105.263157894737,4,2,2,85,0,0
4340,-105.263157894737,4,2,1,85,0,0
4552,-105.263157894737,4,2,2,85,0,0
4763,-100,4,2,1,85,0,0
5397,-100,4,2,2,85,0,0
5608,-100,4,2,1,85,0,0
6242,-100,4,2,2,85,0,0
6453,-100,4,2,1,85,0,0
7087,-100,4,2,2,85,0,0
7298,-102.040816326531,4,2,1,85,0,0
7510,-102.040816326531,4,2,2,85,0,0
7721,-102.040816326531,4,2,1,85,0,0
7932,-102.040816326531,4,2,2,85,0,0
8143,-100,4,2,1,85,0,0
8777,-100,4,2,2,85,0,0
8988,-100,4,2,1,85,0,0
9622,-100,4,2,2,85,0,0
9833,-100,4,2,1,85,0,0
10467,-100,4,2,2,85,0,0
10679,-100,4,2,1,85,0,0
11312,-100,4,2,2,85,0,0
11524,-100,4,2,1,85,0,0
11840,-100,4,2,1,85,0,0
12157,-100,4,2,2,85,0,0
12369,-100,4,2,1,85,0,0
13002,-100,4,2,2,85,0,0
13214,-100,4,2,1,85,0,0
13425,-100,4,2,3,85,0,0
13636,-100,4,2,1,85,0,0
13848,-100,4,2,3,85,0,0
14059,-100,4,2,1,85,0,0
14270,-100,4,2,2,85,0,0
14481,-100,4,2,4,85,0,0
14798,-100,4,2,2,85,0,0
14904,-100,4,2,4,85,0,0
15221,-100,4,2,1,85,0,0
15538,-100,4,2,2,85,0,0
15749,-100,4,2,1,85,0,0
16383,-100,4,2,2,85,0,0
16594,-100,4,2,1,85,0,0
17228,-100,4,2,2,85,0,0
17439,-100,4,2,1,85,0,0
17650,-100,4,2,2,85,0,0
17862,-100,4,2,1,85,0,0
18073,-100,4,2,2,85,0,0
18284,-100,4,2,1,85,0,0
18918,-100,4,2,2,85,0,0
19129,-100,4,2,1,85,0,0
19763,-100,4,2,2,85,0,0
19974,-100,4,2,1,85,0,0
20608,-100,4,2,2,85,0,0
20819,-100,4,2,1,85,0,0
21031,-100,4,2,3,85,0,0
21136,-100,4,2,1,85,0,0
21453,-100,4,2,2,85,0,0
21664,-100,4,2,1,85,0,0
22298,-100,4,2,2,85,0,0
22510,-100,4,2,1,85,0,0
22721,-100,4,2,3,85,0,0
22932,-100,4,2,1,85,0,0
23143,-100,4,2,3,85,0,0
23355,-149.253731343284,4,2,1,85,0,0
23566,-149.253731343284,4,2,5,85,0,0
23777,-100,4,2,1,85,0,0
23988,-100,4,2,2,85,0,0
24200,-100,4,2,1,85,0,0
24833,-100,4,2,3,85,0,0
25045,-149.253731343284,4,2,1,85,0,0
25256,-149.253731343284,4,2,5,85,0,0
25467,-100,4,2,1,85,0,0
25679,-100,4,2,2,85,0,0
26101,-100,4,2,3,85,0,0
26207,-100,4,2,1,85,0,0
26524,-100,4,2,3,85,0,0
26735,-149.253731343284,4,2,1,85,0,0
26946,-149.253731343284,4,2,5,85,0,0
27157,-100,4,2,1,85,0,0
27369,-100,4,2,2,85,0,0
27580,-100,4,2,1,85,0,0
27791,-100,4,2,3,85,0,0
27897,-100,4,2,1,85,0,0
28214,-100,4,2,3,85,0,0
28425,-100,4,2,4,85,0,0
28742,-100,4,2,5,85,0,0
28848,-100,4,2,5,5,0,0

[Colours]
Combo1 : 170,202,255
Combo2 : 255,234,170
Combo3 : 213,255,170
Combo4 : 255,170,208

[HitObjects]
224,128,643,5,0,0:0:0:0:
256,64,855,1,0,0:0:0:0:
320,96,1066,1,0,0:0:0:0:
384,128,1277,1,0,0:0:0:0:
448,160,1488,1,0,0:0:0:0:
416,224,1700,5,12,0:0:0:0:
384,288,1911,1,0,0:0:0:0:
352,224,2122,1,8,0:0:0:0:
320,288,2333,1,0,0:0:0:0:
288,224,2545,1,8,0:0:0:0:
256,160,2756,1,0,0:0:0:0:
224,96,2967,1,8,0:0:0:0:
192,32,3179,1,0,0:0:0:0:
160,48,3284,1,0,0:0:0:0:
128,32,3390,5,8,0:0:0:0:
96,96,3601,1,0,0:0:0:0:
64,160,3812,1,8,0:0:0:0:
96,224,4024,2,0,P|189:321|320:320,1,273.599992694092,0|8,0:0|0:0,0:0:0:0:
384,288,4869,1,0,0:0:0:0:
448,256,5080,5,8,0:0:0:0:
384,224,5291,1,0,0:0:0:0:
448,192,5502,1,8,0:0:0:0:
384,160,5714,1,0,0:0:0:0:
448,128,5925,1,8,0:0:0:0:
416,64,6136,1,0,0:0:0:0:
352,32,6348,1,8,0:0:0:0:
288,64,6559,1,0,0:0:0:0:
256,128,6770,5,8,0:0:0:0:
320,160,6981,1,0,0:0:0:0:
256,192,7193,1,8,0:0:0:0:
320,224,7404,2,0,P|283:348|160:320,1,282.239997416016,0|8,0:0|0:0,0:0:0:0:
128,256,8249,1,0,0:0:0:0:
112,224,8355,1,0,0:0:0:0:
96,192,8460,5,12,0:0:0:0:
32,160,8671,1,0,0:0:0:0:
96,128,8883,1,8,0:0:0:0:
32,96,9094,1,0,0:0:0:0:
96,64,9305,1,8,0:0:0:0:
160,96,9517,1,0,0:0:0:0:
192,32,9728,1,8,0:0:0:0:
256,64,9939,2,0,L|256:128,2,48,0|0|10,0:0|0:0|0:0,0:0:0:0:
320,32,10362,5,0,0:0:0:0:
352,96,10573,1,8,0:0:0:0:
416,64,10784,1,0,0:0:0:0:
480,96,10995,1,8,0:0:0:0:
416,128,11207,1,0,0:0:0:0:
480,160,11418,1,8,0:0:0:0:
416,192,11629,1,0,0:0:0:0:
400,224,11735,1,0,0:0:0:0:
384,256,11840,6,0,P|317:321|224:320,3,192,12|8|8|8,0:0|0:0|0:0|0:0,0:0:0:0:
160,288,13319,1,0,0:0:0:0:
224,256,13531,5,10,0:0:0:0:
160,224,13742,1,8,0:0:0:0:
224,192,13953,1,10,0:0:0:0:
160,160,14164,1,8,0:0:0:0:
224,128,14376,1,8,0:0:0:0:
288,160,14587,1,8,0:0:0:0:
320,176,14693,1,8,0:0:0:0:
352,192,14798,1,8,0:0:0:0:
384,208,14904,1,8,0:0:0:0:
416,192,15010,1,8,0:0:0:0:
448,176,15115,1,8,0:0:0:0:
480,160,15221,5,10,0:0:0:0:
448,96,15432,1,0,0:0:0:0:
384,128,15643,1,8,0:0:0:0:
352,64,15855,1,0,0:0:0:0:
288,96,16066,1,8,0:0:0:0:
224,64,16277,1,0,0:0:0:0:
160,32,16488,1,8,0:0:0:0:
96,64,16700,1,0,0:0:0:0:
80,96,16805,1,0,0:0:0:0:
96,128,16911,5,8,0:0:0:0:
160,160,17122,1,0,0:0:0:0:
96,192,17333,1,8,0:0:0:0:
32,224,17545,2,0,P|92:344|224:320,1,288,0|8,0:0|0:0,0:0:0:0:
256,256,18390,1,0,0:0:0:0:
272,224,18495,1,0,0:0:0:0:
288,192,18601,5,12,0:0:0:0:
352,224,18812,1,0,0:0:0:0:
384,160,19024,1,8,0:0:0:0:
448,192,19235,1,0,0:0:0:0:
480,128,19446,1,8,0:0:0:0:
448,64,19657,1,0,0:0:0:0:
384,32,19869,1,8,0:0:0:0:
320,64,20080,1,0,0:0:0:0:
256,32,20291,5,10,0:0:0:0:
224,96,20502,1,0,0:0:0:0:
192,32,20714,1,8,0:0:0:0:
160,96,20925,2,0,L|160:160,2,48,0|8|8,0:0|0:0|0:0,0:0:0:0:
128,32,21348,1,8,0:0:0:0:
96,96,21559,1,8,0:0:0:0:
64,32,21770,1,0,0:0:0:0:
32,96,21981,5,12,0:0:0:0:
64,160,22193,1,0,0:0:0:0:
32,224,22404,1,8,0:0:0:0:
64,288,22615,1,0,0:0:0:0:
96,288,22721,1,8,0:0:0:0:
128,288,22826,1,8,0:0:0:0:
160,352,23038,1,8,0:0:0:0:
192,288,23249,1,8,0:0:0:0:
224,352,23460,2,0,L|288:352,1,64.3199969575197,10|0,0:0|0:0,0:0:0:0:
352,352,23883,5,8,0:0:0:0:
416,320,24094,1,8,0:0:0:0:
352,288,24305,1,0,0:0:0:0:
416,256,24517,1,8,0:0:0:0:
480,224,24728,1,8,0:0:0:0:
416,192,24939,1,8,0:0:0:0:
352,160,25150,2,0,L|288:160,1,64.3199969575197,10|0,0:0|0:0,0:0:0:0:
256,224,25573,5,8,0:0:0:0:
224,160,25784,1,8,0:0:0:0:
192,224,25995,1,0,0:0:0:0:
160,208,26101,1,8,0:0:0:0:
128,224,26207,1,8,0:0:0:0:
64,224,26418,1,8,0:0:0:0:
32,160,26629,1,8,0:0:0:0:
64,96,26840,6,0,L|128:96,1,64.3199969575197,12|0,0:0|0:0,0:0:0:0:
160,32,27263,1,8,0:0:0:0:
192,96,27474,1,10,0:0:0:0:
256,128,27686,2,0,L|256:192,2,48,0|8|8,0:0|0:0|0:0,0:0:0:0:
320,96,28108,1,8,0:0:0:0:
352,32,28319,1,8,0:0:0:0:
384,48,28425,1,8,0:0:0:0:
416,64,28531,1,8,0:0:0:0:
448,80,28636,1,8,0:0:0:0:
480,96,28742,1,10,0:0:0:0:
256,192,28848,12,0,32122,0:0:0:0:
