osu file format v14

[General]
AudioFilename: Harumachi Clover (TV Size).mp3
AudioLeadIn: 1400
PreviewTime: 643
Countdown: 0
SampleSet: Soft
StackLeniency: 0.3
Mode: 0
LetterboxInBreaks: 0
WidescreenStoryboard: 1

[Editor]
DistanceSpacing: 1
BeatDivisor: 4
GridSize: 32
TimelineZoom: 1.7

[Metadata]
Title:Harumachi Clover (TV Size)
TitleUnicode:春待ちクローバー (TV Size)
Artist:Hanasaka Yui (CV: M.A.O)
ArtistUnicode:花坂結衣 (CV: M・A・O)
Creator:DJPop
Version:Hard
Source:OneRoom
Tags:One Room tvsize Opening OP Kantoku ワンルーム カントク
BeatmapID:1811435
BeatmapSetID:866408

[Difficulty]
HPDrainRate:5
CircleSize:5
OverallDifficulty:6
ApproachRate:6
SliderMultiplier:1.28
SliderTickRate:2

[Events]
//Background and Video events
0,0,"Harumachi Clover 3.jpg",0,0
//Break Periods
//Storyboard Layer 0 (Background)
//Storyboard Layer 1 (Fail)
//Storyboard Layer 2 (Pass)
//Storyboard Layer 3 (Foreground)
//Storyboard Sound Samples

[TimingPoints]
10,422.535211267606,4,2,1,34,1,0
1594,-100,4,2,1,85,0,0
2017,-100,4,2,2,85,0,0
2228,-100,4,2,1,85,0,0
2862,-100,4,2,2,85,0,0
3073,-100,4,2,1,85,0,0
3707,-100,4,2,2,85,0,0
3918,-100,4,2,1,85,0,0
4129,-100,4,2,2,85,0,0
4340,-100,4,2,1,85,0,0
4552,-100,4,2,2,85,0,0
4763,-100,4,2,1,85,0,0
5397,-100,4,2,2,85,0,0
5608,-100,4,2,1,85,0,0
6242,-100,4,2,2,85,0,0
6453,-100,4,2,1,85,0,0
7087,-100,4,2,2,85,0,0
7298,-100,4,2,1,85,0,0
7510,-100,4,2,2,85,0,0
7721,-100,4,2,1,85,0,0
7932,-100,4,2,2,85,0,0
8143,-100,4,2,1,85,0,0
8777,-100,4,2,2,85,0,0
8988,-100,4,2,1,85,0,0
9622,-100,4,2,2,85,0,0
9833,-100,4,2,1,85,0,0
10467,-100,4,2,2,85,0,0
10679,-100,4,2,1,85,0,0
11312,-100,4,2,2,85,0,0
11524,-100,4,2,1,85,0,0
12157,-100,4,2,2,85,0,0
12369,-100,4,2,1,85,0,0
13002,-100,4,2,2,85,0,0
13214,-100,4,2,1,85,0,0
13425,-100,4,2,3,85,0,0
13636,-100,4,2,1,85,0,0
13848,-100,4,2,3,85,0,0
14059,-100,4,2,1,85,0,0
14270,-100,4,2,2,85,0,0
14481,-100,4,2,4,85,0,0
14693,-100,4,2,2,85,0,0
14904,-100,4,2,4,85,0,0
15221,-100,4,2,1,85,0,0
15538,-100,4,2,2,85,0,0
15749,-100,4,2,1,85,0,0
16383,-100,4,2,2,85,0,0
16594,-100,4,2,1,85,0,0
17228,-100,4,2,2,85,0,0
17439,-100,4,2,1,85,0,0
17650,-100,4,2,2,85,0,0
17862,-100,4,2,1,85,0,0
18073,-100,4,2,2,85,0,0
18284,-100,4,2,1,85,0,0
18918,-100,4,2,2,85,0,0
19129,-100,4,2,1,85,0,0
19763,-100,4,2,2,85,0,0
19974,-100,4,2,1,85,0,0
20608,-100,4,2,2,85,0,0
20819,-100,4,2,1,85,0,0
21031,-100,4,2,2,85,0,0
21664,-100,4,2,1,85,0,0
22298,-100,4,2,2,85,0,0
22510,-100,4,2,1,85,0,0
22721,-100,4,2,3,85,0,0
22932,-100,4,2,1,85,0,0
23143,-100,4,2,3,85,0,0
23355,-100,4,2,1,85,0,0
23566,-100,4,2,5,85,0,0
23777,-100,4,2,1,85,0,0
23988,-100,4,2,2,85,0,0
24200,-100,4,2,1,85,0,0
24833,-100,4,2,3,85,0,0
25045,-100,4,2,1,85,0,0
25256,-100,4,2,5,85,0,0
25467,-100,4,2,1,85,0,0
25679,-100,4,2,2,85,0,0
25890,-100,4,2,1,85,0,0
26312,-100,4,2,2,85,0,0
26524,-100,4,2,3,85,0,0
26735,-102.040816326531,4,2,1,85,0,0
26946,-102.040816326531,4,2,5,85,0,0
27157,-102.040816326531,4,2,1,85,0,0
27369,-100,4,2,2,85,0,0
27580,-100,4,2,1,85,0,0
27791,-100,4,2,2,85,0,0
28002,-100,4,2,1,85,0,0
28214,-100,4,2,3,85,0,0
28425,-100,4,2,5,85,0,0
28848,-100,4,2,5,5,0,0

[Colours]
Combo1 : 170,202,255
Combo2 : 255,234,170
Combo3 : 213,255,170
Combo4 : 255,170,208

[HitObjects]
64,96,643,5,0,0:0:0:0:
128,96,855,1,0,0:0:0:0:
192,96,1066,1,0,0:0:0:0:
256,96,1277,1,0,0:0:0:0:
320,96,1488,1,0,0:0:0:0:
384,96,1700,6,0,L|448:96,1,64,12|0,0:0|0:0,0:0:0:0:
448,160,2122,2,0,L|384:160,1,64,8|0,0:0|0:0,0:0:0:0:
384,224,2545,2,0,L|448:224,1,64,8|0,0:0|0:0,0:0:0:0:
448,288,2967,2,0,L|384:288,1,64,8|0,0:0|0:0,0:0:0:0:
384,352,3390,6,0,L|448:352,2,64,8|0|8,0:0|0:0|0:0,0:0:0:0:
320,352,4024,2,0,L|128:352,1,192,0|8,0:0|0:0,0:0:0:0:
64,352,4869,1,0,0:0:0:0:
64,288,5080,6,0,L|128:288,1,64,8|0,0:0|0:0,0:0:0:0:
128,224,5502,2,0,L|64:224,1,64,8|0,0:0|0:0,0:0:0:0:
64,160,5925,2,0,L|128:160,1,64,8|0,0:0|0:0,0:0:0:0:
128,96,6348,2,0,L|64:96,1,64,8|0,0:0|0:0,0:0:0:0:
64,32,6770,5,8,0:0:0:0:
128,32,6981,1,0,0:0:0:0:
192,32,7193,1,8,0:0:0:0:
256,32,7404,2,0,L|448:32,1,192,0|8,0:0|0:0,0:0:0:0:
448,96,8249,1,0,0:0:0:0:
448,160,8460,6,0,L|448:224,1,64,12|0,0:0|0:0,0:0:0:0:
384,224,8883,2,0,L|384:160,1,64,8|0,0:0|0:0,0:0:0:0:
320,160,9305,2,0,L|320:96,2,64,8|0|8,0:0|0:0|0:0,0:0:0:0:
320,224,9939,2,0,L|256:224,1,64,0|10,0:0|0:0,0:0:0:0:
256,160,10362,5,0,0:0:0:0:
192,160,10573,2,0,L|192:224,1,64,8|0,0:0|0:0,0:0:0:0:
128,224,10995,2,0,L|128:160,1,64,8|0,0:0|0:0,0:0:0:0:
64,160,11418,2,0,L|64:224,1,64,8|0,0:0|0:0,0:0:0:0:
64,288,11840,6,0,L|192:288,3,128,12|8|8|8,0:0|0:0|0:0|0:0,0:0:0:0:
192,352,13319,1,0,0:0:0:0:
256,352,13531,5,10,0:0:0:0:
256,288,13742,1,8,0:0:0:0:
320,288,13953,1,10,0:0:0:0:
320,224,14164,1,8,0:0:0:0:
384,224,14376,1,8,0:0:0:0:
384,160,14587,2,0,L|448:160,2,64,8|8|8,0:0|0:0|0:0,0:0:0:0:
384,96,15221,6,0,L|320:96,1,64,10|0,0:0|0:0,0:0:0:0:
320,32,15643,2,0,L|256:32,1,64,8|0,0:0|0:0,0:0:0:0:
256,96,16066,2,0,L|192:96,1,64,8|0,0:0|0:0,0:0:0:0:
192,32,16488,2,0,L|128:32,1,64,8|0,0:0|0:0,0:0:0:0:
128,96,16911,6,0,L|64:96,2,64,8|0|8,0:0|0:0|0:0,0:0:0:0:
128,160,17545,2,0,L|128:352,1,192,0|8,0:0|0:0,0:0:0:0:
192,352,18390,1,0,0:0:0:0:
256,352,18601,6,0,L|256:288,1,64,12|0,0:0|0:0,0:0:0:0:
192,288,19024,2,0,L|192:224,1,64,8|0,0:0|0:0,0:0:0:0:
256,224,19446,2,0,L|256:160,1,64,8|0,0:0|0:0,0:0:0:0:
192,160,19869,2,0,L|192:96,1,64,8|0,0:0|0:0,0:0:0:0:
192,32,20291,5,10,0:0:0:0:
256,32,20502,1,0,0:0:0:0:
320,32,20714,1,8,0:0:0:0:
384,32,20925,2,0,L|384:224,1,192,0|8,0:0|0:0,0:0:0:0:
448,224,21770,1,0,0:0:0:0:
448,288,21981,6,0,L|384:288,1,64,12|0,0:0|0:0,0:0:0:0:
384,352,22404,2,0,L|320:352,1,64,8|0,0:0|0:0,0:0:0:0:
320,288,22826,1,8,0:0:0:0:
256,288,23038,1,8,0:0:0:0:
192,288,23249,1,8,0:0:0:0:
192,352,23460,6,0,L|64:352,1,128,10|8,0:0|0:0,0:0:0:0:
64,288,24094,2,0,L|64:224,1,64,8|0,0:0|0:0,0:0:0:0:
128,224,24517,1,8,0:0:0:0:
128,160,24728,1,8,0:0:0:0:
128,96,24939,1,8,0:0:0:0:
192,96,25150,6,0,L|320:96,1,128,10|8,0:0|0:0,0:0:0:0:
320,32,25784,2,0,L|192:32,2,128,8|8|8,0:0|0:0|0:0,0:0:0:0:
384,32,26840,6,0,L|384:160,1,125.439998851563,12|8,0:0|0:0,0:0:0:0:
384,224,27474,1,10,0:0:0:0:
384,288,27686,2,0,L|256:288,1,128,0|8,0:0|0:0,0:0:0:0:
256,224,28319,2,0,L|256:160,1,64,8|0,0:0|0:0,0:0:0:0:
256,96,28742,1,10,0:0:0:0:
256,192,28848,12,0,32122,0:0:0:0:
