osu file format v14

[General]
AudioFilename: audio.mp3
AudioLeadIn: 0
PreviewTime: 73
Countdown: 0
SampleSet: None
StackLeniency: 0.7
Mode: 3
LetterboxInBreaks: 0
SpecialStyle: 0
WidescreenStoryboard: 1

[Editor]
DistanceSpacing: 1.1
BeatDivisor: 4
GridSize: 4
TimelineZoom: 1.1

[Metadata]
Title:Harumachi Clover (TV Size)
TitleUnicode:春待ちクローバー (TV Size)
Artist:Hanasaka Yui (CV: M.A.O)
ArtistUnicode:花坂結衣(CV:M・A・O)
Creator:Couil
Version:NM
Source:OneRoom
Tags:riu riunosk Kantoku カントク TYPHOON GRAPHICS ワンルーム One Room
BeatmapID:1443374
BeatmapSetID:682518

[Difficulty]
HPDrainRate:7
CircleSize:4
OverallDifficulty:7.5
ApproachRate:5
SliderMultiplier:1.4
SliderTickRate:1

[Events]
//Background and Video events
0,0,"harumachi bg2.jpg",0,0
//Break Periods
//Storyboard Layer 0 (Background)
//Storyboard Layer 1 (Fail)
//Storyboard Layer 2 (Pass)
//Storyboard Layer 3 (Foreground)
//Storyboard Sound Samples

[TimingPoints]
1338,422.535211267606,4,3,1,85,1,0

[Colours]
Combo1 : 255,179,222
Combo2 : 255,128,64
Combo3 : 255,255,255
Combo4 : 252,199,75

[HitObjects]
64,192,281,5,0,0:0:0:0:
448,192,492,1,0,0:0:0:0:
320,192,704,1,0,0:0:0:0:
192,192,915,1,0,0:0:0:0:
64,192,1126,1,0,0:0:0:0:
448,192,1338,1,0,0:0:0:0:
320,192,1338,1,4,0:0:0:0:
192,192,1549,1,0,0:0:0:0:
448,192,1760,1,0,0:0:0:0:
64,192,1760,1,8,0:0:0:0:
320,192,1971,1,0,0:0:0:0:
192,192,2183,1,0,0:0:0:0:
448,192,2394,1,0,0:0:0:0:
320,192,2605,1,8,0:0:0:0:
64,192,2605,1,0,0:0:0:0:
192,192,2816,1,0,0:0:0:0:
448,192,2922,1,0,0:0:0:0:
192,192,3028,1,0,0:0:0:0:
320,192,3239,1,0,0:0:0:0:
448,192,3450,1,8,0:0:0:0:
64,192,3450,1,0,0:0:0:0:
192,192,3661,1,0,0:0:0:0:
320,192,3873,1,0,0:0:0:0:
64,192,4084,1,0,0:0:0:0:
320,192,4295,1,0,0:0:0:0:
192,192,4295,1,8,0:0:0:0:
448,192,4507,1,0,0:0:0:0:
64,192,4718,1,0,0:0:0:0:
320,192,4929,1,0,0:0:0:0:
448,192,5140,1,0,0:0:0:0:
192,192,5140,1,8,0:0:0:0:
64,192,5352,1,0,0:0:0:0:
320,192,5563,1,0,0:0:0:0:
192,192,5774,1,0,0:0:0:0:
448,192,5985,1,0,0:0:0:0:
64,192,5985,1,8,0:0:0:0:
320,192,6197,1,0,0:0:0:0:
448,192,6408,1,0,0:0:0:0:
64,192,6619,1,0,0:0:0:0:
192,192,6830,1,8,0:0:0:0:
448,192,6830,1,0,0:0:0:0:
320,192,7042,1,0,0:0:0:0:
64,192,7253,1,0,0:0:0:0:
448,192,7464,1,0,0:0:0:0:
320,192,7676,1,0,0:0:0:0:
192,192,7676,1,8,0:0:0:0:
64,192,7887,1,0,0:0:0:0:
448,192,7992,1,0,0:0:0:0:
192,192,8098,1,4,0:0:0:0:
64,192,8098,1,0,0:0:0:0:
320,192,8309,1,0,0:0:0:0:
448,192,8521,1,0,0:0:0:0:
64,192,8521,1,8,0:0:0:0:
192,192,8732,1,0,0:0:0:0:
320,192,8943,1,0,0:0:0:0:
64,192,9154,1,0,0:0:0:0:
320,192,9366,1,8,0:0:0:0:
192,192,9366,1,0,0:0:0:0:
448,192,9577,1,0,0:0:0:0:
64,192,9683,1,0,0:0:0:0:
320,192,9788,1,4,0:0:0:0:
448,192,9788,1,0,0:0:0:0:
64,192,9999,1,0,0:0:0:0:
192,192,10211,1,0,0:0:0:0:
320,192,10211,1,8,0:0:0:0:
448,192,10422,1,0,0:0:0:0:
64,192,10633,1,0,0:0:0:0:
320,192,10845,1,0,0:0:0:0:
448,192,11056,1,8,0:0:0:0:
192,192,11056,1,0,0:0:0:0:
64,192,11267,1,0,0:0:0:0:
320,192,11373,1,0,0:0:0:0:
192,192,11478,1,4,0:0:0:0:
64,192,11478,1,0,0:0:0:0:
448,192,11690,1,0,0:0:0:0:
320,192,11901,1,0,0:0:0:0:
192,192,11901,1,8,0:0:0:0:
64,192,12112,1,0,0:0:0:0:
448,192,12323,1,0,0:0:0:0:
192,192,12535,1,0,0:0:0:0:
320,192,12746,1,8,0:0:0:0:
64,192,12746,1,0,0:0:0:0:
448,192,12957,1,0,0:0:0:0:
192,192,13168,1,4,0:0:0:0:
64,192,13168,1,0,0:0:0:0:
320,192,13380,1,0,0:0:0:0:
448,192,13591,1,0,0:0:0:0:
64,192,13591,1,12,0:0:0:0:
192,192,13802,1,0,0:0:0:0:
320,192,14014,1,4,0:0:0:0:
448,192,14014,1,0,0:0:0:0:
64,192,14225,1,0,0:0:0:0:
192,192,14330,1,0,0:0:0:0:
320,192,14436,1,8,0:0:0:0:
64,192,14542,1,0,0:0:0:0:
448,192,14647,1,0,0:0:0:0:
192,192,14753,1,0,0:0:0:0:
320,192,14859,1,4,0:0:0:0:
448,192,14859,1,0,0:0:0:0:
64,192,15070,1,0,0:0:0:0:
192,192,15281,1,0,0:0:0:0:
448,192,15281,1,8,0:0:0:0:
320,192,15492,1,0,0:0:0:0:
64,192,15704,1,0,0:0:0:0:
448,192,15915,1,0,0:0:0:0:
320,192,16126,1,8,0:0:0:0:
192,192,16126,1,0,0:0:0:0:
64,192,16338,1,0,0:0:0:0:
448,192,16443,1,0,0:0:0:0:
64,192,16549,1,0,0:0:0:0:
320,192,16760,1,0,0:0:0:0:
192,192,16971,1,8,0:0:0:0:
448,192,16971,1,0,0:0:0:0:
64,192,17183,1,0,0:0:0:0:
320,192,17394,1,0,0:0:0:0:
192,192,17605,1,0,0:0:0:0:
64,192,17816,1,0,0:0:0:0:
448,192,17816,1,8,0:0:0:0:
320,192,18028,1,0,0:0:0:0:
192,192,18133,1,0,0:0:0:0:
320,192,18239,1,4,0:0:0:0:
448,192,18239,1,0,0:0:0:0:
64,192,18450,1,0,0:0:0:0:
192,192,18661,1,8,0:0:0:0:
320,192,18661,1,0,0:0:0:0:
448,192,18873,1,0,0:0:0:0:
64,192,19084,1,0,0:0:0:0:
320,192,19295,1,0,0:0:0:0:
192,192,19507,1,8,0:0:0:0:
448,192,19507,1,0,0:0:0:0:
64,192,19718,1,0,0:0:0:0:
448,192,19929,1,4,0:0:0:0:
320,192,19929,1,0,0:0:0:0:
64,192,20140,1,0,0:0:0:0:
448,192,20352,1,8,0:0:0:0:
192,192,20352,1,0,0:0:0:0:
320,192,20563,1,0,0:0:0:0:
64,192,20668,1,0,0:0:0:0:
320,192,20774,1,0,0:0:0:0:
192,192,20985,1,0,0:0:0:0:
64,192,21197,1,0,0:0:0:0:
448,192,21197,1,8,0:0:0:0:
320,192,21408,1,0,0:0:0:0:
192,192,21514,1,0,0:0:0:0:
320,192,21619,1,4,0:0:0:0:
448,192,21619,1,0,0:0:0:0:
192,192,21830,1,0,0:0:0:0:
64,192,22042,1,0,0:0:0:0:
448,192,22042,1,8,0:0:0:0:
320,192,22253,1,0,0:0:0:0:
192,192,22359,1,0,0:0:0:0:
320,192,22464,1,8,0:0:0:0:
64,192,22676,1,0,0:0:0:0:
192,192,22887,1,8,0:0:0:0:
448,192,22887,1,0,0:0:0:0:
64,192,23098,1,0,0:0:0:0:
320,192,23098,1,4,0:0:0:0:
448,192,23521,1,0,0:0:0:0:
64,192,23732,1,8,0:0:0:0:
320,192,23732,1,0,0:0:0:0:
192,192,23943,1,0,0:0:0:0:
448,192,24049,1,0,0:0:0:0:
192,192,24154,1,0,0:0:0:0:
320,192,24366,1,0,0:0:0:0:
448,192,24577,1,0,0:0:0:0:
64,192,24577,1,8,0:0:0:0:
192,192,24788,1,0,0:0:0:0:
320,192,24788,1,4,0:0:0:0:
64,192,25211,1,0,0:0:0:0:
192,192,25422,1,0,0:0:0:0:
320,192,25422,1,8,0:0:0:0:
448,192,25633,1,0,0:0:0:0:
64,192,25739,1,0,0:0:0:0:
448,192,25845,1,0,0:0:0:0:
192,192,26056,1,0,0:0:0:0:
64,192,26267,1,0,0:0:0:0:
320,192,26267,1,8,0:0:0:0:
192,192,26478,1,4,0:0:0:0:
448,192,26478,1,0,0:0:0:0:
320,192,26901,1,0,0:0:0:0:
192,192,27112,1,8,0:0:0:0:
448,192,27112,1,0,0:0:0:0:
64,192,27323,1,0,0:0:0:0:
320,192,27429,1,0,0:0:0:0:
64,192,27535,1,0,0:0:0:0:
448,192,27746,1,0,0:0:0:0:
192,192,27957,1,8,0:0:0:0:
320,192,28063,1,0,0:0:0:0:
448,192,28168,1,0,0:0:0:0:
192,192,28274,1,0,0:0:0:0:
64,192,28380,128,0,30281:0:0:0:0:
448,192,28380,128,4,30281:0:0:0:0:
