osu file format v14

[General]
AudioFilename: audio.mp3
AudioLeadIn: 0
PreviewTime: 284
Countdown: 0
SampleSet: Normal
StackLeniency: 0.7
Mode: 1
LetterboxInBreaks: 0
WidescreenStoryboard: 0

[Editor]
Bookmarks: 1341,4721,8101,11481,14862,18242,21622,25003,28383,30496
DistanceSpacing: 0.9
BeatDivisor: 4
GridSize: 32
TimelineZoom: 2

[Metadata]
Title:Harumachi Clover (TV Size)
TitleUnicode:春待ちクローバー (TV Size)
Artist:Hanasaka Yui (CV: M.A.O)
ArtistUnicode:花坂結衣(CV:M・A・O)
Creator:-GN Junior
Version:Poii's Muzukashii
Source:OneRoom
Tags:TV Size One Room カントク Kantoku Poii
BeatmapID:1608084
BeatmapSetID:763403

[Difficulty]
HPDrainRate:7
CircleSize:2
OverallDifficulty:4
ApproachRate:10
SliderMultiplier:1.4
SliderTickRate:1

[Events]
//Background and Video events
0,0,"AmeAgare-One-Room-02-9DE6AC5E.mkv_snapshot_02.28_2017.01.19_02.05.16.jpg",0,0
//Break Periods
//Storyboard Layer 0 (Background)
//Storyboard Layer 1 (Fail)
//Storyboard Layer 2 (Pass)
//Storyboard Layer 3 (Foreground)
//Storyboard Sound Samples

[TimingPoints]
-349,422.535211267606,4,1,0,100,1,0
28805,-100,4,1,0,80,0,0
29228,-100,4,1,0,60,0,0
29651,-100,4,1,0,40,0,0
30073,-100,4,1,0,20,0,0
30496,-100,4,1,0,10,0,0

[HitObjects]
448,224,496,5,8,0:0:0:0:
448,224,918,1,8,0:0:0:0:
448,224,1341,1,4,0:0:0:0:
448,224,1552,1,8,0:0:0:0:
448,224,1763,1,8,0:0:0:0:
448,224,2186,1,8,0:0:0:0:
448,224,2397,1,0,0:0:0:0:
448,224,2608,1,8,0:0:0:0:
448,224,3031,1,0,0:0:0:0:
448,224,3242,1,8,0:0:0:0:
448,224,3348,1,8,0:0:0:0:
448,224,3453,1,8,0:0:0:0:
448,224,3665,1,0,0:0:0:0:
448,224,4510,1,0,0:0:0:0:
448,224,4721,1,8,0:0:0:0:
448,224,4932,1,8,0:0:0:0:
448,224,5143,1,0,0:0:0:0:
448,224,5566,1,0,0:0:0:0:
448,224,5777,1,8,0:0:0:0:
448,224,5883,1,8,0:0:0:0:
448,224,5989,1,8,0:0:0:0:
448,224,6411,1,0,0:0:0:0:
448,224,6622,1,8,0:0:0:0:
448,224,6834,1,0,0:0:0:0:
448,224,7045,1,0,0:0:0:0:
448,224,7679,1,0,0:0:0:0:
448,224,7890,1,8,0:0:0:0:
448,224,8101,1,8,0:0:0:0:
448,224,8312,1,0,0:0:0:0:
448,224,8524,1,8,0:0:0:0:
448,224,8946,1,8,0:0:0:0:
448,224,9158,1,0,0:0:0:0:
448,224,9580,1,8,0:0:0:0:
448,224,10003,1,0,0:0:0:0:
448,224,10214,1,8,0:0:0:0:
448,224,10636,1,8,0:0:0:0:
448,224,10848,1,0,0:0:0:0:
448,224,10953,1,0,0:0:0:0:
448,224,11059,1,0,0:0:0:0:
448,224,11270,1,8,0:0:0:0:
448,224,11481,1,0,0:0:0:0:
448,224,11904,1,8,0:0:0:0:
448,224,12327,1,0,0:0:0:0:
448,224,12749,1,8,0:0:0:0:
448,224,12960,1,0,0:0:0:0:
448,224,13172,1,8,0:0:0:0:
448,224,13594,1,8,0:0:0:0:
448,224,13805,1,0,0:0:0:0:
448,224,13911,1,0,0:0:0:0:
448,224,14017,1,0,0:0:0:0:
448,224,14439,1,0,0:0:0:0:
448,224,14651,1,8,0:0:0:0:
448,224,14862,1,4,0:0:0:0:
448,224,15073,1,8,0:0:0:0:
448,224,15284,1,0,0:0:0:0:
448,224,15707,1,8,0:0:0:0:
448,224,15918,1,0,0:0:0:0:
448,224,16129,1,0,0:0:0:0:
448,224,16552,1,8,0:0:0:0:
448,224,16763,1,0,0:0:0:0:
448,224,16869,1,0,0:0:0:0:
448,224,16974,1,0,0:0:0:0:
448,224,17186,1,8,0:0:0:0:
448,224,18031,1,0,0:0:0:0:
448,224,18242,1,0,0:0:0:0:
448,224,18453,1,8,0:0:0:0:
448,224,18665,1,0,0:0:0:0:
448,224,19087,1,0,0:0:0:0:
448,224,19298,1,8,0:0:0:0:
448,224,19404,1,8,0:0:0:0:
448,224,19510,1,8,0:0:0:0:
448,224,19932,1,8,0:0:0:0:
448,224,20143,1,0,0:0:0:0:
448,224,20355,1,8,0:0:0:0:
448,224,20566,1,8,0:0:0:0:
448,224,21411,1,0,0:0:0:0:
448,224,21622,1,8,0:0:0:0:
448,224,21834,1,0,0:0:0:0:
448,224,22045,1,0,0:0:0:0:
448,224,22467,1,8,0:0:0:0:
448,224,22679,1,8,0:0:0:0:
448,224,22784,1,8,0:0:0:0:
448,224,22890,1,8,0:0:0:0:
448,224,23101,1,4,0:0:0:0:
448,224,23524,1,8,0:0:0:0:
448,224,23735,1,8,0:0:0:0:
448,224,23946,1,0,0:0:0:0:
448,224,24158,1,0,0:0:0:0:
448,224,24580,1,0,0:0:0:0:
448,224,24791,1,12,0:0:0:0:
448,224,25425,1,8,0:0:0:0:
448,224,25848,1,0,0:0:0:0:
448,224,26059,1,0,0:0:0:0:
448,224,26270,1,8,0:0:0:0:
448,224,26481,1,12,0:0:0:0:
448,224,26904,1,0,0:0:0:0:
448,224,27115,1,8,0:0:0:0:
448,224,27327,1,0,0:0:0:0:
448,224,27749,1,8,0:0:0:0:
448,224,27960,1,0,0:0:0:0:
448,224,28066,1,0,0:0:0:0:
448,224,28172,1,0,0:0:0:0:
448,224,28383,1,12,0:0:0:0:
256,192,28594,8,0,30496,0:0:0:0:
