osu file format v14

[General]
AudioFilename: audio.mp3
AudioLeadIn: 0
PreviewTime: 284
Countdown: 0
SampleSet: Normal
StackLeniency: 0.7
Mode: 1
LetterboxInBreaks: 0
WidescreenStoryboard: 0

[Editor]
Bookmarks: 1341,4721,8101,11481,14862,18242,21622,25003,28383,30496
DistanceSpacing: 0.9
BeatDivisor: 4
GridSize: 4
TimelineZoom: 2.560001

[Metadata]
Title:Harumachi Clover (TV Size)
TitleUnicode:春待ちクローバー (TV Size)
Artist:Hanasaka Yui (CV: M.A.O)
ArtistUnicode:花坂結衣(CV:M・A・O)
Creator:-GN Junior
Version:Inner Oni
Source:OneRoom
Tags:TV Size One Room カントク Kantoku Poii
BeatmapID:1607220
BeatmapSetID:763403

[Difficulty]
HPDrainRate:6
CircleSize:7
OverallDifficulty:5.5
ApproachRate:10
SliderMultiplier:1.4
SliderTickRate:1

[Events]
//Background and Video events
0,0,"AmeAgare-One-Room-02-9DE6AC5E.mkv_snapshot_02.28_2017.01.19_02.05.16.jpg",0,0
//Break Periods
//Storyboard Layer 0 (Background)
//Storyboard Layer 1 (Fail)
//Storyboard Layer 2 (Pass)
//Storyboard Layer 3 (Foreground)
//Storyboard Sound Samples

[TimingPoints]
-349,422.535211267606,4,1,0,100,1,0
28805,-100,4,1,0,80,0,0
29228,-100,4,1,0,60,0,0
29651,-100,4,1,0,40,0,0
30073,-100,4,1,0,20,0,0
30496,-100,4,1,0,10,0,0

[HitObjects]
360,48,284,5,0,0:0:0:0:
392,48,496,1,2,0:0:0:0:
424,48,707,1,2,0:0:0:0:
456,48,918,1,0,0:0:0:0:
488,48,1129,1,0,0:0:0:0:
8,80,1341,5,6,0:0:0:0:
40,80,1552,1,0,0:0:0:0:
56,80,1658,1,0,0:0:0:0:
72,80,1763,1,2,0:0:0:0:
104,80,1974,1,0,0:0:0:0:
136,80,2186,1,2,0:0:0:0:
168,80,2397,1,2,0:0:0:0:
184,80,2503,1,0,0:0:0:0:
200,80,2608,1,2,0:0:0:0:
232,80,2820,1,2,0:0:0:0:
264,80,3031,1,0,0:0:0:0:
296,80,3242,1,0,0:0:0:0:
312,80,3348,1,0,0:0:0:0:
328,80,3453,1,2,0:0:0:0:
360,80,3665,1,0,0:0:0:0:
392,80,3876,1,2,0:0:0:0:
424,80,4087,1,0,0:0:0:0:
440,80,4193,1,0,0:0:0:0:
456,80,4298,1,2,0:0:0:0:
472,80,4404,1,0,0:0:0:0:
488,80,4510,1,0,0:0:0:0:
504,80,4615,1,0,0:0:0:0:
8,112,4721,5,2,0:0:0:0:
40,112,4932,1,0,0:0:0:0:
72,112,5143,1,2,0:0:0:0:
104,112,5355,1,0,0:0:0:0:
120,112,5460,1,0,0:0:0:0:
136,112,5566,1,2,0:0:0:0:
168,112,5777,1,0,0:0:0:0:
200,112,5989,1,2,0:0:0:0:
216,112,6094,1,0,0:0:0:0:
232,112,6200,1,2,0:0:0:0:
264,112,6411,1,2,0:0:0:0:
296,112,6622,1,0,0:0:0:0:
328,112,6834,1,2,0:0:0:0:
344,112,6939,1,2,0:0:0:0:
360,112,7045,1,0,0:0:0:0:
392,112,7256,1,2,0:0:0:0:
424,112,7467,1,0,0:0:0:0:
456,112,7679,1,2,0:0:0:0:
472,112,7784,1,2,0:0:0:0:
488,112,7890,1,0,0:0:0:0:
504,112,7996,1,0,0:0:0:0:
8,144,8101,5,2,0:0:0:0:
40,144,8312,1,0,0:0:0:0:
72,144,8524,1,2,0:0:0:0:
104,144,8735,1,0,0:0:0:0:
120,144,8841,1,2,0:0:0:0:
136,144,8946,1,0,0:0:0:0:
168,144,9158,1,2,0:0:0:0:
200,144,9369,1,2,0:0:0:0:
216,144,9474,1,2,0:0:0:0:
232,144,9580,1,0,0:0:0:0:
264,144,9791,1,2,0:0:0:0:
296,144,10003,1,0,0:0:0:0:
312,144,10108,1,0,0:0:0:0:
328,144,10214,1,2,0:0:0:0:
360,144,10425,1,0,0:0:0:0:
392,144,10636,1,2,0:0:0:0:
408,144,10742,1,2,0:0:0:0:
424,144,10848,1,0,0:0:0:0:
456,144,11059,1,2,0:0:0:0:
472,144,11165,1,2,0:0:0:0:
488,144,11270,1,0,0:0:0:0:
504,144,11376,1,0,0:0:0:0:
8,176,11481,5,2,0:0:0:0:
40,176,11693,1,0,0:0:0:0:
72,176,11904,1,2,0:0:0:0:
104,176,12115,1,0,0:0:0:0:
136,176,12327,1,0,0:0:0:0:
168,176,12538,1,2,0:0:0:0:
200,176,12749,1,2,0:0:0:0:
232,176,12960,1,0,0:0:0:0:
248,176,13066,1,0,0:0:0:0:
264,176,13172,1,2,0:0:0:0:
296,176,13383,1,0,0:0:0:0:
312,176,13489,1,0,0:0:0:0:
328,176,13594,1,8,0:0:0:0:
360,176,13805,1,0,0:0:0:0:
376,176,13911,1,0,0:0:0:0:
392,176,14017,1,2,0:0:0:0:
424,176,14228,1,0,0:0:0:0:
440,176,14334,1,0,0:0:0:0:
456,176,14439,1,2,0:0:0:0:
472,176,14545,1,0,0:0:0:0:
488,176,14651,1,2,0:0:0:0:
504,176,14756,1,0,0:0:0:0:
8,208,14862,5,6,0:0:0:0:
40,208,15073,1,0,0:0:0:0:
56,208,15179,1,0,0:0:0:0:
72,208,15284,1,2,0:0:0:0:
104,208,15496,1,0,0:0:0:0:
136,208,15707,1,2,0:0:0:0:
168,208,15918,1,2,0:0:0:0:
184,208,16024,1,2,0:0:0:0:
200,208,16129,1,0,0:0:0:0:
232,208,16341,1,0,0:0:0:0:
264,208,16552,1,2,0:0:0:0:
296,208,16763,1,0,0:0:0:0:
312,208,16869,1,0,0:0:0:0:
328,208,16974,1,2,0:0:0:0:
360,208,17186,1,0,0:0:0:0:
392,208,17397,1,2,0:0:0:0:
424,208,17608,1,0,0:0:0:0:
440,208,17714,1,0,0:0:0:0:
456,208,17820,1,2,0:0:0:0:
472,208,17925,1,0,0:0:0:0:
488,208,18031,1,0,0:0:0:0:
504,208,18136,1,0,0:0:0:0:
8,112,18242,5,2,0:0:0:0:
40,112,18453,1,0,0:0:0:0:
72,240,18665,1,8,0:0:0:0:
104,112,18876,1,0,0:0:0:0:
120,112,18981,1,0,0:0:0:0:
136,112,19087,1,2,0:0:0:0:
168,112,19298,1,0,0:0:0:0:
200,112,19510,1,2,0:0:0:0:
216,112,19615,1,0,0:0:0:0:
232,112,19721,1,2,0:0:0:0:
264,240,19932,1,2,0:0:0:0:
296,112,20143,1,0,0:0:0:0:
328,112,20355,1,2,0:0:0:0:
344,112,20460,1,2,0:0:0:0:
360,112,20566,1,0,0:0:0:0:
392,112,20777,1,2,0:0:0:0:
424,240,20989,1,0,0:0:0:0:
456,112,21200,1,2,0:0:0:0:
472,112,21305,1,2,0:0:0:0:
488,112,21411,1,0,0:0:0:0:
504,112,21517,1,0,0:0:0:0:
8,272,21622,5,2,0:0:0:0:
40,272,21834,1,0,0:0:0:0:
56,272,21939,1,0,0:0:0:0:
72,272,22045,1,2,0:0:0:0:
104,272,22256,1,0,0:0:0:0:
136,272,22467,1,2,0:0:0:0:
168,272,22679,1,2,0:0:0:0:
200,272,22890,1,0,0:0:0:0:
216,272,22996,1,0,0:0:0:0:
232,272,23101,5,6,0:0:0:0:
296,272,23524,1,0,0:0:0:0:
328,272,23735,1,2,0:0:0:0:
344,272,23841,1,2,0:0:0:0:
360,272,23946,1,0,0:0:0:0:
392,272,24158,1,2,0:0:0:0:
424,272,24369,1,2,0:0:0:0:
440,272,24474,1,0,0:0:0:0:
456,272,24580,1,0,0:0:0:0:
488,272,24791,1,4,0:0:0:0:
40,304,25214,1,2,0:0:0:0:
72,304,25425,1,2,0:0:0:0:
104,304,25636,1,0,0:0:0:0:
120,304,25742,1,0,0:0:0:0:
136,304,25848,1,2,0:0:0:0:
168,304,26059,1,2,0:0:0:0:
200,304,26270,1,0,0:0:0:0:
232,304,26481,1,6,0:0:0:0:
296,304,26904,1,0,0:0:0:0:
312,304,27010,1,0,0:0:0:0:
328,304,27115,1,2,0:0:0:0:
360,304,27327,1,2,0:0:0:0:
376,304,27432,1,0,0:0:0:0:
392,304,27538,1,2,0:0:0:0:
424,304,27749,1,2,0:0:0:0:
440,304,27855,1,0,0:0:0:0:
456,304,27960,1,2,0:0:0:0:
472,304,28066,1,2,0:0:0:0:
488,304,28172,1,0,0:0:0:0:
504,304,28277,1,0,0:0:0:0:
8,336,28383,5,6,0:0:0:0:
256,192,28594,12,0,30496,0:0:0:0:
