osu file format v14

[General]
AudioFilename: audio.mp3
AudioLeadIn: 0
PreviewTime: 284
Countdown: 0
SampleSet: Soft
StackLeniency: 0.7
Mode: 3
LetterboxInBreaks: 0
SpecialStyle: 0
WidescreenStoryboard: 0

[Editor]
Bookmarks: 15073
DistanceSpacing: 1
BeatDivisor: 4
GridSize: 8
TimelineZoom: 2.4

[Metadata]
Title:Harumachi Clover
TitleUnicode:春待ちクローバー
Artist:Hanasaka Yui (CV: M.A.O)
ArtistUnicode:花坂結衣(CV:M・A・O)
Creator:RiP46
Version:Lv.8
Source:OneRoom
Tags:One Room カントク Kantoku tvsize
BeatmapID:1442910
BeatmapSetID:682352

[Difficulty]
HPDrainRate:7.5
CircleSize:4
OverallDifficulty:7.5
ApproachRate:5
SliderMultiplier:1.4
SliderTickRate:1

[Events]
//Background and Video events
0,0,"BG.jpg",0,0
//Break Periods
//Storyboard Layer 0 (Background)
//Storyboard Layer 1 (Fail)
//Storyboard Layer 2 (Pass)
//Storyboard Layer 3 (Foreground)
//Storyboard Sound Samples

[TimingPoints]
-349,422.535211267606,4,2,2,80,1,0

[HitObjects]
64,192,1341,128,2,3031:0:0:0:0:
448,192,1341,1,4,0:0:0:0:
320,192,1552,1,0,0:0:0:0:
192,192,1763,1,8,0:0:0:0:
448,192,1974,1,0,0:0:0:0:
320,192,2186,1,2,0:0:0:0:
192,192,2397,1,0,0:0:0:0:
448,192,2608,1,8,0:0:0:0:
320,192,2820,1,2,0:0:0:70:LR4_DrumCSNHS.wav
192,192,3031,128,2,3242:0:0:0:0:
448,192,3242,128,0,3453:0:0:0:0:
64,192,3453,1,8,0:0:0:0:
320,192,3453,128,0,3665:0:0:0:0:
192,192,3665,128,0,4298:0:0:0:0:
448,192,3876,1,2,0:0:0:0:
64,192,4087,1,0,0:0:0:0:
320,192,4298,1,8,0:0:0:0:
448,192,4298,1,0,0:0:0:0:
192,192,4510,1,0,0:0:0:0:
64,192,4721,1,2,0:0:0:0:
320,192,4721,128,0,6411:0:0:0:0:
448,192,4932,1,0,0:0:0:0:
64,192,5143,1,8,0:0:0:0:
448,192,5355,1,0,0:0:0:0:
192,192,5566,1,2,0:0:0:0:
64,192,5777,1,0,0:0:0:0:
448,192,5989,1,8,0:0:0:0:
64,192,6200,1,2,0:0:0:70:LR4_DrumCSNHS.wav
448,192,6411,128,2,6622:0:0:0:0:
320,192,6622,128,0,6834:0:0:0:0:
64,192,6834,1,8,0:0:0:0:
192,192,6834,128,0,7045:0:0:0:0:
448,192,7045,128,0,8101:0:0:0:0:
64,192,7256,1,2,0:0:0:0:
320,192,7467,1,0,0:0:0:0:
192,192,7679,1,8,0:0:0:0:
64,192,7890,1,2,0:0:0:70:LR4_DrumCSNHS.wav
192,192,8101,128,2,9791:0:0:0:0:
320,192,8101,1,4,0:0:0:0:
64,192,8312,1,0,0:0:0:0:
448,192,8524,1,8,0:0:0:0:
320,192,8735,1,0,0:0:0:0:
64,192,8946,1,2,0:0:0:0:
448,192,9158,1,0,0:0:0:0:
64,192,9369,1,8,0:0:0:0:
320,192,9580,1,2,0:0:0:70:LR4_DrumCSNHS.wav
64,192,9791,1,2,0:0:0:0:
448,192,9791,128,4,11481:0:0:0:0:
192,192,10003,1,0,0:0:0:0:
64,192,10214,1,8,0:0:0:0:
320,192,10425,1,0,0:0:0:0:
192,192,10636,1,2,0:0:0:0:
64,192,10848,1,0,0:0:0:0:
320,192,11059,1,8,0:0:0:0:
64,192,11270,1,2,0:0:0:70:LR4_DrumCSNHS.wav
192,192,11481,1,2,0:0:0:0:
320,192,11481,128,4,13172:0:0:0:0:
192,192,11693,1,0,0:0:0:0:
64,192,11904,1,8,0:0:0:0:
64,192,12115,1,0,0:0:0:0:
192,192,12327,1,2,0:0:0:0:
192,192,12538,1,0,0:0:0:0:
448,192,12749,1,8,0:0:0:0:
448,192,12960,1,0,0:0:0:0:
192,192,13172,1,8,0:0:0:0:
64,192,13172,128,4,13594:0:0:0:0:
320,192,13594,128,8,14017:0:0:0:0:
448,192,13594,1,4,0:0:0:0:
64,192,14017,1,8,0:0:0:0:
192,192,14017,128,4,14439:0:0:0:0:
320,192,14439,1,8,0:0:0:0:
448,192,14439,128,4,14862:0:0:0:0:
64,192,14862,128,4,16552:0:0:0:0:
192,192,14862,1,2,0:0:0:0:
448,192,15073,1,0,0:0:0:0:
192,192,15284,1,8,0:0:0:0:
320,192,15496,1,0,0:0:0:0:
448,192,15707,1,2,0:0:0:0:
192,192,15918,1,0,0:0:0:0:
320,192,16129,1,8,0:0:0:0:
448,192,16341,1,2,0:0:0:70:LR4_DrumCSNHS.wav
192,192,16552,128,2,16763:0:0:0:0:
320,192,16552,1,0,0:0:0:0:
448,192,16763,128,0,16974:0:0:0:0:
64,192,16974,1,8,0:0:0:0:
320,192,16974,128,0,17186:0:0:0:0:
192,192,17186,128,0,17820:0:0:0:0:
448,192,17397,1,2,0:0:0:0:
320,192,17608,1,0,0:0:0:0:
64,192,17820,1,8,0:0:0:0:
448,192,17820,1,0,0:0:0:0:
320,192,18031,1,2,0:0:0:70:LR4_DrumCSNHS.wav
64,192,18242,1,2,0:0:0:0:
192,192,18242,128,4,19932:0:0:0:0:
448,192,18453,1,0,0:0:0:0:
64,192,18665,1,8,0:0:0:0:
320,192,18876,1,0,0:0:0:0:
448,192,19087,1,2,0:0:0:0:
64,192,19298,1,0,0:0:0:0:
448,192,19510,1,8,0:0:0:0:
64,192,19721,1,2,0:0:0:70:LR4_DrumCSNHS.wav
448,192,19932,1,4,0:0:0:0:
320,192,19932,128,2,20143:0:0:0:0:
64,192,20143,128,0,20355:0:0:0:0:
320,192,20355,1,8,0:0:0:0:
448,192,20355,128,0,20566:0:0:0:0:
192,192,20566,128,2,21622:0:0:0:70:LR4_DrumCSNHS.wav
320,192,20777,1,2,0:0:0:0:
64,192,20989,1,2,0:0:0:0:
320,192,21200,1,8,0:0:0:0:
448,192,21411,1,0,0:0:0:0:
64,192,21622,128,2,23101:0:0:0:0:
320,192,21622,1,4,0:0:0:0:
192,192,21834,1,0,0:0:0:0:
448,192,22045,1,8,0:0:0:0:
320,192,22256,1,2,0:0:0:70:LR4_DrumCSNHS.wav
192,192,22467,1,2,0:0:0:0:
448,192,22679,1,2,0:0:0:0:
192,192,22890,1,8,0:0:0:0:
320,192,23101,1,2,0:0:0:0:
448,192,23101,128,4,24791:0:0:0:0:
64,192,23524,1,2,0:0:0:0:
320,192,23735,1,8,0:0:0:0:
192,192,23946,1,2,0:0:0:70:LR4_DrumCSNHS.wav
64,192,24158,1,2,0:0:0:0:
192,192,24369,1,8,0:0:0:0:
320,192,24580,1,8,0:0:0:0:
64,192,24791,1,2,0:0:0:0:
192,192,24791,128,4,26481:0:0:0:0:
448,192,25214,1,2,0:0:0:0:
64,192,25425,1,8,0:0:0:0:
448,192,25636,1,2,0:0:0:70:LR4_DrumCSNHS.wav
320,192,25848,1,2,0:0:0:0:
64,192,26059,1,2,0:0:0:0:
448,192,26270,1,8,0:0:0:0:
64,192,26481,128,2,26904:0:0:0:0:
320,192,26481,1,4,0:0:0:0:
320,192,26904,1,2,0:0:0:0:
448,192,26904,128,0,27115:0:0:0:0:
64,192,27115,1,8,0:0:0:0:
192,192,27115,128,4,27327:0:0:0:0:
320,192,27327,128,2,27960:0:0:0:70:LR4_DrumCSNHS.wav
448,192,27327,1,0,0:0:0:0:
64,192,27538,1,2,0:0:0:0:
448,192,27749,1,2,0:0:0:0:
64,192,27960,1,8,0:0:0:0:
192,192,27960,128,0,28383:0:0:0:0:
64,192,28383,128,4,30284:0:0:0:0:
448,192,28383,128,2,30284:0:0:0:0:
