osu file format v14

[General]
AudioFilename: audio.mp3
AudioLeadIn: 0
PreviewTime: 284
Countdown: 0
SampleSet: Soft
StackLeniency: 0.7
Mode: 3
LetterboxInBreaks: 0
SpecialStyle: 0
WidescreenStoryboard: 1

[Editor]
DistanceSpacing: 1
BeatDivisor: 4
GridSize: 8
TimelineZoom: 0.8999996

[Metadata]
Title:Harumachi Clover
TitleUnicode:春待ちクローバー
Artist:Hanasaka Yui (CV: M.A.O)
ArtistUnicode:花坂結衣(CV:M・A・O)
Creator:RiP46
Version:Lv.5
Source:OneRoom
Tags:One Room カントク Kantoku tvsize
BeatmapID:1442909
BeatmapSetID:682352

[Difficulty]
HPDrainRate:7
CircleSize:4
OverallDifficulty:7
ApproachRate:5
SliderMultiplier:1.4
SliderTickRate:1

[Events]
//Background and Video events
0,0,"BG.jpg",0,0
//Break Periods
//Storyboard Layer 0 (Background)
//Storyboard Layer 1 (Fail)
//Storyboard Layer 2 (Pass)
//Storyboard Layer 3 (Foreground)
//Storyboard Sound Samples

[TimingPoints]
-349,422.535211267606,4,2,2,80,1,0

[HitObjects]
320,192,1341,128,2,3031:0:0:0:0:
448,192,1341,1,4,0:0:0:0:
192,192,1763,1,8,0:0:0:0:
64,192,2186,1,2,0:0:0:0:
448,192,2608,1,8,0:0:0:0:
64,192,3031,128,2,4721:0:0:0:0:
320,192,3453,1,8,0:0:0:0:
448,192,3876,1,2,0:0:0:0:
192,192,4298,1,8,0:0:0:0:
448,192,4721,128,2,6411:0:0:0:0:
192,192,5143,1,8,0:0:0:0:
320,192,5566,1,2,0:0:0:0:
64,192,5989,1,8,0:0:0:0:
192,192,6411,128,2,8101:0:0:0:0:
448,192,6834,1,8,0:0:0:0:
320,192,7256,1,2,0:0:0:0:
64,192,7679,1,8,0:0:0:0:
320,192,8101,128,2,9791:0:0:0:0:
448,192,8101,1,4,0:0:0:0:
64,192,8524,1,8,0:0:0:0:
448,192,8946,1,2,0:0:0:0:
192,192,9369,1,8,0:0:0:0:
64,192,9791,128,2,11481:0:0:0:0:
448,192,9791,1,4,0:0:0:0:
192,192,10214,1,8,0:0:0:0:
320,192,10636,1,2,0:0:0:0:
448,192,11059,1,8,0:0:0:0:
192,192,11481,128,2,13172:0:0:0:0:
320,192,11481,1,4,0:0:0:0:
64,192,11904,1,8,0:0:0:0:
320,192,12327,1,2,0:0:0:0:
448,192,12749,1,8,0:0:0:0:
64,192,13172,1,8,0:0:0:0:
320,192,13172,128,4,14862:0:0:0:0:
64,192,13594,1,12,0:0:0:0:
192,192,14017,1,12,0:0:0:0:
192,192,14439,128,6,14862:0:0:0:0:
64,192,14862,1,4,0:0:0:0:
448,192,14862,128,2,16552:0:0:0:0:
320,192,15284,1,8,0:0:0:0:
64,192,15707,1,2,0:0:0:0:
320,192,16129,1,8,0:0:0:0:
64,192,16552,128,2,18242:0:0:0:0:
192,192,16974,1,8,0:0:0:0:
320,192,17397,1,2,0:0:0:0:
448,192,17820,1,8,0:0:0:0:
192,192,18242,1,2,0:0:0:0:
320,192,18242,128,4,19932:0:0:0:0:
448,192,18665,1,8,0:0:0:0:
192,192,19087,1,2,0:0:0:0:
64,192,19510,1,8,0:0:0:0:
192,192,19932,1,2,0:0:0:0:
448,192,19932,128,4,21622:0:0:0:0:
64,192,20355,1,8,0:0:0:0:
320,192,20777,1,2,0:0:0:0:
64,192,21200,1,8,0:0:0:0:
320,192,21622,1,2,0:0:0:0:
192,192,21622,128,4,23101:0:0:0:0:
448,192,22045,1,8,0:0:0:0:
64,192,22467,1,2,0:0:0:0:
448,192,22890,1,8,0:0:0:0:
64,192,23101,1,2,0:0:0:0:
320,192,23101,128,4,24791:0:0:0:0:
64,192,23524,1,2,0:0:0:0:
448,192,23735,1,8,0:0:0:0:
192,192,24158,1,2,0:0:0:0:
448,192,24580,1,8,0:0:0:0:
64,192,24791,128,2,26481:0:0:0:0:
192,192,24791,1,4,0:0:0:0:
192,192,25214,1,2,0:0:0:0:
448,192,25425,1,8,0:0:0:0:
448,192,25848,1,2,0:0:0:0:
320,192,26059,1,8,0:0:0:0:
192,192,26270,1,8,0:0:0:0:
320,192,26481,1,2,0:0:0:0:
448,192,26481,128,4,27960:0:0:0:0:
64,192,26904,1,2,0:0:0:0:
192,192,27115,1,12,0:0:0:0:
320,192,27327,1,2,0:0:0:70:LR4_DrumCSNHS.wav
64,192,27749,1,2,0:0:0:0:
320,192,27960,128,8,28383:0:0:0:0:
64,192,28383,128,4,30284:0:0:0:0:
192,192,28383,128,2,30284:0:0:0:0:
