osu file format v14

[General]
AudioFilename: audio.mp3
AudioLeadIn: 0
PreviewTime: 408
Countdown: 0
SampleSet: Soft
StackLeniency: 0.3
Mode: 0
LetterboxInBreaks: 0
WidescreenStoryboard: 1

[Editor]
Bookmarks: 1676,8436,15197,21957,28718,34067
DistanceSpacing: 1.2
BeatDivisor: 2
GridSize: 8
TimelineZoom: 1.3

[Metadata]
Title:Harumachi Clover (Redside Bootleg)
TitleUnicode:春待ちクローバー (Redside Bootleg)
Artist:Hanasaka Yui (CV: M.A.O)
ArtistUnicode:花坂結衣 (CV:M・A・O)
Creator:Nytrocide_
Version:GYGY's Hard
Source:OneRoom
Tags:nytro ganyumymommy gygy asaiga muya- angry kyutei shingyouji yuni shingyouji_yuni anya melfissa anya_melfissa electronic remix anime opening japanese one room カントク kantoku ichimichi 市道 真央 cup omega
BeatmapID:3913793
BeatmapSetID:1898722

[Difficulty]
HPDrainRate:5
CircleSize:4
OverallDifficulty:7
ApproachRate:8
SliderMultiplier:1.2
SliderTickRate:1

[Events]
//Background and Video events
0,0,"bgus.jpg",0,0
//Break Periods
//Storyboard Layer 0 (Background)
//Storyboard Layer 1 (Fail)
//Storyboard Layer 2 (Pass)
//Storyboard Layer 3 (Foreground)
//Storyboard Layer 4 (Overlay)
//Storyboard Sound Samples

[TimingPoints]
-14,422.535211267606,4,2,1,50,1,0
619,-100,4,2,1,30,0,0
831,-100,4,2,1,55,0,0
1042,-100,4,2,1,80,0,0
1253,-100,4,2,1,90,0,0
1676,-83.3333333333333,4,2,1,95,0,0
12662,-83.3333333333333,4,3,1,95,0,0
12767,-83.3333333333333,4,3,1,92,0,0
12873,-83.3333333333333,4,3,1,90,0,0
12978,-83.3333333333333,4,3,1,87,0,0
13084,-83.3333333333333,4,3,2,85,0,0
13190,-83.3333333333333,4,3,2,82,0,0
13295,-83.3333333333333,4,3,2,80,0,0
13401,-83.3333333333333,4,3,2,77,0,0
13507,-71.4285714285714,4,2,1,80,0,0
13929,-83.3333333333333,4,2,1,80,0,0
14352,-100,4,2,1,80,0,0
14774,-100,4,2,1,90,0,0
15197,-83.3333333333333,4,2,1,95,0,0
21957,-100,4,2,1,75,0,0
26394,-100,4,2,1,70,0,0
26605,-100,4,2,1,65,0,0
26816,-100,4,2,1,60,0,0
27450,-100,4,2,1,55,0,0
27662,-142.857142857143,4,2,1,50,0,0
28295,-142.857142857143,4,2,1,47,0,0
28507,-142.857142857143,4,2,1,43,0,0
28718,434.782608695652,4,2,1,40,1,0
28718,-142.857142857143,4,2,1,40,0,0
29152,447.761194029851,4,2,1,45,1,0
29152,-100,4,2,1,45,0,0
29599,468.75,4,2,1,40,1,0
29599,-100,4,2,1,40,0,0
30067,500,4,2,1,35,1,0
30067,-100,4,2,1,35,0,0
30567,-100,4,2,1,30,0,0
32067,-100,4,2,1,30,0,0
32317,-100,4,2,1,27,0,0
32567,-100,4,2,1,24,0,0
32817,-100,4,2,1,21,0,0
33067,-100,4,2,1,18,0,0
33317,-100,4,2,1,15,0,0
33567,-100,4,2,1,12,0,0
33817,-100,4,2,1,9,0,0
34067,-100,4,2,1,5,0,0

[Colours]
Combo1 : 85,85,85
Combo2 : 170,128,213
Combo3 : 170,170,170
Combo4 : 85,43,128

[HitObjects]
439,369,408,6,0,P|470:333|380:299,1,180,2|2,2:2|2:2,0:0:0:0:
329,344,1253,6,0,L|279:329,1,30,8|8,2:2|2:2,0:0:0:0:
268,332,1464,1,0,1:2:0:0:
268,332,1570,1,8,2:2:0:0:
268,332,1676,2,0,P|231:342|185:356,1,71.9999978027344,4|2,1:2|2:2,0:0:0:0:
101,329,2098,2,0,P|95:294|108:241,1,71.9999978027344,8|2,2:2|2:2,0:0:0:0:
160,187,2521,1,0,1:2:0:0:
160,187,2732,1,2,2:2:0:0:
102,132,2943,1,10,2:2:0:0:
126,62,3155,1,2,2:2:0:0:
229,9,3366,6,0,L|338:41,1,107.999996704102,0|0,1:2|0:0,0:0:0:0:
358,59,3788,1,10,2:2:0:0:
358,59,4000,2,0,P|314:96|378:215,1,215.999993408203,2|10,2:2|2:2,0:0:0:0:
444,176,4845,1,2,2:2:0:0:
512,256,5056,6,0,P|446:295|425:310,1,71.9999978027344,0|2,1:2|2:2,0:0:0:0:
386,369,5478,2,0,P|340:348|306:336,1,71.9999978027344,10|2,2:2|2:2,0:0:0:0:
225,356,5901,1,2,1:2:0:0:
225,356,6112,1,2,2:2:0:0:
203,280,6324,1,10,2:2:0:0:
180,205,6535,1,2,2:2:0:0:
260,120,6746,6,0,P|199:112|128:94,1,107.999996704102,0|2,1:2|2:2,0:0:0:0:
136,82,7169,1,10,2:2:0:0:
136,82,7380,2,0,P|80:88|75:234,1,215.999993408203,2|10,2:2|2:2,0:0:0:0:
132,272,8225,5,2,2:2:0:0:
132,272,8331,1,10,2:2:0:0:
132,272,8436,2,0,P|167:255|216:240,1,71.9999978027344,0|2,1:2|2:2,0:0:0:0:
284,280,8859,2,0,P|332:286|378:287,1,71.9999978027344,10|2,2:2|2:2,0:0:0:0:
435,236,9281,1,0,1:2:0:0:
404,162,9493,1,2,2:2:0:0:
404,162,9598,1,2,2:2:0:0:
404,162,9704,1,10,2:2:0:0:
461,106,9915,6,0,P|443:67|343:38,1,143.999995605469,2|2,2:2|2:2,0:0:0:0:
273,102,10549,2,0,L|150:64,1,107.999996704102,10|2,2:2|2:2,0:0:0:0:
141,76,10971,1,2,1:2:0:0:
84,131,11183,1,2,2:2:0:0:
120,201,11394,1,10,2:2:0:0:
188,240,11605,2,0,P|200:288|64:315,1,215.999993408203,2|10,2:2|2:2,0:0:0:0:
14,185,12662,6,0,L|4:135,3,35.9999989013672,2|2|2|2,3:2|3:2|3:2|3:2,0:0:0:0:
17,126,13084,1,10,3:2:0:0:
21,108,13190,1,2,3:2:0:0:
25,90,13295,1,2,3:2:0:0:
29,72,13401,1,2,3:2:0:0:
33,54,13507,6,0,P|77:59|146:58,1,83.9999974365235,4|0,1:2|0:0,0:0:0:0:
140,135,13929,6,0,P|183:126|239:104,1,71.9999978027344,4|0,1:2|0:0,0:0:0:0:
266,170,14352,6,0,P|305:150|339:127,1,60,4|0,1:2|0:0,0:0:0:0:
399,136,14774,6,0,P|411:117|418:96,1,30,8|8,2:2|2:2,0:0:0:0:
419,79,14986,1,0,1:2:0:0:
419,79,15091,1,8,2:2:0:0:
419,79,15197,2,0,P|380:59|349:46,1,71.9999978027344,4|2,1:2|2:2,0:0:0:0:
249,12,15619,2,0,P|267:50|277:86,1,71.9999978027344,10|2,2:2|2:2,0:0:0:0:
239,174,16042,1,2,1:2:0:0:
239,174,16253,1,2,2:2:0:0:
303,244,16464,5,10,2:2:0:0:
317,233,16570,1,2,2:2:0:0:
334,227,16676,1,2,2:2:0:0:
351,227,16781,1,2,2:2:0:0:
368,232,16887,6,0,P|339:307|328:384,1,143.999995605469,0|10,1:2|2:2,0:0:0:0:
240,383,17521,2,0,P|182:351|92:310,1,143.999995605469,2|2,2:2|2:2,0:0:0:0:
21,258,18155,2,0,P|10:250|23:254,3,35.9999989013672,10|2|2|2,2:2|2:2|2:2|2:2,0:0:0:0:
36,267,18577,6,0,P|76:243|99:203,1,71.9999978027344,0|2,1:2|2:2,0:0:0:0:
115,133,19000,2,0,P|154:107|190:97,1,71.9999978027344,10|2,2:2|2:2,0:0:0:0:
245,160,19422,1,2,1:2:0:0:
245,160,19633,1,2,2:2:0:0:
336,87,19845,5,10,2:2:0:0:
330,69,19950,1,2,2:2:0:0:
320,54,20056,1,2,2:2:0:0:
303,45,20162,1,2,2:2:0:0:
285,41,20267,6,0,L|338:199,1,143.999995605469,0|10,1:2|2:2,0:0:0:0:
397,253,20901,2,0,P|328:274|255:315,1,143.999995605469,2|2,2:2|2:2,0:0:0:0:
180,375,21535,5,8,2:2:0:0:
142,363,21640,1,8,2:2:0:0:
103,351,21746,1,8,2:2:0:0:
64,340,21852,1,8,2:2:0:0:
26,329,21957,6,0,P|51:264|67:208,1,120,4|8,1:2|2:2,0:0:0:0:
60,194,22486,1,8,2:2:0:0:
60,194,22591,1,4,1:2:0:0:
130,70,23014,1,8,2:2:0:0:
130,70,23225,1,8,2:2:0:0:
55,96,23436,6,0,P|112:117|182:146,1,120,4|8,1:2|2:2,0:0:0:0:
211,206,24070,2,0,L|221:250,2,30,8|8|4,2:2|2:2|1:2,0:0:0:0:
247,102,24704,5,8,2:2:0:0:
248,90,24809,1,8,2:2:0:0:
249,78,24915,1,8,2:2:0:0:
251,66,25021,1,8,2:2:0:0:
255,54,25126,2,0,B|308:35|363:54|370:108|365:112|361:116|416:188|511:204|564:139|516:21|434:64,1,420,4|2,1:2|2:2,0:0:0:0:
378,1,26816,6,0,P|365:27|331:131,1,120,2|2,2:2|2:2,0:0:0:0:
261,166,27450,1,2,2:2:0:0:
308,231,27662,6,0,P|320:265|332:320,1,83.9999974365235,2|2,2:2|2:2,0:0:0:0:
295,378,28295,1,2,2:2:0:0:
178,252,28718,5,6,2:2:0:0:
256,192,28826,12,0,34067,0:0:0:0:
