osu file format v14

[General]
AudioFilename: audio.mp3
AudioLeadIn: 0
PreviewTime: 114553
Countdown: 0
SampleSet: Soft
StackLeniency: 0.3
Mode: 0
LetterboxInBreaks: 0
WidescreenStoryboard: 1

[Editor]
DistanceSpacing: 1
BeatDivisor: 2
GridSize: 8
TimelineZoom: 1

[Metadata]
Title:Harumachi Clover
TitleUnicode:春待ちクローバー
Artist:Hanasaka Yui (CV: M.A.O)
ArtistUnicode:花坂結衣 (CV:M・A・O)
Creator:Momochikun
Version:Nely's Normal
Source:OneRoom
Tags:one room カントク kantoku full ver ichimichi mao xinely dream117er anime japanese pop
BeatmapID:1256353
BeatmapSetID:580151

[Difficulty]
HPDrainRate:4
CircleSize:3
OverallDifficulty:4
ApproachRate:5
SliderMultiplier:1.23
SliderTickRate:1

[Events]
//Background and Video events
0,0,"clover.png",0,0
//Break Periods
2,159753,171874
//Storyboard Layer 0 (Background)
//Storyboard Layer 1 (Fail)
//Storyboard Layer 2 (Pass)
//Storyboard Layer 3 (Foreground)
//Storyboard Layer 4 (Overlay)
//Storyboard Sound Samples

[TimingPoints]
680,422.535211267606,4,2,1,80,1,0
12827,-100,4,2,1,65,0,0
14201,-100,4,2,1,70,0,0
41243,-100,4,2,1,65,0,0
48003,-100,4,2,1,75,0,0
56454,-100,4,2,1,85,0,1
69341,-100,4,2,1,55,0,1
69870,-100,4,2,1,55,0,0
69975,-100,4,2,1,85,0,1
83074,-100,4,2,1,60,0,1
83496,-100,4,2,1,75,0,1
86877,-100,4,2,1,70,0,0
100398,-100,4,2,1,65,0,0
107158,-100,4,2,1,75,0,0
113919,-100,4,2,1,75,0,0
114553,-100,4,2,1,75,0,0
115609,-100,4,2,1,85,0,1
125750,-100,4,2,1,85,0,1
126595,-100,4,2,1,85,0,1
128496,-100,4,2,1,55,0,1
129025,-100,4,2,1,55,0,0
129130,-100,4,2,1,85,0,1
142229,-100,4,2,1,60,0,1
142651,-100,4,2,1,70,0,0
152792,-100,4,2,1,75,0,0
155539,-100,4,2,1,65,0,0
156172,-100,4,2,1,75,0,0
159553,-100,4,2,1,80,0,1
159658,-100,4,2,1,75,0,0
173074,-100,4,2,1,65,0,0
179834,-100,4,2,1,75,0,0
188285,-100,4,2,1,60,0,0
193778,-100,4,2,1,75,0,0
195046,-100,4,2,1,85,0,1
201172,-100,4,2,1,55,0,1
201701,-100,4,2,1,55,0,0
201806,-100,4,2,1,85,0,1
216806,-100,4,2,1,85,0,0
222088,-100,4,2,1,80,0,1
222194,-100,4,2,1,80,0,0
238989,-100,4,2,1,5,0,0

[Colours]
Combo1 : 255,166,210
Combo2 : 255,255,128
Combo3 : 159,255,159

[HitObjects]
288,336,680,6,0,P|372:304|372:200,1,184.5,4|2,0:0|0:0,0:0:0:0:
296,132,1736,2,0,L|296:56,1,61.5,0|8,0:0|0:0,0:0:0:0:
184,16,2370,2,0,L|184:208,1,184.5,2|2,1:0|0:0,0:0:0:0:
272,284,3426,2,0,L|272:348,1,61.5,0|8,0:0|0:0,0:0:0:0:
396,356,4060,6,0,P|432:275|386:199,1,184.5,2|2,1:0|0:0,0:0:0:0:
300,112,5116,2,0,L|284:32,2,61.5,0|8|0,0:0|0:0|0:0,0:0:0:0:
268,164,5750,2,0,P|188:132|96:172,1,184.5,2|2,1:0|0:0,0:0:0:0:
56,280,6806,1,4,0:0:0:0:
84,336,7018,1,0,1:0:0:0:
144,340,7229,1,4,0:0:0:0:
184,296,7440,6,0,L|-8:312,1,184.5,6|2,1:0|0:0,0:0:0:0:
76,216,8496,2,0,L|156:208,1,61.5,0|8,0:0|0:0,0:0:0:0:
260,192,9130,2,0,P|284:164|432:172,1,184.5,2|2,1:0|0:0,0:0:0:0:
356,268,10187,2,0,L|364:340,2,61.5,2|8|0,0:0|0:0|0:0,0:0:0:0:
300,240,10820,6,0,P|268:244|232:260,1,61.5,4|0,0:0|1:0,0:0:0:0:
136,316,11454,1,2,1:0:0:0:
136,316,11665,2,0,L|136:254,1,61.5,4|0,0:0|1:0,0:0:0:0:
128,192,12088,1,8,0:0:0:0:
140,132,12299,1,2,1:0:0:0:
256,176,12722,2,0,L|328:176,1,61.5,2|0,0:0|1:1,0:0:0:0:
380,172,13144,2,0,P|388:140|376:96,1,61.5,8|0,0:3|1:1,0:0:0:0:
300,20,13778,1,4,0:0:0:0:
196,88,14201,6,0,P|136:104|60:108,2,123,4|0|0,1:0|1:0|1:0,0:0:0:0:
312,44,15468,2,0,L|380:44,1,61.5,0|0,1:0|0:0,0:0:0:0:
436,52,15891,2,0,P|412:108|424:168,1,123,0|0,1:0|1:0,0:0:0:0:
375,280,16736,1,0,1:0:0:0:
266,231,17158,1,8,1:0:0:0:
159,169,17581,6,0,P|155:109|175:33,2,123,0|0|0,1:0|1:0|1:0,0:0:0:0:
90,271,18849,1,8,0:0:0:0:
183,345,19271,2,0,P|247:353|323:345,1,123,0|0,1:0|1:0,0:0:0:0:
372,248,20116,1,0,1:0:0:0:
372,248,20327,2,0,L|380:164,2,61.5,8|8|0,0:0|0:0|0:0,0:0:0:0:
408,296,20961,6,0,P|466:278|510:236,2,123,0|0|0,1:0|1:0|1:0,0:0:0:0:
285,303,22229,1,0,1:0:0:0:
180,364,22651,2,0,P|180:308|184:228,1,123,0|0,1:0|1:0,0:0:0:0:
168,118,23496,1,0,1:0:0:0:
200,64,23708,2,0,L|188:-12,2,61.5,0|0|0,0:0|1:0|0:0,0:0:0:0:
260,64,24341,6,0,P|288:60|324:60,1,61.5,0|0,1:0|1:0,0:0:0:0:
360,108,24764,2,0,P|364:136|364:172,1,61.5,8|0,0:0|1:0,0:0:0:0:
360,232,25187,2,0,P|296:228|232:252,1,123,0|8,1:0|0:0,0:0:0:0:
120,236,26032,2,0,P|76:224|36:232,2,61.5,4|0|8,0:0|1:0|0:0,0:0:0:0:
180,240,26665,2,0,P|216:180|168:72,1,184.5,4|8,0:0|0:0,0:0:0:0:
300,92,27722,6,0,P|364:100|420:71,2,123,4|0|0,0:0|1:0|1:0,0:0:0:0:
178,79,28989,2,0,L|116:79,1,61.5,8|0,0:0|0:0,0:0:0:0:
56,96,29412,2,0,P|32:152|44:212,1,123,0|0,1:0|1:0,0:0:0:0:
30,333,30257,1,0,1:0:0:0:
140,376,30680,2,0,P|163:356|177:329,1,61.5,8|0,0:0|0:0,0:0:0:0:
204,272,31102,6,0,P|204:200|164:144,2,123,0|0|0,1:0|1:0|1:0,0:0:0:0:
264,288,32158,2,0,L|328:264,2,61.5,0|8|0,0:0|0:0|0:0,0:0:0:0:
208,312,32792,2,0,B|148:328|148:328|85:308,1,123,0|0,1:0|1:0,0:0:0:0:
28,204,33637,1,0,1:0:0:0:
28,204,33848,2,0,L|36:120,2,61.5,0|8|0,0:0|0:0|0:0,0:0:0:0:
84,228,34482,6,0,P|142:210|212:188,2,123,4|0|0,0:0|1:0|1:0,0:0:0:0:
165,320,35750,1,8,0:0:0:0:
280,276,36172,2,0,P|300:208|264:148,1,123,0|0,1:0|1:0,0:0:0:0:
305,45,37018,1,0,1:0:0:0:
305,45,37229,2,0,L|381:45,2,61.5,4|8|4,0:0|0:0|0:0,0:0:0:0:
248,64,37863,6,0,L|125:67,1,123,4|0,1:0|1:0,0:0:0:0:
60,172,38708,2,0,L|182:175,1,123,0|8,1:0|0:0,0:0:0:0:
304,188,39553,2,0,P|334:188|380:176,2,61.5,4|0|8,0:0|1:0|0:0,0:0:0:0:
244,188,40187,1,4,0:0:0:0:
244,188,40398,2,0,P|288:240|300:316,1,123,8|8,0:0|0:0,0:0:0:0:
192,352,41243,6,0,L|60:356,1,123,4|8,1:2|0:0,0:0:0:0:
8,364,41877,2,0,P|32:300|8:240,1,123,0|0,1:0|1:0,0:0:0:0:
0,192,42510,1,8,0:0:0:0:
100,120,42933,2,0,P|140:132|220:108,1,123,0|8,1:0|0:0,0:0:0:0:
256,64,43567,2,0,L|264:196,1,123,0|0,1:0|1:0,0:0:0:0:
268,248,44201,1,8,0:0:0:0:
320,360,44623,6,0,L|448:356,1,123,0|8,1:0|0:0,0:0:0:0:
504,360,45257,2,0,P|496:304|504:220,1,123,0|0,1:0|1:0,0:0:0:0:
504,176,45891,1,8,0:0:0:0:
432,76,46313,2,0,L|296:84,1,123,0|8,1:0|0:0,0:0:0:0:
256,112,46947,2,0,L|120:120,1,123,0|0,1:0|1:0,0:0:0:0:
72,128,47581,1,8,0:0:0:0:
156,216,48003,6,0,L|156:344,1,123,4|8,0:0|0:0,0:0:0:0:
216,352,48637,2,0,P|300:332|364:324,1,123,4|0,0:0|1:0,0:0:0:0:
392,302,49271,1,8,0:0:0:0:
388,184,49694,2,0,P|344:176|260:192,1,123,4|8,0:0|0:0,0:0:0:0:
208,208,50327,2,0,P|164:216|80:200,1,123,4|0,0:0|1:0,0:0:0:0:
32,176,50961,1,8,0:0:0:0:
92,68,51384,6,0,P|136:60|220:76,1,123,4|8,0:0|0:0,0:0:0:0:
288,168,52229,2,0,L|292:304,1,123,0|8,1:0|0:0,0:0:0:0:
416,288,53074,2,0,L|419:165,1,123,4|8,0:0|1:0,0:0:0:0:
420,104,53708,1,0,1:0:0:0:
420,104,53919,2,0,P|356:88|284:88,1,123,8|8,1:0|1:0,0:0:0:0:
180,112,54764,5,8,1:0:0:0:
104,208,55187,1,8,1:0:0:0:
192,296,55609,2,0,L|264:288,1,61.5,8|0,1:0|1:0,0:0:0:0:
316,292,56032,2,0,L|388:284,1,61.5,0|0,0:0|1:0,0:0:0:0:
440,280,56454,6,0,P|424:236|440:140,1,123,4|8,1:0|0:0,0:0:0:0:
386,118,57088,1,0,0:0:0:0:
340,76,57299,2,0,L|336:0,2,61.5,0|2|8,1:0|0:0|0:0,0:0:0:0:
240,148,58144,2,0,P|208:128|168:116,2,61.5,0|2|8,1:0|0:0|0:0,0:0:0:0:
284,188,58778,2,0,P|264:240|208:276,1,123,2|2,0:0|0:0,0:0:0:0:
152,292,59412,1,8,0:0:0:0:
48,224,59834,6,0,P|44:160|72:100,1,123,0|8,1:0|0:0,0:0:0:0:
184,64,60680,2,0,L|168:0,2,61.5,0|2|8,1:0|0:0|0:0,0:0:0:0:
227,106,61313,1,0,0:0:0:0:
280,140,61525,2,0,P|312:144|400:96,1,123,0|8,1:0|0:0,0:0:0:0:
440,68,62158,2,0,P|432:128|464:200,1,123,2|2,0:0|0:0,0:0:0:0:
476,244,62792,1,8,0:0:0:0:
356,276,63215,6,0,P|292:292|220:268,1,123,4|8,1:0|0:0,0:0:0:0:
128,220,64060,2,0,P|124:160|88:88,1,123,0|8,1:0|0:0,0:0:0:0:
44,76,64694,1,2,1:0:0:0:
44,76,64905,2,0,L|172:72,1,123,4|8,1:0|0:0,0:0:0:0:
280,124,65750,2,0,L|276:260,1,123,0|8,1:0|0:0,0:0:0:0:
276,308,66384,1,0,1:0:0:0:
276,308,66595,6,0,P|216:304|140:328,1,123,4|8,1:0|0:0,0:0:0:0:
40,356,67440,1,0,1:0:0:0:
4,240,67863,1,8,0:0:0:0:
84,148,68285,2,0,L|84:72,1,61.5,4|0,0:0|1:0,0:0:0:0:
144,84,68708,2,0,L|164:24,1,61.5,4|0,0:0|1:0,0:0:0:0:
224,20,69130,2,0,L|368:36,1,123,4|8,0:0|0:0,0:0:0:0:
432,120,69975,6,0,P|424:184|432:248,1,123,4|8,1:0|0:0,0:0:0:0:
380,277,70609,1,0,0:0:0:0:
328,312,70820,2,0,L|331:373,2,61.5,0|0|8,1:0|0:0|0:0,0:0:0:0:
268,204,71665,2,0,P|236:184|196:172,2,61.5,0|2|8,1:0|0:0|0:0,0:0:0:0:
252,264,72299,2,0,P|216:304|144:324,1,123,2|2,0:0|0:0,0:0:0:0:
92,312,72933,1,8,0:0:0:0:
12,220,73355,6,0,P|8:156|36:96,1,123,4|8,1:0|0:0,0:0:0:0:
80,66,73989,1,0,0:0:0:0:
136,40,74201,2,0,L|212:28,2,61.5,0|0|8,1:0|0:0|0:0,0:0:0:0:
144,164,75046,2,0,P|204:164|268:124,1,123,4|8,1:0|0:0,0:0:0:0:
308,96,75679,2,0,B|300:172|300:172|332:228,1,123,2|0,0:0|1:0,0:0:0:0:
368,256,76313,1,12,0:0:0:0:
272,332,76736,6,0,P|208:348|136:324,1,123,4|8,1:0|0:0,0:0:0:0:
84,232,77581,2,0,L|12:200,2,61.5,0|2|8,1:0|1:0|0:0,0:0:0:0:
144,228,78215,2,0,P|208:212|280:236,1,123,4|0,0:0|1:0,0:0:0:0:
316,260,78849,1,8,0:0:0:0:
416,188,79271,2,0,L|424:98,1,61.5,8|0,1:0|1:0,0:0:0:0:
417,65,79694,1,8,0:0:0:0:
368,28,79905,6,0,P|308:24|232:48,1,123,4|0,0:0|1:0,0:0:0:0:
196,76,80539,1,8,0:0:0:0:
116,168,80961,1,0,1:0:0:0:
16,96,81384,1,8,0:0:0:0:
16,96,81595,2,0,L|0:232,1,123,4|0,1:0|1:0,0:0:0:0:
8,280,82229,2,0,L|80:284,1,61.5,4|0,0:0|0:0,0:0:0:0:
188,312,82863,1,0,1:0:0:0:
188,312,83074,2,0,P|198:283|205:253,1,61.5,8|8,0:0|0:0,0:0:0:0:
172,204,83496,6,0,L|300:244,1,123,4|0,0:0|1:0,0:0:0:0:
352,244,84130,2,0,L|488:212,1,123,4|0,0:0|1:0,0:0:0:0:
504,164,84764,2,0,P|512:100|480:36,1,123,4|0,0:0|1:0,0:0:0:0:
428,40,85398,2,0,L|360:28,2,61.5,12|8|0,0:0|0:0|1:0,0:0:0:0:
420,100,86032,2,0,L|292:140,1,123,4|4,0:0|0:0,0:0:0:0:
184,168,86877,6,0,P|124:184|48:156,2,123,4|0|0,1:0|1:0|1:0,0:0:0:0:
275,250,88144,1,0,1:0:0:0:
396,268,88567,2,0,P|384:208|408:152,1,123,0|0,1:0|1:0,0:0:0:0:
416,92,89201,2,0,P|371:112|336:110,1,61.5,0|0,0:0|1:0,0:0:0:0:
240,142,89834,1,8,0:0:0:0:
116,108,90257,6,0,P|102:167|106:228,2,123,0|0|0,1:0|1:0|1:0,0:0:0:0:
132,48,91313,2,0,L|68:24,2,61.5,0|0|0,0:0|1:0|0:0,0:0:0:0:
192,56,91947,2,0,P|256:48|332:56,1,123,0|0,1:0|1:0,0:0:0:0:
388,152,92792,1,0,1:0:0:0:
388,152,93003,2,0,L|396:236,2,61.5,8|8|0,0:0|0:0|0:0,0:0:0:0:
392,92,93637,6,0,P|450:74|494:32,2,123,0|0|0,1:0|1:0|1:0,0:0:0:0:
268,87,94905,1,0,1:0:0:0:
144,108,95327,2,0,P|141:169|148:232,1,123,0|0,1:0|1:0,0:0:0:0:
176,350,96172,2,0,P|208:350|252:338,1,61.5,0|0,1:0|0:0,0:0:0:0:
297,355,96595,1,0,1:0:0:0:
331,237,97017,6,0,P|359:233|455:253,1,123,0|0,1:0|1:0,0:0:0:0:
392,359,97863,2,0,P|364:363|268:343,1,123,0|0,1:0|1:0,0:0:0:0:
171,274,98708,2,0,P|127:262|87:270,2,61.5,4|0|8,0:0|1:0|0:0,0:0:0:0:
229,294,99341,2,0,B|297:242|297:242|325:131,1,184.5,4|8,0:0|0:0,0:0:0:0:
244,52,100398,6,0,L|112:56,1,123,4|8,1:2|0:0,0:0:0:0:
72,20,101032,2,0,P|87:78|63:133,1,123,0|0,1:0|1:0,0:0:0:0:
32,188,101665,1,8,0:0:0:0:
96,292,102088,2,0,P|136:304|216:280,1,123,0|8,1:0|0:0,0:0:0:0:
240,228,102722,2,0,L|248:360,1,123,0|0,1:0|1:0,0:0:0:0:
308,368,103356,1,8,0:0:0:0:
428,352,103778,6,0,L|435:229,1,123,0|8,1:0|0:0,0:0:0:0:
440,168,104412,2,0,B|384:144|384:144|300:168,1,123,0|0,1:0|1:0,0:0:0:0:
276,200,105046,1,8,0:0:0:0:
164,256,105468,2,0,L|28:264,1,123,0|8,1:0|0:0,0:0:0:0:
44,324,106102,2,0,L|166:316,1,123,0|0,1:0|1:0,0:0:0:0:
228,332,106736,1,8,0:0:0:0:
324,256,107158,6,0,L|324:133,1,123,4|8,0:0|0:0,0:0:0:0:
264,120,107792,2,0,P|348:100|412:92,1,123,4|0,0:0|1:0,0:0:0:0:
434,130,108426,1,8,0:0:0:0:
464,252,108849,2,0,P|404:236|343:226,1,123,4|8,0:0|0:0,0:0:0:0:
284,224,109482,2,0,P|224:239|163:249,1,123,4|0,0:0|1:0,0:0:0:0:
110,218,110116,1,8,0:0:0:0:
88,96,110539,6,0,L|211:72,1,123,4|8,0:0|0:0,0:0:0:0:
288,168,111384,2,0,L|292:304,1,123,0|8,1:0|0:0,0:0:0:0:
416,288,112229,2,0,L|419:165,1,123,4|8,0:0|0:0,0:0:0:0:
420,104,112863,1,0,0:0:0:0:
420,104,113074,2,0,P|356:88|284:88,1,123,8|8,1:0|1:0,0:0:0:0:
180,112,113919,5,8,1:0:0:0:
104,208,114342,1,8,1:0:0:0:
192,296,114764,2,0,L|264:288,1,61.5,0|8,1:0|1:0,0:0:0:0:
316,292,115187,2,0,L|388:284,1,61.5,0|0,1:0|1:0,0:0:0:0:
440,280,115609,6,0,P|424:236|440:140,1,123,4|8,1:0|0:0,0:0:0:0:
392,112,116243,1,0,0:0:0:0:
340,76,116454,2,0,L|336:0,2,61.5,0|2|8,1:1|0:0|0:0,0:0:0:0:
240,148,117299,2,0,P|208:128|168:116,2,61.5,0|2|8,1:0|0:0|0:0,0:0:0:0:
284,188,117933,2,0,P|264:240|208:276,1,123,2|2,0:0|0:0,0:0:0:0:
152,292,118567,1,8,0:0:0:0:
48,224,118989,6,0,P|44:160|72:100,1,123,0|8,1:0|0:0,0:0:0:0:
126,90,119623,1,0,0:0:0:0:
184,64,119834,2,0,L|168:0,2,61.5,0|2|8,1:0|0:0|0:0,0:0:0:0:
280,140,120680,2,0,P|312:144|400:96,1,123,0|8,1:0|0:0,0:0:0:0:
440,68,121313,2,0,P|432:128|464:200,1,123,2|2,0:0|0:0,0:0:0:0:
476,244,121947,1,8,0:0:0:0:
356,276,122370,6,0,P|292:292|220:268,1,123,4|8,1:0|0:0,0:0:0:0:
180,255,123003,1,0,0:0:0:0:
128,220,123215,2,0,P|124:160|88:88,1,123,0|8,1:0|0:0,0:0:0:0:
44,76,123849,1,0,0:0:0:0:
44,76,124060,2,0,L|172:72,1,123,4|8,1:0|0:0,0:0:0:0:
280,124,124905,2,0,L|276:260,1,123,0|8,1:0|0:0,0:0:0:0:
276,308,125539,1,0,1:0:0:0:
276,308,125750,6,0,P|216:304|140:328,1,123,4|8,1:0|0:0,0:0:0:0:
40,356,126595,1,0,1:0:0:0:
4,240,127018,1,8,0:0:0:0:
84,148,127440,2,0,L|84:72,1,61.5,4|0,0:0|1:0,0:0:0:0:
144,84,127863,2,0,L|164:24,1,61.5,4|0,0:0|1:0,0:0:0:0:
224,20,128285,2,0,L|368:36,1,123,4|8,0:0|0:0,0:0:0:0:
396,69,128919,1,8,0:0:0:0:
432,120,129130,6,0,P|424:184|432:248,1,123,4|8,1:0|0:0,0:0:0:0:
382,280,129764,1,0,0:0:0:0:
328,312,129975,2,0,L|331:373,2,61.5,0|2|8,1:0|0:0|0:0,0:0:0:0:
268,204,130820,2,0,P|236:184|196:172,2,61.5,0|2|8,1:0|0:0|0:0,0:0:0:0:
252,264,131454,2,0,P|216:304|144:324,1,123,2|2,0:0|0:0,0:0:0:0:
92,312,132088,1,8,0:0:0:0:
12,220,132510,6,0,P|8:156|36:96,1,123,4|8,1:0|0:0,0:0:0:0:
77,62,133144,1,0,0:0:0:0:
136,40,133356,2,0,L|212:28,2,61.5,0|2|8,1:0|0:0|0:0,0:0:0:0:
144,164,134201,2,0,P|204:164|268:124,1,123,4|8,1:0|0:0,0:0:0:0:
308,96,134834,2,0,B|300:172|300:172|332:228,1,123,2|0,0:0|1:0,0:0:0:0:
368,256,135468,1,12,0:0:0:0:
272,332,135891,6,0,P|208:348|136:324,1,123,4|8,1:0|0:0,0:0:0:0:
84,232,136736,2,0,L|12:200,2,61.5,0|0|8,1:0|1:0|0:0,0:0:0:0:
144,228,137370,2,0,P|208:212|280:236,1,123,4|0,0:0|1:0,0:0:0:0:
316,260,138003,1,8,0:0:0:0:
416,188,138426,2,0,L|423:102,1,61.5,0|0,1:0|1:0,0:0:0:0:
420,64,138849,1,8,0:0:0:0:
368,28,139060,6,0,P|308:24|232:48,1,123,4|0,0:0|1:0,0:0:0:0:
196,76,139694,1,8,0:0:0:0:
116,168,140116,1,0,1:0:0:0:
16,96,140539,1,8,0:0:0:0:
16,96,140750,2,0,L|0:232,1,123,4|0,1:0|1:0,0:0:0:0:
8,280,141384,2,0,L|80:284,2,61.5,4|0|0,0:0|0:0|1:0,0:0:0:0:
96,192,142229,2,0,L|168:196,1,61.5,8|8,0:0|0:0,0:0:0:0:
220,200,142651,5,4,1:0:0:0:
220,200,142863,2,0,P|232:136|204:72,1,123,0|2,0:0|1:0,0:0:0:0:
92,52,143708,1,2,1:0:0:0:
212,83,144130,2,0,P|272:99|344:79,1,123,2|0,1:0|1:0,0:0:0:0:
380,48,144764,1,8,0:0:0:0:
472,128,145187,2,0,L|480:196,1,61.5,0|0,1:0|1:0,0:0:0:0:
476,252,145609,1,8,0:0:0:0:
368,312,146032,5,2,1:0:0:0:
368,312,146243,2,0,P|300:288|232:304,1,123,0|2,0:0|1:0,0:0:0:0:
140,344,147088,1,2,1:0:0:0:
60,252,147510,2,0,L|64:116,1,123,2|0,1:0|1:0,0:0:0:0:
68,68,148144,1,8,0:0:0:0:
184,28,148567,2,0,L|256:28,1,61.5,0|0,1:0|1:0,0:0:0:0:
308,32,148989,1,8,0:0:0:0:
376,136,149412,5,2,1:0:0:0:
376,136,149623,2,0,P|388:200|360:264,1,123,0|2,0:0|1:0,0:0:0:0:
276,336,150468,1,0,1:0:0:0:
204,236,150891,2,0,P|144:223|85:239,1,123,2|0,1:0|1:0,0:0:0:0:
40,280,151525,1,8,0:0:0:0:
36,156,151947,2,0,L|43:88,1,61.5,2|0,1:0|0:0,0:0:0:0:
56,36,152370,1,8,0:0:0:0:
160,104,152792,6,0,P|208:120|296:96,1,123,4|8,0:0|0:0,0:0:0:0:
320,64,153426,2,0,P|316:152|348:196,1,123,2|0,0:0|0:0,0:0:0:0:
367,230,154060,1,8,0:0:0:0:
256,268,154482,1,4,0:0:0:0:
148,208,154905,1,4,0:0:0:0:
228,116,155327,2,0,L|216:40,2,61.5,8|8|8,0:0|0:0|0:0,0:0:0:0:
328,188,156172,6,0,P|388:200|468:176,1,123,4|8,1:0|0:0,0:0:0:0:
464,64,157018,2,0,L|464:-16,2,61.5,0|4|8,1:0|0:0|0:0,0:0:0:0:
404,76,157651,2,0,L|252:88,1,123,4|0,1:0|1:0,0:0:0:0:
232,124,158285,2,0,L|368:148,1,123,12|0,0:0|1:0,0:0:0:0:
400,188,158919,2,0,L|320:228,1,61.5,0|8,1:0|0:0,0:0:0:0:
232,260,159553,5,4,1:0:0:0:
180,208,173074,6,0,P|244:192|304:208,1,123,4|8,1:2|0:0,0:0:0:0:
356,228,173708,2,0,P|344:168|380:96,2,123,0|0|0,1:0|1:0|0:0,0:0:0:0:
335,285,174764,1,0,1:0:0:0:
223,331,175187,1,8,0:0:0:0:
223,331,175398,2,0,L|180:206,1,123,0|0,1:0|1:0,0:0:0:0:
157,158,176032,1,8,0:0:0:0:
267,110,176454,6,0,P|319:82|391:86,1,123,0|8,1:0|0:0,0:0:0:0:
420,130,177088,2,0,L|432:274,1,123,0|0,1:0|1:0,0:0:0:0:
391,300,177722,1,8,0:0:0:0:
271,326,178144,2,0,L|275:202,1,123,0|8,1:0|0:0,0:0:0:0:
282,141,178778,2,0,P|226:189|154:189,1,123,0|0,1:0|1:0,0:0:0:0:
120,174,179412,1,8,0:0:0:0:
77,58,179834,6,0,P|133:38|197:62,1,123,4|8,0:0|0:0,0:0:0:0:
249,77,180468,2,0,P|306:96|363:76,1,123,4|0,0:0|1:0,0:0:0:0:
424,67,181102,1,8,0:0:0:0:
384,180,181525,2,0,P|348:184|316:196,2,61.5,4|0|8,0:0|1:0|0:0,0:0:0:0:
436,208,182158,2,0,B|452:272|452:272|440:344,1,123,4|0,0:0|1:0,0:0:0:0:
396,368,182792,1,8,0:0:0:0:
288,308,183215,6,0,P|200:304|148:332,1,123,4|8,0:0|0:0,0:0:0:0:
116,348,183849,1,0,1:0:0:0:
116,348,184060,2,0,L|96:220,1,123,0|8,1:0|0:0,0:0:0:0:
216,192,184905,2,0,L|197:70,1,123,4|8,0:0|0:0,0:0:0:0:
226,18,185539,1,0,0:0:0:0:
226,18,185750,2,0,P|282:50|354:42,1,123,8|8,1:0|1:0,0:0:0:0:
461,40,186595,6,0,L|475:99,1,61.5,8|0,1:0|0:0,0:0:0:0:
506,153,187018,2,0,L|491:212,1,61.5,0|2,1:0|0:0,0:0:0:0:
437,243,187440,2,0,P|377:223|305:243,1,123,0|0,1:0|1:0,0:0:0:0:
267,267,188074,1,0,1:0:0:0:
208,246,188285,5,4,0:0:0:0:
504,24,189553,5,0,1:0:0:0:
500,148,189975,1,4,0:0:0:0:
36,316,191665,5,4,0:0:0:0:
280,40,192933,1,0,1:0:0:0:
352,140,193356,5,4,0:0:0:0:
324,260,193778,1,0,1:0:0:0:
324,260,193989,2,0,L|240:256,1,61.5,8|8,0:0|0:0,0:0:0:0:
200,252,194412,2,0,L|140:232,1,61.5,0|8,1:0|0:0,0:0:0:0:
86,206,194834,1,8,0:0:0:0:
32,172,195046,6,0,P|18:112|34:53,1,123,4|8,1:0|0:0,0:0:0:0:
94,42,195680,1,0,0:0:0:0:
156,44,195891,2,0,P|171:102|158:162,1,123,0|8,1:0|0:0,0:0:0:0:
108,196,196525,1,0,1:0:0:0:
108,196,196736,2,0,L|236:192,1,123,4|8,1:0|0:0,0:0:0:0:
332,120,197581,2,0,P|352:184|328:256,1,123,0|8,1:0|0:0,0:0:0:0:
320,296,198215,1,0,1:0:0:0:
320,296,198426,6,0,B|264:280|264:280|184:316,1,123,4|8,1:0|0:0,0:0:0:0:
92,352,199271,1,0,1:0:0:0:
32,244,199694,1,8,0:0:0:0:
100,140,200116,2,0,L|100:64,1,61.5,4|0,0:0|1:0,0:0:0:0:
132,24,200539,2,0,L|200:24,1,61.5,4|0,0:0|1:0,0:0:0:0:
256,20,200961,2,0,L|256:160,1,123,4|8,0:0|0:0,0:0:0:0:
200,170,201595,1,8,0:0:0:0:
144,196,201806,6,0,P|80:180|16:196,1,123,4|8,1:0|0:0,0:0:0:0:
84,300,202651,2,0,L|32:348,2,61.5,0|2|8,1:0|0:0|0:0,0:0:0:0:
144,288,203285,1,2,0:0:0:0:
144,288,203496,2,0,P|212:296|264:320,1,123,0|8,1:0|0:0,0:0:0:0:
320,336,204130,2,0,P|360:308|400:240,1,123,2|2,0:0|0:0,0:0:0:0:
396,184,204764,1,8,0:0:0:0:
300,108,205186,6,0,P|276:164|281:225,1,123,4|8,1:0|0:0,0:0:0:0:
270,285,205820,1,0,0:0:0:0:
234,335,206032,2,0,L|150:315,1,61.5,0|2,1:0|0:0,0:0:0:0:
113,309,206454,2,0,P|89:245|89:225,1,61.5,8|0,0:0|0:0,0:0:0:0:
68,192,206877,2,0,P|128:192|192:152,1,123,4|8,1:0|0:0,0:0:0:0:
232,128,207510,2,0,B|224:204|224:204|256:260,1,123,0|0,0:0|1:0,0:0:0:0:
280,296,208144,1,12,0:0:0:0:
392,240,208567,6,0,B|415:199|415:199|407:123,1,123,4|8,1:0|0:0,0:0:0:0:
304,56,209412,2,0,L|216:60,2,61.5,0|0|8,1:0|1:0|0:0,0:0:0:0:
308,116,210046,2,0,L|284:248,1,123,4|0,0:0|1:0,0:0:0:0:
268,296,210680,1,8,0:0:0:0:
144,296,211102,2,0,L|121:174,1,123,0|8,1:0|0:0,0:0:0:0:
112,112,211736,6,0,P|164:136|232:136,1,123,4|0,0:0|1:0,0:0:0:0:
280,100,212370,1,8,0:0:0:0:
344,208,212792,1,0,1:0:0:0:
440,128,213215,1,8,0:0:0:0:
440,128,213426,2,0,L|456:-8,1,123,4|0,1:0|1:0,0:0:0:0:
392,8,214060,2,0,P|359:7|328:16,1,61.5,4|0,0:0|0:0,0:0:0:0:
224,72,214694,1,0,1:0:0:0:
224,72,214905,2,0,P|234:101|241:131,1,61.5,8|8,0:0|0:0,0:0:0:0:
236,192,215327,5,4,1:0:0:0:
236,192,215539,2,0,P|225:221|219:250,1,61.5,0|8,1:0|0:0,0:0:0:0:
232,312,215961,2,0,P|252:335|274:356,1,61.5,0|0,0:0|1:0,0:0:0:0:
336,340,216384,2,0,L|408:328,1,61.5,0|8,1:0|0:0,0:0:0:0:
456,320,216806,5,4,0:0:0:0:
456,320,218708,6,0,L|448:184,1,123,4|0,0:0|1:0,0:0:0:0:
448,136,219341,2,0,P|392:164|320:160,1,123,4|0,0:0|1:0,0:0:0:0:
272,148,219975,2,0,P|211:148|156:175,1,123,4|0,0:0|1:0,0:0:0:0:
112,216,220609,1,12,0:0:0:0:
112,216,220820,2,0,P|120:256|124:292,1,61.5,8|0,0:0|1:0,0:0:0:0:
116,336,221243,1,4,0:0:0:0:
224,280,221665,1,4,0:0:0:0:
332,340,222088,6,0,P|388:270|336:180,1,184.5,4|2,1:0|0:0,0:0:0:0:
268,104,223144,2,0,L|268:28,1,61.5,0|8,0:0|0:0,0:0:0:0:
152,4,223778,2,0,L|152:196,1,184.5,2|2,1:0|0:0,0:0:0:0:
232,280,224834,2,0,L|232:344,1,61.5,2|8,0:0|0:0,0:0:0:0:
356,348,225468,6,0,P|444:338|486:260,1,184.5,2|2,1:0|0:0,0:0:0:0:
428,152,226524,2,0,L|428:64,2,61.5,0|8|0,0:0|0:0|0:0,0:0:0:0:
392,200,227158,2,0,B|344:200|308:168|308:168|280:208|220:208,1,184.5,2|2,1:0|0:0,0:0:0:0:
136,292,228214,1,4,0:0:0:0:
164,348,228426,1,0,1:2:0:0:
224,352,228637,1,12,0:0:0:0:
264,308,228848,6,0,L|72:324,1,184.5,4|2,1:0|0:0,0:0:0:0:
132,212,229904,2,0,L|212:204,1,61.5,0|8,0:0|0:0,0:0:0:0:
316,184,230538,2,0,P|340:156|488:164,1,184.5,2|2,1:0|0:0,0:0:0:0:
416,260,231595,2,0,L|424:332,2,61.5,0|8|0,0:0|0:0|0:0,0:0:0:0:
356,268,232228,6,0,P|324:272|288:288,1,61.5,4|0,0:0|1:0,0:0:0:0:
176,308,232862,1,8,1:0:0:0:
176,308,233073,2,0,L|112:276,1,61.5,4|0,0:0|1:0,0:0:0:0:
76,240,233496,1,8,0:0:0:0:
104,184,233707,1,0,1:0:0:0:
228,184,234130,2,0,L|300:184,1,61.5,8|8,0:3|0:0,0:0:0:0:
352,180,234552,2,0,P|360:148|352:104,1,61.5,8|4,0:3|0:3,0:0:0:0:
272,32,235186,1,4,0:0:0:0:
172,104,235609,5,4,1:0:0:0:
256,192,235715,12,0,238989,0:0:0:0:
