osu file format v14

[General]
AudioFilename: audio.mp3
AudioLeadIn: 0
PreviewTime: 114553
Countdown: 0
SampleSet: Soft
StackLeniency: 0.4
Mode: 0
LetterboxInBreaks: 0
WidescreenStoryboard: 0

[Editor]
Bookmarks: 239039
DistanceSpacing: 0.7
BeatDivisor: 4
GridSize: 16
TimelineZoom: 1

[Metadata]
Title:Harumachi Clover
TitleUnicode:春待ちクローバー
Artist:Hanasaka Yui (CV: M.A.O)
ArtistUnicode:花坂結衣 (CV:M・A・O)
Creator:Momochikun
Version:Clover
Source:OneRoom
Tags:one room カントク kantoku full ver ichimichi mao xinely dream117er anime japanese pop
BeatmapID:1228359
BeatmapSetID:580151

[Difficulty]
HPDrainRate:7
CircleSize:4
OverallDifficulty:7
ApproachRate:8.5
SliderMultiplier:1.6
SliderTickRate:1

[Events]
//Background and Video events
0,0,"clover.png",0,0
//Break Periods
//Storyboard Layer 0 (Background)
//Storyboard Layer 1 (Fail)
//Storyboard Layer 2 (Pass)
//Storyboard Layer 3 (Foreground)
//Storyboard Layer 4 (Overlay)
//Storyboard Sound Samples

[TimingPoints]
680,422.535211267606,4,2,1,80,1,0
12827,-100,4,2,1,65,0,0
14201,-105.263157894737,4,2,1,70,0,0
40398,-105.263157894737,4,2,1,60,0,0
41243,-125,4,2,1,65,0,0
48003,-100,4,2,1,75,0,0
56454,-100,4,2,1,85,0,1
69341,-100,4,2,1,55,0,1
69870,-100,4,2,1,55,0,0
69975,-100,4,2,1,85,0,1
83074,-100,4,2,1,60,0,1
83496,-100,4,2,1,75,0,1
86877,-105.263157894737,4,2,1,70,0,0
99553,-105.263157894737,4,2,1,60,0,0
100398,-125,4,2,1,65,0,0
107158,-100,4,2,1,75,0,0
113919,-105.263157894737,4,2,1,75,0,0
114553,-100,4,2,1,75,0,0
115609,-100,4,2,1,85,0,1
125750,-105.263157894737,4,2,1,85,0,1
126595,-100,4,2,1,85,0,1
128496,-100,4,2,1,55,0,1
129025,-100,4,2,1,55,0,0
129130,-100,4,2,1,85,0,1
142229,-100,4,2,1,60,0,1
142651,-105.263157894737,4,2,1,70,0,0
152792,-105.263157894737,4,2,1,75,0,0
155539,-105.263157894737,4,2,1,65,0,0
156172,-105.263157894737,4,2,1,75,0,0
159553,-100,4,2,1,80,0,1
159658,-100,4,2,1,75,0,0
173074,-117.647058823529,4,2,1,65,0,0
179834,-100,4,2,1,75,0,0
188285,-100,4,2,1,60,0,0
193778,-100,4,2,1,75,0,0
195046,-100,4,2,1,85,0,1
201172,-100,4,2,1,55,0,1
201701,-100,4,2,1,55,0,0
201806,-100,4,2,1,85,0,1
214905,-100,4,2,1,60,0,1
215327,-100,4,2,1,70,0,1
216806,-100,4,2,1,85,0,0
218708,-100,4,2,1,75,0,0
222088,-100,4,2,1,80,0,1
222194,-100,4,2,1,80,0,0
234130,-100,4,2,1,70,0,0
234975,-100,4,2,1,80,0,0
235609,-100,4,2,1,60,0,0
235715,-100,4,2,1,40,0,0

[Colours]
Combo1 : 255,166,210
Combo2 : 255,255,128
Combo3 : 159,255,159

[HitObjects]
153,45,468,5,0,0:0:0:0:
166,32,574,1,0,0:0:0:0:
184,27,680,2,0,P|259:19|346:62,1,160,6|8,1:0|0:0,0:0:0:0:
423,98,1313,2,0,P|410:136|399:174,1,80,2|0,0:0|1:0,0:0:0:0:
339,304,1736,1,0,0:0:0:0:
245,284,1947,2,0,P|232:245|221:207,1,80,8|0,0:0|0:0,0:0:0:0:
99,129,2370,6,0,B|173:158|186:98|267:129,1,160,2|8,1:0|0:0,0:0:0:0:
379,154,3003,2,0,P|392:117|385:78,1,80,2|0,0:0|1:0,0:0:0:0:
264,211,3426,1,0,0:0:0:0:
264,211,3637,2,0,P|251:248|258:287,1,80,8|0,0:0|0:0,0:0:0:0:
338,334,4060,6,0,P|267:315|201:364,1,160,2|8,1:0|0:0,0:0:0:0:
123,323,4694,2,0,L|45:305,1,80,2|0,0:0|1:0,0:0:0:0:
1,178,5116,1,0,0:0:0:0:
1,178,5327,2,0,L|79:196,1,80,8|0,0:0|0:0,0:0:0:0:
234,239,5750,6,0,P|232:280|208:316,1,80,2|0,1:0|0:0,0:0:0:0:
172,156,6172,1,8,0:0:0:0:
256,96,6384,2,0,L|334:114,1,80,2|0,0:0|1:0,0:0:0:0:
469,191,6806,1,4,0:0:0:0:
326,234,7018,1,0,1:0:0:0:
411,49,7229,1,4,0:0:0:0:
469,191,7440,6,0,P|454:243|443:279,1,80,6|0,1:0|0:0,0:0:0:0:
482,368,7863,1,8,0:0:0:0:
313,349,8074,2,0,P|351:367|395:362,1,80,2|0,0:0|1:0,0:0:0:0:
447,268,8496,1,0,0:0:0:0:
332,182,8708,2,0,P|307:214|300:256,1,80,8|0,0:0|0:0,0:0:0:0:
503,109,9130,6,0,B|445:127|445:127|399:117|399:117|336:149,1,160,2|8,1:0|0:0,0:0:0:0:
228,220,9764,2,0,P|272:231|301:253,1,80,2|0,0:0|1:0,0:0:0:0:
136,177,10187,1,2,0:0:0:0:
136,177,10398,2,0,P|103:141|96:111,1,80,8|2,0:0|0:0,0:0:0:0:
225,11,10820,5,4,0:0:0:0:
279,188,11032,1,0,1:0:0:0:
96,111,11243,1,8,0:0:0:0:
302,64,11454,1,2,1:0:0:0:
191,143,11665,5,4,0:0:0:0:
226,13,11877,1,0,1:0:0:0:
339,86,12088,1,8,0:0:0:0:
164,225,12299,1,2,1:0:0:0:
262,329,12510,6,0,P|291:296|293:255,1,80,4|2,0:0|0:0,0:0:0:0:
295,261,12827,1,8,0:3:0:0:
295,261,12933,1,0,1:1:0:0:
88,340,13144,1,8,0:3:0:0:
96,347,13250,1,8,0:3:0:0:
96,347,13356,1,0,1:1:0:0:
163,104,13567,5,4,0:3:0:0:
174,124,13672,1,4,0:3:0:0:
186,144,13779,1,4,0:0:0:0:
70,240,13989,1,2,0:0:0:0:
285,333,14201,1,4,1:0:0:0:
285,333,14623,6,0,P|347:348|438:301,2,151.999995941162,0|0|0,1:0|1:0|1:0,0:0:0:0:
205,295,15680,2,0,P|193:248|184:215,1,75.9999979705811,0|0,0:0|1:0,0:0:0:0:
307,37,16102,1,0,0:0:0:0:
256,192,16313,1,0,1:0:0:0:
215,86,16525,2,0,P|250:60|288:59,1,75.9999979705811,0|0,0:0|1:0,0:0:0:0:
408,122,16947,1,8,0:0:0:0:
344,280,17158,2,0,P|311:251|303:213,1,75.9999979705811,8|0,0:0|0:0,0:0:0:0:
408,122,17581,6,0,B|336:147|328:97|259:126,1,151.999995941162,0|0,1:0|1:0,0:0:0:0:
167,198,18215,2,0,P|166:239|192:274,1,75.9999979705811,0|0,0:0|1:0,0:0:0:0:
254,214,18637,1,0,0:0:0:0:
167,97,18849,1,0,1:0:0:0:
167,97,18954,1,0,0:0:0:0:
167,97,19060,1,0,0:0:0:0:
364,149,19271,5,0,1:0:0:0:
332,66,19482,1,0,0:0:0:0:
268,126,19694,1,0,1:0:0:0:
396,232,19905,1,0,0:0:0:0:
364,149,20116,1,0,1:0:0:0:
300,209,20328,1,8,0:0:0:0:
407,307,20539,2,0,L|394:224,1,75.9999979705811,8|0,0:0|0:0,0:0:0:0:
268,126,20961,6,0,P|210:177|213:255,1,151.999995941162,0|0,1:0|1:0,0:0:0:0:
138,323,21595,1,0,0:0:0:0:
354,346,21806,2,0,P|377:311|376:273,1,75.9999979705811,0|0,1:0|0:0,0:0:0:0:
268,126,22229,1,0,1:0:0:0:
262,136,22334,1,0,0:0:0:0:
256,146,22440,1,0,0:0:0:0:
113,225,22651,6,0,P|146:216|190:205,1,75.9999979705811,0|0,1:0|0:0,0:0:0:0:
284,244,23074,1,0,1:0:0:0:
175,365,23285,2,0,P|177:329|203:289,1,75.9999979705811,0|0,0:0|1:0,0:0:0:0:
284,244,23708,1,0,0:0:0:0:
334,327,23919,1,0,1:0:0:0:
175,365,24130,1,0,0:0:0:0:
240,144,24341,5,0,1:0:0:0:
353,209,24553,1,0,1:0:0:0:
241,346,24764,1,8,0:0:0:0:
157,299,24975,5,0,1:0:0:0:
257,253,25187,1,0,0:0:0:0:
333,326,25398,1,0,1:0:0:0:
157,299,25609,1,8,0:0:0:0:
353,209,25820,1,0,0:0:0:0:
240,178,26032,6,0,L|259:263,1,75.9999979705811,4|0,0:0|1:0,0:0:0:0:
91,210,26454,1,8,0:0:0:0:
333,90,26665,2,0,P|404:43|483:42,1,151.999995941162,4|0,0:0|1:0,0:0:0:0:
333,90,27299,1,8,0:0:0:0:
427,172,27510,1,0,1:0:0:0:
256,288,27722,1,4,0:0:0:0:
256,288,28144,6,0,P|193:238|107:262,2,151.999995941162,0|0|8,1:0|1:0|0:0,0:0:0:0:
318,348,29201,1,0,0:0:0:0:
178,313,29412,2,0,P|186:359|206:383,1,75.9999979705811,0|0,1:0|0:0,0:0:0:0:
257,288,29834,1,0,1:0:0:0:
126,247,30046,2,0,P|130:209|154:178,1,75.9999979705811,0|0,0:0|1:0,0:0:0:0:
312,121,30468,1,0,0:0:0:0:
217,96,30680,2,0,L|238:180,1,75.9999979705811,8|0,0:0|0:0,0:0:0:0:
363,259,31102,5,0,1:0:0:0:
462,284,31313,1,0,0:0:0:0:
494,201,31525,1,0,1:0:0:0:
297,317,31736,5,0,0:0:0:0:
398,344,31947,1,0,1:0:0:0:
324,216,32158,1,0,0:0:0:0:
198,302,32370,2,0,P|205:350|225:372,1,75.9999979705811,8|0,0:0|0:0,0:0:0:0:
324,216,32792,5,0,1:0:0:0:
478,109,33003,1,0,0:0:0:0:
306,32,33215,1,0,1:0:0:0:
402,163,33426,2,0,L|379:72,1,75.9999979705811,0|0,0:0|1:0,0:0:0:0:
268,269,33849,2,0,P|304:293|337:295,1,75.9999979705811,0|8,0:0|0:0,0:0:0:0:
427,251,34271,1,0,0:0:0:0:
256,144,34482,6,0,L|136:179,1,113.999996955872,4|0,0:0|0:0,0:0:0:0:
119,187,34905,2,0,P|96:221|93:264,1,75.9999979705811,0|0,1:0|0:0,0:0:0:0:
192,81,35327,2,0,L|265:60,1,75.9999979705811,0|0,1:0|0:0,0:0:0:0:
397,25,35750,1,8,0:0:0:0:
356,148,35961,5,0,0:0:0:0:
356,148,36067,1,0,0:0:0:0:
356,148,36172,2,0,L|282:168,1,75.9999979705811,0|0,1:0|0:0,0:0:0:0:
179,297,36595,1,0,1:0:0:0:
90,263,36806,2,0,P|61:237|54:193,1,75.9999979705811,0|0,0:0|1:0,0:0:0:0:
85,33,37229,5,4,0:0:0:0:
142,199,37440,1,8,0:0:0:0:
0,112,37651,1,4,0:0:0:0:
215,143,37863,6,0,B|257:129|257:129|299:179|381:146,1,151.999995941162,4|0,1:0|1:0,0:0:0:0:
423,93,38496,1,0,0:0:0:0:
482,195,38708,2,0,L|463:276,1,75.9999979705811,0|0,1:0|0:0,0:0:0:0:
366,347,39130,2,0,P|311:361|236:288,1,151.999995941162,8|4,0:0|0:0,0:0:0:0:
223,189,39764,5,0,1:0:0:0:
318,282,39975,1,8,0:0:0:0:
170,369,40187,1,4,0:0:0:0:
309,172,40398,2,0,L|319:122,3,37.9999989852906,8|8|0|8,0:0|0:0|1:0|0:0,0:0:0:0:
392,93,40820,1,8,0:0:0:0:
384,67,40926,1,8,0:0:0:0:
370,44,41032,1,8,0:0:0:0:
348,28,41137,1,8,0:0:0:0:
322,21,41243,6,0,L|184:55,1,128,4|8,1:2|0:0,0:0:0:0:
116,221,41877,2,0,P|88:165|114:92,1,128,0|0,1:0|1:0,0:0:0:0:
192,135,42510,2,0,L|265:148,1,64,8|0,0:0|0:0,0:0:0:0:
417,267,42933,6,0,P|369:276|283:243,1,128,0|8,1:0|0:0,0:0:0:0:
197,302,43567,2,0,L|218:364,1,64,0|0,1:0|0:0,0:0:0:0:
217,362,43989,1,0,1:0:0:0:
113,254,44201,2,0,L|86:322,1,64,8|0,0:0|0:0,0:0:0:0:
135,155,44623,6,0,L|16:205,1,128,0|8,1:0|0:0,0:0:0:0:
149,65,45257,2,0,P|201:99|220:164,1,128,0|0,1:0|1:0,0:0:0:0:
319,266,45891,2,0,P|300:236|297:198,1,64,8|0,0:0|0:0,0:0:0:0:
356,27,46313,5,0,1:0:0:0:
441,19,46525,1,0,0:0:0:0:
502,75,46736,1,8,0:0:0:0:
508,183,46947,2,0,L|437:202,1,64,0|0,1:0|0:0,0:0:0:0:
319,266,47370,1,0,1:0:0:0:
445,301,47581,1,8,0:0:0:0:
457,319,47687,1,8,0:0:0:0:
462,340,47792,1,0,1:0:0:0:
335,117,48003,5,4,0:0:0:0:
190,178,48215,1,0,1:0:0:0:
323,288,48426,1,8,0:0:0:0:
248,91,48637,2,0,P|308:37|385:42,1,160,4|0,0:0|1:0,0:0:0:0:
190,178,49271,2,0,P|146:166|113:155,1,80,8|0,0:0|0:0,0:0:0:0:
368,259,49694,5,4,0:0:0:0:
283,104,49905,1,0,1:0:0:0:
190,178,50116,1,8,0:0:0:0:
421,346,50327,2,0,P|457:277|436:192,1,160,4|0,0:0|1:0,0:0:0:0:
271,134,50961,1,8,0:0:0:0:
379,63,51172,1,0,1:0:0:0:
271,134,51384,6,0,L|180:155,1,80,4|0,0:0|1:0,0:0:0:0:
69,321,51806,2,0,L|146:303,1,80,8|0,0:0|1:0,0:0:0:0:
63,85,52229,2,0,P|62:129|85:161,1,80,0|0,1:0|1:0,0:0:0:0:
233,319,52651,2,0,P|233:274|210:242,1,80,8|0,0:0|1:0,0:0:0:0:
185,126,53074,6,0,B|220:132|246:117|246:117|287:162|345:141,1,160,4|8,0:0|1:0,0:0:0:0:
397,67,53708,1,0,0:0:0:0:
222,28,53919,2,0,L|130:60,1,80,8|0,1:0|1:0,0:0:0:0:
354,159,54341,2,0,L|443:193,1,80,8|0,1:0|0:0,0:0:0:0:
202,279,54764,2,0,B|150:258|89:289|89:289|41:258,1,160,8|8,1:0|1:0,0:0:0:0:
205,194,55398,5,2,0:0:0:0:
295,316,55609,1,8,1:0:0:0:
352,128,55820,5,0,1:0:0:0:
202,279,56032,1,8,0:0:0:0:
256,80,56243,1,0,1:0:0:0:
412,332,56454,5,4,1:0:0:0:
456,205,56665,1,2,0:0:0:0:
359,253,56877,2,0,L|282:272,1,80,8|0,0:0|0:0,0:0:0:0:
131,155,57299,1,0,1:0:0:0:
219,202,57510,1,2,0:0:0:0:
106,339,57722,2,0,P|90:302|93:258,1,80,8|0,0:0|0:0,0:0:0:0:
200,77,58144,5,0,1:0:0:0:
200,77,58356,1,2,0:0:0:0:
19,150,58567,1,8,0:0:0:0:
219,202,58778,2,0,P|295:204|359:138,1,160,2|2,0:0|0:0,0:0:0:0:
388,268,59412,2,0,P|379:309|374:355,1,80,8|2,0:0|0:0,0:0:0:0:
317,70,59834,5,0,1:0:0:0:
354,151,60046,1,2,0:0:0:0:
175,125,60257,1,8,0:0:0:0:
300,224,60468,5,0,0:0:0:0:
225,58,60680,1,0,1:0:0:0:
380,96,60891,1,2,0:0:0:0:
206,213,61102,2,0,P|211:257|237:286,1,80,8|0,0:0|0:0,0:0:0:0:
479,200,61525,5,0,1:0:0:0:
380,96,61736,1,2,0:0:0:0:
479,200,61947,1,8,0:0:0:0:
386,313,62158,2,0,B|325:329|269:298|269:298|247:318|239:343,1,160,2|2,0:0|0:0,0:0:0:0:
125,366,62792,1,8,0:0:0:0:
158,185,63003,5,2,1:0:0:0:
158,185,63109,1,0,1:0:0:0:
158,185,63215,1,4,1:0:0:0:
200,355,63426,1,2,0:0:0:0:
78,225,63637,1,8,0:0:0:0:
190,268,63849,5,0,0:0:0:0:
37,151,64060,1,0,1:0:0:0:
174,91,64271,1,2,0:0:0:0:
78,225,64482,2,0,P|57:262|57:302,1,80,8|2,0:0|1:0,0:0:0:0:
119,347,64799,5,0,1:0:0:0:
119,347,64905,2,0,P|161:335|199:327,1,80,4|0,1:0|0:0,0:0:0:0:
341,212,65327,2,0,P|297:204|261:192,1,80,8|0,0:0|0:0,0:0:0:0:
196,42,65750,1,0,1:0:0:0:
196,42,65961,1,2,0:0:0:0:
346,78,66172,1,8,0:0:0:0:
181,260,66384,5,0,1:0:0:0:
181,260,66489,1,0,1:0:0:0:
181,260,66595,2,0,P|99:239|85:152,2,160,4|8|0,1:0|0:0|1:0,0:0:0:0:
368,122,67863,1,8,0:0:0:0:
337,207,68074,1,0,1:0:0:0:
462,75,68285,5,4,0:0:0:0:
248,150,68496,1,0,1:0:0:0:
473,199,68708,5,4,0:0:0:0:
237,49,68919,1,0,1:0:0:0:
389,10,69130,5,4,0:0:0:0:
178,113,69341,1,2,0:0:0:0:
164,143,69446,1,8,0:0:0:0:
164,176,69552,1,8,0:0:0:0:
178,205,69657,1,8,0:0:0:0:
204,227,69763,1,10,0:0:0:0:
236,235,69869,1,8,0:0:0:0:
268,229,69975,6,0,P|306:240|348:255,1,80,4|2,1:0|0:0,0:0:0:0:
465,81,70398,1,8,0:0:0:0:
377,134,70609,1,2,0:0:0:0:
494,206,70820,2,0,L|468:304,1,80,0|2,1:0|0:0,0:0:0:0:
257,138,71243,1,8,0:0:0:0:
393,197,71454,1,0,0:0:0:0:
326,65,71665,5,0,1:0:0:0:
257,138,71877,1,2,0:0:0:0:
369,181,72088,1,8,0:0:0:0:
213,39,72299,2,0,P|153:80|147:164,1,160,2|2,0:0|0:0,0:0:0:0:
301,269,72933,2,0,L|215:247,1,80,8|0,0:0|1:0,0:0:0:0:
198,277,73250,5,0,1:0:0:0:
198,277,73356,2,0,P|174:318|175:361,1,80,4|0,1:0|0:0,0:0:0:0:
398,135,73778,1,8,0:0:0:0:
289,94,73989,1,2,0:0:0:0:
199,177,74201,6,0,P|201:217|224:250,1,80,0|2,1:0|0:0,0:0:0:0:
401,183,74623,1,8,0:0:0:0:
289,94,74834,1,2,0:0:0:0:
146,272,75046,6,0,P|188:259|231:246,1,80,4|2,1:0|0:0,0:0:0:0:
382,291,75468,1,8,0:0:0:0:
196,359,75680,1,2,0:0:0:0:
181,365,75785,1,0,1:0:0:0:
165,370,75891,2,0,P|131:340|124:300,1,80,0|0,1:0|1:0,0:0:0:0:
217,102,76313,2,0,P|214:147|196:181,1,80,12|0,0:0|0:0,0:0:0:0:
23,321,76736,5,4,1:0:0:0:
71,230,76947,1,2,0:0:0:0:
286,279,77158,5,8,0:0:0:0:
210,217,77370,1,0,0:0:0:0:
210,217,77475,1,0,1:0:0:0:
210,217,77581,1,0,1:0:0:0:
256,48,77792,5,2,1:0:0:0:
318,152,78003,1,8,0:0:0:0:
140,273,78215,1,4,0:0:0:0:
140,273,78637,5,0,1:0:0:0:
288,359,78849,2,0,P|250:358|212:334,1,80,8|0,0:0|0:0,0:0:0:0:
161,91,79271,1,0,1:0:0:0:
296,136,79482,1,2,1:0:0:0:
257,267,79694,1,8,0:0:0:0:
20,212,79905,6,0,B|53:208|81:193|81:193|120:207|120:207|143:196|172:192,1,160,4|0,0:0|1:0,0:0:0:0:
362,232,80539,1,8,0:0:0:0:
257,267,80750,1,0,0:0:0:0:
257,267,80856,1,0,1:0:0:0:
257,267,80961,1,0,1:0:0:0:
295,79,81172,1,0,1:0:0:0:
382,133,81384,1,8,0:0:0:0:
171,286,81595,6,0,P|103:237|103:164,1,160,4|0,1:0|1:0,0:0:0:0:
218,92,82229,2,0,P|255:77|298:79,1,80,4|0,0:0|0:0,0:0:0:0:
293,77,82546,1,0,1:0:0:0:
293,77,82651,1,0,1:0:0:0:
393,211,82863,1,0,1:0:0:0:
238,174,83074,1,8,0:0:0:0:
211,187,83179,1,8,0:0:0:0:
191,209,83285,1,8,0:0:0:0:
180,237,83390,1,8,0:0:0:0:
180,267,83496,6,0,P|140:285|95:278,1,80,4|0,0:0|1:0,0:0:0:0:
29,219,83919,1,0,1:0:0:0:
274,350,84130,6,0,P|301:316|306:270,1,80,4|0,0:0|1:0,0:0:0:0:
287,195,84553,1,0,1:0:0:0:
65,98,84764,6,0,P|77:139|112:169,1,80,4|0,0:0|1:0,0:0:0:0:
180,211,85187,1,0,1:0:0:0:
354,61,85398,5,12,0:0:0:0:
211,119,85609,1,8,0:0:0:0:
325,236,85821,1,0,1:0:0:0:
271,48,86032,5,4,0:0:0:0:
389,152,86243,1,0,1:0:0:0:
180,211,86454,2,0,P|181:254|209:289,1,80,4|0,0:0|0:0,0:0:0:0:
397,348,86877,6,0,B|409:310|409:310|376:263|384:197,1,151.999995941162,4|0,1:0|1:0,0:0:0:0:
423,97,87510,1,0,0:0:0:0:
423,97,87616,1,0,0:0:0:0:
423,97,87722,2,0,P|424:59|398:21,1,75.9999979705811,0|0,1:0|0:0,0:0:0:0:
279,115,88144,2,0,P|278:153|304:191,1,75.9999979705811,0|0,1:0|0:0,0:0:0:0:
452,231,88567,6,0,L|377:249,1,75.9999979705811,0|0,1:0|0:0,0:0:0:0:
225,206,88989,1,0,1:0:0:0:
164,283,89201,2,0,P|206:305|243:303,1,75.9999979705811,0|0,0:0|1:0,0:0:0:0:
378,248,89623,1,8,0:0:0:0:
270,81,89834,2,0,P|269:119|295:157,1,75.9999979705811,8|0,0:0|0:0,0:0:0:0:
378,248,90257,5,0,1:0:0:0:
443,175,90468,1,0,0:0:0:0:
425,80,90680,1,0,1:0:0:0:
287,150,90891,2,0,P|248:164|192:153,1,75.9999979705811,0|0,0:0|1:0,0:0:0:0:
287,244,91313,1,0,0:0:0:0:
239,84,91525,2,0,P|244:42|268:9,1,75.9999979705811,0|0,1:0|0:0,0:0:0:0:
460,118,91947,5,0,1:0:0:0:
331,89,92158,1,0,0:0:0:0:
431,28,92370,1,0,1:0:0:0:
354,173,92581,1,0,0:0:0:0:
341,63,92792,5,0,1:0:0:0:
485,104,93003,1,8,0:0:0:0:
343,212,93215,1,8,0:0:0:0:
445,187,93426,1,0,0:0:0:0:
313,58,93637,6,0,P|258:53|209:86,1,113.999996955872,0|0,1:0|0:0,0:0:0:0:
161,144,94060,2,0,L|76:125,1,75.9999979705811,0|0,1:0|0:0,0:0:0:0:
213,259,94482,2,0,L|138:242,1,75.9999979705811,0|0,1:0|0:0,0:0:0:0:
86,127,94905,1,0,1:0:0:0:
76,115,95010,1,0,0:0:0:0:
65,103,95116,1,0,0:0:0:0:
16,227,95327,6,0,P|17:265|40:299,1,75.9999979705811,0|0,1:0|0:0,0:0:0:0:
185,338,95750,1,0,1:0:0:0:
138,242,95961,2,0,P|146:205|172:178,1,75.9999979705811,0|0,0:0|1:0,0:0:0:0:
296,156,96384,1,0,0:0:0:0:
255,250,96595,1,0,1:0:0:0:
224,101,96806,1,0,0:0:0:0:
379,149,97018,6,0,B|403:217|403:217|423:231|423:231|442:288,1,151.999995941162,0|0,1:0|1:0,0:0:0:0:
342,383,97651,1,0,0:0:0:0:
342,383,97863,2,0,L|325:309,1,75.9999979705811,0|0,1:0|0:0,0:0:0:0:
304,198,98285,1,0,1:0:0:0:
301,183,98391,1,0,0:0:0:0:
298,168,98496,1,0,0:0:0:0:
470,94,98708,6,0,L|487:168,1,75.9999979705811,4|0,0:0|1:0,0:0:0:0:
305,210,99130,1,8,0:0:0:0:
369,51,99341,1,4,0:0:0:0:
487,168,99553,2,0,L|479:205,3,37.9999989852906,8|8|0|8,0:0|0:0|1:0|0:0,0:0:0:0:
407,254,99975,2,0,L|414:291,1,37.9999989852906,8|8,0:0|0:0,0:0:0:0:
460,363,100187,2,0,L|417:379,1,37.9999989852906,8|8,0:0|0:0,0:0:0:0:
334,357,100398,6,0,B|277:380|255:333|187:366,1,128,4|8,1:2|0:0,0:0:0:0:
132,298,101032,2,0,P|115:239|102:171,1,128,0|0,1:0|1:0,0:0:0:0:
175,42,101665,2,0,P|165:85|152:113,1,64,8|0,0:0|0:0,0:0:0:0:
19,188,102088,5,0,1:0:0:0:
256,272,102510,1,8,0:0:0:0:
316,214,102722,2,0,P|257:188|189:228,1,128,0|0,1:0|1:0,0:0:0:0:
136,306,103356,2,0,L|205:327,1,64,8|0,0:0|0:0,0:0:0:0:
314,324,103778,6,0,L|376:306,1,64,0|0,1:0|0:0,0:0:0:0:
482,318,104201,1,8,0:0:0:0:
422,194,104412,2,0,P|381:246|378:319,1,128,0|0,1:0|1:0,0:0:0:0:
422,194,105046,2,0,P|407:165|401:128,1,64,8|0,0:0|0:0,0:0:0:0:
450,20,105468,5,0,1:0:0:0:
335,97,105680,1,0,0:0:0:0:
483,147,105891,1,8,0:0:0:0:
335,97,106102,2,0,P|300:146|297:220,1,128,0|0,1:0|1:0,0:0:0:0:
366,322,106736,1,8,0:0:0:0:
433,248,106947,1,0,1:0:0:0:
251,335,107158,5,4,0:0:0:0:
384,177,107370,1,0,1:0:0:0:
452,279,107581,1,8,0:0:0:0:
221,354,107792,2,0,P|164:336|150:243,1,160,4|0,0:0|1:0,0:0:0:0:
276,159,108426,1,8,0:0:0:0:
219,270,108637,1,0,0:0:0:0:
168,21,108849,5,4,0:0:0:0:
256,80,109060,1,0,1:0:0:0:
79,157,109271,1,8,0:0:0:0:
219,270,109482,2,0,P|288:282|375:226,1,160,4|0,0:0|1:0,0:0:0:0:
314,64,110116,1,8,0:0:0:0:
270,191,110327,1,0,1:0:0:0:
436,308,110539,6,0,L|530:281,1,80,4|0,0:0|1:0,0:0:0:0:
337,79,110961,2,0,P|327:123|322:165,1,80,8|0,0:0|1:0,0:0:0:0:
445,31,111384,1,0,1:0:0:0:
445,31,111595,1,0,1:0:0:0:
440,176,111806,2,0,P|444:225|447:276,1,80,8|0,0:0|1:0,0:0:0:0:
353,352,112229,6,0,P|295:361|212:290,1,160,4|8,0:0|0:0,0:0:0:0:
306,111,112863,1,0,0:0:0:0:
164,205,113074,2,0,P|136:245|131:280,1,80,8|0,1:0|1:0,0:0:0:0:
267,94,113496,2,0,P|227:66|192:61,1,80,8|0,1:0|0:0,0:0:0:0:
346,234,113919,2,0,P|423:269|488:259,1,151.999995941162,8|8,1:0|1:0,0:0:0:0:
240,256,114553,5,2,0:0:0:0:
395,150,114764,1,0,1:0:0:0:
346,234,114976,5,8,1:0:0:0:
294,41,115187,1,0,1:0:0:0:
439,80,115398,1,0,1:0:0:0:
270,296,115609,5,4,1:0:0:0:
222,187,115820,1,0,0:0:0:0:
346,234,116032,2,0,P|371:267|375:306,1,80,8|2,0:0|0:0,0:0:0:0:
256,96,116454,1,0,1:1:0:0:
372,157,116665,1,2,0:0:0:0:
202,264,116877,2,0,L|124:243,1,80,8|0,0:0|0:0,0:0:0:0:
69,106,117299,6,0,L|146:126,1,80,0|2,1:0|0:0,0:0:0:0:
256,192,117722,1,8,0:0:0:0:
112,324,117933,2,0,B|42:329|30:262|30:262|61:206,1,160,2|2,0:0|0:0,0:0:0:0:
221,89,118567,2,0,P|181:100|136:91,1,80,8|2,0:0|0:0,0:0:0:0:
296,252,118989,5,0,1:0:0:0:
221,89,119201,1,2,0:0:0:0:
203,181,119412,1,8,0:0:0:0:
379,136,119623,1,0,0:0:0:0:
221,89,119834,5,0,1:0:0:0:
386,227,120046,1,2,0:0:0:0:
318,74,120257,1,8,0:0:0:0:
206,195,120468,1,2,0:0:0:0:
360,301,120680,6,0,P|378:268|386:224,1,80,0|2,1:0|0:0,0:0:0:0:
318,74,121102,1,8,0:0:0:0:
133,143,121313,2,0,P|212:173|303:151,1,160,2|2,0:0|0:0,0:0:0:0:
403,113,121947,1,8,0:0:0:0:
307,17,122158,5,0,1:0:0:0:
307,17,122264,1,0,1:0:0:0:
307,17,122370,2,0,P|275:56|273:98,1,80,4|2,1:0|0:0,0:0:0:0:
289,284,122792,1,8,0:0:0:0:
289,284,123003,1,2,0:0:0:0:
173,244,123215,2,0,P|188:207|194:163,1,80,0|2,1:0|0:0,0:0:0:0:
148,331,123637,1,8,0:0:0:0:
288,192,123849,1,2,0:0:0:0:
161,53,124060,6,0,B|125:37|125:37|61:68|3:17,1,160,4|8,1:0|0:0,0:0:0:0:
238,172,124694,1,2,0:0:0:0:
105,137,124905,1,0,1:0:0:0:
161,53,125116,1,2,0:0:0:0:
331,197,125327,1,8,0:0:0:0:
149,282,125539,5,0,1:0:0:0:
149,282,125644,1,0,1:0:0:0:
149,282,125750,2,0,P|121:210|105:135,2,151.999995941162,4|8|0,1:0|0:0|1:0,0:0:0:0:
376,200,127018,1,8,0:0:0:0:
466,216,127229,1,0,1:0:0:0:
313,115,127440,5,4,0:0:0:0:
412,276,127651,1,0,1:0:0:0:
481,71,127863,5,4,0:0:0:0:
279,206,128074,1,0,1:0:0:0:
512,307,128285,5,4,0:0:0:0:
325,363,128496,1,2,0:0:0:0:
292,368,128601,1,8,0:0:0:0:
259,362,128707,1,8,0:0:0:0:
231,345,128812,1,8,0:0:0:0:
200,331,128918,1,8,0:0:0:0:
168,332,129024,1,8,0:0:0:0:
137,346,129130,6,0,P|108:317|105:264,1,80,4|2,1:0|0:0,0:0:0:0:
219,107,129553,1,8,0:0:0:0:
141,178,129764,1,0,0:0:0:0:
337,215,129975,2,0,L|320:122,1,80,0|2,1:0|0:0,0:0:0:0:
289,288,130398,1,8,0:0:0:0:
424,184,130609,1,0,0:0:0:0:
249,212,130820,5,0,1:0:0:0:
417,265,131032,2,0,P|408:306|402:357,1,80,2|8,0:0|0:0,0:0:0:0:
273,369,131454,2,0,B|220:336|154:354|154:354|119:318,1,160,2|2,0:0|0:0,0:0:0:0:
99,221,132088,1,8,0:0:0:0:
256,272,132299,5,0,1:0:0:0:
256,272,132405,1,0,1:0:0:0:
256,272,132510,1,4,1:0:0:0:
141,143,132722,1,2,0:0:0:0:
27,297,132933,1,8,0:0:0:0:
121,234,133144,1,0,0:0:0:0:
197,61,133356,5,0,1:0:0:0:
61,115,133567,1,2,0:0:0:0:
215,179,133778,1,8,0:0:0:0:
113,35,133989,1,2,0:0:0:0:
39,209,134201,6,0,P|24:255|14:291,1,80,4|0,1:0|0:0,0:0:0:0:
79,361,134623,1,8,0:0:0:0:
166,229,134834,1,2,0:0:0:0:
166,229,134940,1,0,1:0:0:0:
166,229,135046,1,0,1:0:0:0:
15,285,135257,5,0,1:0:0:0:
180,339,135468,1,12,0:0:0:0:
51,183,135680,1,0,0:0:0:0:
256,288,135891,6,0,P|280:256|283:215,1,80,4|0,1:0|0:0,0:0:0:0:
182,18,136313,2,0,L|201:100,1,80,8|0,0:0|0:0,0:0:0:0:
200,95,136630,1,8,0:0:0:0:
200,95,136736,1,0,1:0:0:0:
398,152,136947,1,0,1:0:0:0:
325,58,137158,1,8,0:0:0:0:
170,271,137370,6,0,P|84:277|24:226,1,160,4|0,0:0|1:0,0:0:0:0:
28,35,138003,1,8,0:0:0:0:
123,201,138215,1,0,0:0:0:0:
123,201,138320,1,0,0:0:0:0:
123,201,138426,1,0,1:0:0:0:
8,138,138637,1,2,1:0:0:0:
189,70,138849,1,8,0:0:0:0:
16,249,139060,6,0,B|-14:307|39:348|39:348|74:335|107:320,1,160,4|0,0:0|1:0,0:0:0:0:
255,210,139694,2,0,P|216:217|176:234,1,80,8|0,0:0|0:0,0:0:0:0:
179,233,140010,1,8,0:0:0:0:
179,233,140116,1,0,1:0:0:0:
256,352,140327,1,0,1:0:0:0:
378,145,140539,1,8,0:0:0:0:
247,107,140750,6,0,B|220:150|220:150|254:260,1,160,4|0,1:0|1:0,0:0:0:0:
470,356,141384,2,0,L|441:279,1,80,4|0,0:0|0:0,0:0:0:0:
441,281,141701,1,8,0:0:0:0:
441,281,141806,1,0,1:0:0:0:
404,180,142018,1,0,1:0:0:0:
251,255,142229,1,8,0:0:0:0:
226,239,142334,1,8,0:0:0:0:
211,213,142440,1,8,0:0:0:0:
208,184,142545,1,8,0:0:0:0:
219,156,142651,6,0,P|215:118|191:86,1,75.9999979705811,4|0,1:0|0:0,0:0:0:0:
111,174,143074,1,8,0:0:0:0:
226,239,143285,2,0,P|297:268|374:261,1,151.999995941162,2|2,1:0|1:0,0:0:0:0:
501,144,143919,1,8,0:0:0:0:
439,217,144130,2,0,P|363:211|294:240,1,151.999995941162,2|0,1:0|1:0,0:0:0:0:
166,301,144764,2,0,P|130:287|93:279,1,75.9999979705811,8|0,0:0|0:0,0:0:0:0:
146,188,145187,2,0,P|160:153|153:108,1,75.9999979705811,0|0,1:0|1:0,0:0:0:0:
292,37,145609,2,0,P|265:83|266:149,1,113.999996955872,8|0,0:0|0:0,0:0:0:0:
264,142,146032,6,0,L|355:165,1,75.9999979705811,2|0,1:0|0:0,0:0:0:0:
425,187,146454,1,8,0:0:0:0:
273,232,146665,2,0,L|125:194,1,151.999995941162,2|2,1:0|1:0,0:0:0:0:
92,108,147299,1,8,0:0:0:0:
200,47,147510,2,0,L|227:126,1,75.9999979705811,2|0,1:0|0:0,0:0:0:0:
273,232,147933,5,0,1:0:0:0:
351,342,148144,2,8,P|371:308|372:267,1,75.9999979705811,8|0,0:0|0:0,0:0:0:0:
241,209,148567,1,0,1:0:0:0:
266,307,148778,1,0,1:0:0:0:
379,167,148989,1,8,0:0:0:0:
256,112,149201,5,0,0:0:0:0:
256,112,149306,1,0,0:0:0:0:
256,112,149412,2,0,P|225:86|217:48,1,75.9999979705811,2|0,1:0|0:0,0:0:0:0:
298,16,149834,1,8,0:0:0:0:
217,184,150046,2,0,P|284:189|344:126,1,151.999995941162,2|0,1:0|1:0,0:0:0:0:
256,112,150680,1,8,0:0:0:0:
156,245,150891,6,0,P|89:250|38:190,1,151.999995941162,2|0,1:0|1:0,0:0:0:0:
0,122,151525,2,0,L|27:271,1,151.999995941162,8|2,0:0|1:0,0:0:0:0:
99,357,152158,1,0,1:0:0:0:
211,258,152370,2,0,P|174:269|138:280,1,75.9999979705811,8|0,0:0|0:0,0:0:0:0:
333,377,152792,6,0,P|370:374|402:354,1,75.9999979705811,4|0,0:0|0:0,0:0:0:0:
436,277,153215,1,8,0:0:0:0:
256,192,153426,2,0,B|205:186|161:215|161:215|125:193|101:202,1,151.999995941162,2|0,0:0|0:0,0:0:0:0:
62,71,154060,2,0,L|141:90,1,75.9999979705811,8|0,0:0|0:0,0:0:0:0:
328,177,154482,6,0,P|293:192|254:191,1,75.9999979705811,4|0,0:0|1:0,0:0:0:0:
176,15,154905,2,0,P|202:44|242:56,1,75.9999979705811,4|0,0:0|1:0,0:0:0:0:
442,135,155327,1,8,0:0:0:0:
378,301,155539,1,8,0:0:0:0:
341,292,155644,1,8,0:0:0:0:
304,301,155750,1,8,0:0:0:0:
269,316,155855,1,8,0:0:0:0:
231,319,155961,1,8,0:0:0:0:
196,306,156067,1,8,0:0:0:0:
161,293,156172,6,0,P|135:264|130:228,1,75.9999979705811,4|0,1:0|1:0,0:0:0:0:
183,40,156595,1,8,0:0:0:0:
165,148,156806,1,0,0:0:0:0:
165,148,156912,1,8,0:0:0:0:
165,148,157018,2,0,P|204:143|235:118,1,75.9999979705811,0|4,1:0|0:0,0:0:0:0:
305,30,157440,1,8,0:0:0:0:
60,79,157651,6,0,B|44:131|75:184|75:184|68:206|69:235,1,151.999995941162,4|0,1:0|1:0,0:0:0:0:
0,356,158285,2,0,P|30:333|67:329,1,75.9999979705811,12|8,0:0|0:0,0:0:0:0:
67,329,158602,1,8,0:0:0:0:
67,329,158708,1,0,1:0:0:0:
194,170,158919,1,0,1:0:0:0:
262,314,159130,1,8,0:0:0:0:
229,315,159235,1,8,0:0:0:0:
198,302,159341,1,8,0:0:0:0:
177,279,159446,1,8,0:0:0:0:
167,248,159553,6,0,P|189:167|221:69,2,160,4|8|0,1:0|0:0|1:0,0:0:0:0:
53,199,160609,2,0,P|44:161|40:111,1,80,2|8,0:0|0:0,0:0:0:0:
122,63,161032,1,2,0:0:0:0:
166,248,161243,5,0,1:0:0:0:
143,154,161454,1,0,0:0:0:0:
285,265,161665,2,0,P|285:309|277:357,1,80,10|0,0:0|0:0,0:0:0:0:
374,185,162088,2,0,P|374:141|382:93,1,80,0|0,1:0|0:0,0:0:0:0:
463,216,162510,1,8,0:0:0:0:
240,267,162722,5,2,0:0:0:0:
240,267,162827,1,0,0:0:0:0:
240,267,162933,2,0,P|200:268|167:248,1,80,0|2,1:0|0:0,0:0:0:0:
97,42,163356,1,8,0:0:0:0:
201,174,163567,1,2,0:0:0:0:
42,242,163778,5,0,1:0:0:0:
189,77,163989,1,2,0:0:0:0:
25,120,164201,1,8,0:0:0:0:
183,274,164412,5,2,0:0:0:0:
183,274,164518,1,0,0:0:0:0:
183,274,164623,2,0,L|263:255,1,80,0|2,1:0|0:0,0:0:0:0:
411,285,165046,1,8,0:0:0:0:
378,144,165257,2,0,P|351:180|349:225,1,80,2|0,0:0|1:0,0:0:0:0:
470,358,165680,1,2,0:0:0:0:
324,315,165891,1,8,0:0:0:0:
441,249,166102,5,0,1:0:0:0:
441,249,166208,1,0,1:0:0:0:
441,249,166313,2,0,P|465:218|472:179,1,80,4|0,0:0|0:0,0:0:0:0:
374,56,166736,2,0,L|296:78,1,80,8|0,0:0|0:0,0:0:0:0:
297,77,167053,1,8,0:0:0:0:
297,77,167158,1,8,0:0:0:0:
217,178,167370,1,2,1:0:0:0:
351,239,167581,1,8,0:0:0:0:
186,71,167792,6,0,P|128:128|121:208,1,160,4|0,0:0|1:0,0:0:0:0:
256,320,168426,1,10,0:0:0:0:
217,178,168637,1,0,0:0:0:0:
217,178,168743,1,0,1:0:0:0:
217,178,168849,1,2,1:0:0:0:
116,277,169060,1,0,1:0:0:0:
288,335,169271,1,8,0:0:0:0:
188,163,169482,6,0,P|167:124|170:82,1,80,4|0,0:0|0:0,0:0:0:0:
256,16,169905,1,2,1:0:0:0:
274,22,170010,1,0,0:0:0:0:
293,26,170116,2,0,L|342:11,3,40,8|0|0|0,0:0|0:0|1:0|0:0,0:0:0:0:
399,65,170539,2,0,L|437:53,3,40,2|0|0|0,1:0|0:0|0:0|0:0,0:0:0:0:
504,104,170961,1,8,0:0:0:0:
366,196,171172,6,0,B|305:208|252:174|252:174|264:195|266:217,1,160,4|0,1:0|1:0,0:0:0:0:
86,287,171806,2,0,P|86:327|107:360,1,80,12|0,0:0|0:0,0:0:0:0:
126,366,172123,1,8,0:0:0:0:
144,372,172229,1,0,1:0:0:0:
256,304,172440,1,0,1:0:0:0:
95,189,172651,1,8,0:0:0:0:
66,196,172756,1,8,0:0:0:0:
40,212,172862,1,8,0:0:0:0:
20,234,172967,1,8,0:0:0:0:
6,260,173074,6,0,B|104:273|104:273|126:311,1,136.000002593994,4|8,1:2|0:0,0:0:0:0:
306,337,173708,2,0,P|251:298|235:234,1,136.000002593994,0|0,1:0|1:0,0:0:0:0:
267,69,174341,2,0,P|287:95|291:128,1,68.0000012969971,8|0,0:0|0:0,0:0:0:0:
389,146,174764,6,0,P|444:110|512:112,1,136.000002593994,0|8,1:0|0:0,0:0:0:0:
329,215,175398,2,0,P|286:186|286:97,1,136.000002593994,0|0,1:0|1:0,0:0:0:0:
329,215,176032,2,0,P|312:269|305:294,1,68.0000012969971,8|0,0:0|0:0,0:0:0:0:
234,378,176454,6,0,P|220:312|204:246,1,136.000002593994,0|8,1:0|0:0,0:0:0:0:
87,314,177088,2,0,B|65:280|65:280|99:180,1,136.000002593994,0|0,1:0|1:0,0:0:0:0:
178,90,177722,1,8,0:0:0:0:
190,168,177933,1,0,0:0:0:0:
205,246,178144,6,0,P|242:263|284:257,1,68.0000012969971,0|0,1:0|0:0,0:0:0:0:
354,207,178567,1,8,0:0:0:0:
437,311,178778,2,0,P|379:346|312:351,1,136.000002593994,0|0,1:0|1:0,0:0:0:0:
205,246,179412,1,8,0:0:0:0:
194,259,179518,1,0,1:0:0:0:
182,272,179623,1,0,1:0:0:0:
354,207,179834,5,4,0:0:0:0:
147,153,180046,1,0,1:0:0:0:
256,304,180257,1,8,0:0:0:0:
303,116,180468,2,0,P|369:69|449:69,1,160,4|0,0:0|1:0,0:0:0:0:
354,207,181102,2,0,P|340:247|327:284,1,80,8|0,0:0|0:0,0:0:0:0:
215,52,181525,5,4,0:0:0:0:
354,207,181736,1,0,1:0:0:0:
188,336,181947,1,8,0:0:0:0:
354,207,182158,2,0,B|392:190|392:190|418:198|418:198|456:168|531:178,1,160,4|0,0:0|1:0,0:0:0:0:
315,117,182792,1,8,0:0:0:0:
369,301,183003,1,0,1:0:0:0:
195,264,183215,6,0,L|103:243,1,80,4|0,0:0|1:0,0:0:0:0:
320,128,183637,2,0,L|397:107,1,80,8|0,0:0|1:0,0:0:0:0:
136,38,184060,2,0,L|59:56,1,80,0|0,1:0|1:0,0:0:0:0:
397,225,184482,2,0,L|475:204,1,80,8|0,0:0|1:0,0:0:0:0:
305,15,184905,6,0,B|296:73|296:73|272:91|272:91|257:181,1,160,4|8,0:0|0:0,0:0:0:0:
330,293,185539,1,0,0:0:0:0:
132,198,185750,2,0,L|152:109,1,80,8|0,1:0|0:0,0:0:0:0:
396,23,186172,2,0,L|378:101,1,80,8|0,1:0|0:0,0:0:0:0:
256,256,186595,2,0,B|189:237|156:298|156:298|183:282|208:282,1,160,8|0,1:0|1:0,0:0:0:0:
379,366,187229,5,2,0:0:0:0:
256,256,187440,1,0,1:0:0:0:
289,337,187651,5,0,1:0:0:0:
313,138,187863,1,0,1:0:0:0:
388,203,188074,1,0,1:0:0:0:
179,351,188285,5,4,0:0:0:0:
170,305,189553,1,0,1:0:0:0:
254,342,189975,5,4,0:0:0:0:
337,83,191665,5,4,0:0:0:0:
337,83,192933,1,0,1:0:0:0:
187,146,193356,5,4,0:0:0:0:
187,146,193778,1,0,1:0:0:0:
301,182,193989,1,8,0:0:0:0:
164,44,194201,1,8,0:0:0:0:
107,229,194412,1,0,1:0:0:0:
107,229,194518,1,0,1:0:0:0:
107,229,194623,1,8,0:0:0:0:
340,267,194834,5,0,1:0:0:0:
370,275,194940,1,0,1:0:0:0:
400,284,195046,2,0,P|436:273|485:260,1,80,4|0,1:0|0:0,0:0:0:0:
311,118,195468,2,0,P|272:128|234:140,1,80,8|2,0:0|0:0,0:0:0:0:
385,185,195891,1,0,1:0:0:0:
217,229,196102,1,2,0:0:0:0:
262,39,196313,1,8,0:0:0:0:
84,88,196525,5,0,1:0:0:0:
84,88,196630,1,0,1:0:0:0:
84,88,196736,2,0,P|94:128|104:167,1,80,4|0,1:0|0:0,0:0:0:0:
285,279,197158,1,8,0:0:0:0:
184,208,197370,1,2,0:0:0:0:
215,341,197581,1,0,1:0:0:0:
268,162,197792,1,2,0:0:0:0:
101,263,198003,1,8,0:0:0:0:
323,362,198215,5,0,1:0:0:0:
323,362,198320,1,0,1:0:0:0:
323,362,198426,2,0,B|369:345|409:355|409:355|440:332|481:332,2,160,4|8|0,1:0|0:0|1:0,0:0:0:0:
256,192,199694,1,8,0:0:0:0:
347,169,199905,1,0,1:0:0:0:
182,78,200116,5,4,0:0:0:0:
366,287,200327,1,0,1:0:0:0:
120,203,200539,5,4,0:0:0:0:
331,60,200750,1,0,1:0:0:0:
173,319,200961,5,4,0:0:0:0:
314,176,201172,1,2,0:0:0:0:
347,169,201277,1,8,0:0:0:0:
379,177,201383,1,8,0:0:0:0:
407,195,201488,1,8,0:0:0:0:
437,209,201594,1,8,0:0:0:0:
470,211,201700,1,8,0:0:0:0:
502,202,201806,6,0,P|520:165|517:124,1,80,4|0,1:0|0:0,0:0:0:0:
363,268,202229,2,0,L|383:356,1,80,8|2,0:0|0:0,0:0:0:0:
418,55,202651,1,0,1:0:0:0:
436,148,202863,1,2,0:0:0:0:
346,118,203074,1,8,0:0:0:0:
465,262,203285,5,2,0:0:0:0:
470,289,203391,1,0,0:0:0:0:
476,316,203496,1,0,1:0:0:0:
328,205,203708,1,2,0:0:0:0:
397,340,203919,1,8,0:0:0:0:
256,272,204130,2,0,P|190:242|102:253,1,160,2|2,0:0|0:0,0:0:0:0:
59,165,204764,1,8,0:0:0:0:
210,55,204975,5,0,1:0:0:0:
210,55,205081,1,0,1:0:0:0:
210,55,205187,2,0,P|195:101|185:134,1,80,4|2,1:0|0:0,0:0:0:0:
206,319,205609,2,0,B|127:301|127:352|47:328,1,160,8|0,0:0|1:0,0:0:0:0:
173,212,206243,1,2,0:0:0:0:
268,360,206454,2,0,P|229:348|202:308,1,80,8|0,0:0|0:0,0:0:0:0:
221,120,206877,5,4,1:0:0:0:
274,252,207088,1,2,0:0:0:0:
113,204,207299,1,8,0:0:0:0:
315,142,207510,1,0,0:0:0:0:
315,142,207616,1,8,0:0:0:0:
315,142,207722,1,0,1:0:0:0:
176,274,207933,5,0,1:0:0:0:
208,91,208144,1,12,0:0:0:0:
353,216,208356,1,2,0:0:0:0:
76,130,208567,5,4,1:0:0:0:
176,46,208778,1,0,0:0:0:0:
231,204,208989,1,8,0:0:0:0:
74,261,209201,5,0,0:0:0:0:
68,280,209306,1,8,0:0:0:0:
63,299,209412,1,0,1:0:0:0:
256,112,209623,1,0,1:0:0:0:
179,281,209834,1,8,0:0:0:0:
360,143,210046,6,0,P|431:103|529:112,1,160,4|0,0:0|1:0,0:0:0:0:
295,32,210680,1,8,0:0:0:0:
256,192,210891,1,0,0:0:0:0:
256,192,210996,1,8,0:0:0:0:
256,192,211102,1,0,1:0:0:0:
398,50,211313,1,2,1:0:0:0:
492,144,211525,1,8,0:0:0:0:
305,274,211736,6,0,P|206:258|160:198,1,160,4|0,0:0|1:0,0:0:0:0:
192,37,212370,2,0,P|212:72|210:115,1,80,8|0,0:0|0:0,0:0:0:0:
211,110,212687,1,8,0:0:0:0:
211,110,212792,1,0,1:0:0:0:
324,347,213003,2,0,P|304:312|306:269,1,80,0|8,1:0|0:0,0:0:0:0:
411,46,213426,6,0,B|389:91|410:144|410:144|381:173|334:157,1,160,4|0,1:0|1:0,0:0:0:0:
161,59,214060,2,0,P|199:69|240:72,1,80,4|0,0:0|0:0,0:0:0:0:
239,72,214377,1,8,0:0:0:0:
239,72,214482,1,0,1:0:0:0:
272,203,214694,1,0,1:0:0:0:
97,288,214905,2,0,L|82:245,1,40,8|8,0:0|0:0,0:0:0:0:
24,191,215116,2,8,L|39:148,1,40
72,77,215327,5,4,1:0:0:0:
178,121,215539,1,0,1:0:0:0:
264,15,215750,1,8,0:0:0:0:
170,147,215961,1,0,0:0:0:0:
163,170,216067,1,8,0:0:0:0:
156,192,216172,1,0,1:0:0:0:
362,232,216384,5,0,1:0:0:0:
256,272,216595,1,8,0:0:0:0:
83,79,216806,1,4,0:0:0:0:
83,79,218708,5,4,0:0:0:0:
340,176,218919,1,0,1:0:0:0:
373,103,219130,1,0,1:0:0:0:
145,23,219341,5,4,0:0:0:0:
286,250,219553,1,0,1:0:0:0:
363,269,219764,1,0,1:0:0:0:
41,159,219975,5,4,0:0:0:0:
297,75,220187,1,0,1:0:0:0:
248,11,220398,1,0,1:0:0:0:
100,294,220609,5,12,0:0:0:0:
308,155,220820,1,8,0:0:0:0:
177,65,221032,1,0,1:0:0:0:
28,266,221243,6,0,P|60:289|100:294,1,80,4|0,0:0|1:0,0:0:0:0:
335,90,221665,2,0,P|321:44|295:23,1,80,4|0,0:0|0:0,0:0:0:0:
55,205,222088,6,0,P|4:264|12:342,1,160,6|8,1:0|0:0,0:0:0:0:
171,364,222722,2,0,P|212:354|252:345,1,80,2|0,0:0|1:0,0:0:0:0:
350,370,223144,1,0,0:0:0:0:
445,291,223356,2,0,P|445:250|423:219,1,80,8|0,0:0|0:0,0:0:0:0:
347,127,223778,6,0,L|267:148,1,80,2|0,1:0|0:0,0:0:0:0:
187,115,224201,1,8,0:0:0:0:
295,41,224412,2,0,L|372:20,1,80,2|0,0:0|1:0,0:0:0:0:
455,49,224834,1,2,0:0:0:0:
347,127,225046,2,0,P|326:167|326:201,1,80,8|0,0:0|0:0,0:0:0:0:
346,238,225363,5,0,0:0:0:0:
346,238,225468,2,0,L|268:258,1,80,2|0,1:0|0:0,0:0:0:0:
117,216,225891,1,8,0:0:0:0:
74,292,226102,2,0,P|76:338|96:366,1,80,2|0,0:0|1:0,0:0:0:0:
217,377,226525,1,0,0:0:0:0:
268,258,226736,2,0,P|265:211|245:183,1,80,8|0,0:0|0:0,0:0:0:0:
222,158,227053,5,0,0:0:0:0:
222,158,227158,2,0,L|203:71,1,80,2|0,1:0|0:0,0:0:0:0:
383,20,227581,1,8,0:0:0:0:
383,20,227792,2,0,L|365:98,1,80,2|0,0:0|1:0,0:0:0:0:
315,253,228215,1,4,0:0:0:0:
210,142,228426,1,0,1:0:0:0:
383,20,228637,1,4,0:0:0:0:
493,157,228849,6,0,B|437:170|437:170|397:154|397:154|328:172,1,160,6|8,1:0|0:0,0:0:0:0:
256,304,229482,2,0,P|235:268|240:213,1,80,2|0,0:0|1:0,0:0:0:0:
310,96,229905,1,0,0:0:0:0:
310,96,230116,2,0,P|332:133|337:176,1,80,8|0,0:0|0:0,0:0:0:0:
256,304,230539,6,0,P|176:315|110:259,1,160,2|8,1:0|0:0,0:0:0:0:
230,130,231172,2,0,L|211:211,1,80,2|0,0:0|1:0,0:0:0:0:
360,92,231595,1,0,0:0:0:0:
360,92,231806,2,0,L|342:14,1,80,8|0,0:0|0:0,0:0:0:0:
207,260,232229,5,4,0:0:0:0:
406,296,232440,1,0,1:0:0:0:
378,203,232651,1,8,0:0:0:0:
198,357,232863,1,8,1:0:0:0:
454,235,233074,5,4,0:0:0:0:
304,273,233285,1,0,1:0:0:0:
445,129,233496,1,8,0:0:0:0:
512,327,233708,1,0,1:0:0:0:
314,114,233919,5,4,0:0:0:0:
140,254,234130,1,8,0:3:0:0:
113,264,234236,1,8,0:3:0:0:
100,288,234341,1,8,0:0:0:0:
370,329,234553,1,8,0:3:0:0:
394,315,234658,1,8,0:3:0:0:
403,288,234764,1,4,0:3:0:0:
198,165,234975,5,0,1:0:0:0:
244,337,235187,1,4,0:0:0:0:
359,210,235398,1,2,0:0:0:0:
165,23,235609,1,4,1:0:0:0:
256,192,235715,12,0,238989,0:0:0:0:
