osu file format v14

[General]
AudioFilename: audio.mp3
AudioLeadIn: 0
PreviewTime: -1
Countdown: 1
SampleSet: None
StackLeniency: 0.7
Mode: 0
LetterboxInBreaks: 0
WidescreenStoryboard: 0

[Editor]
DistanceSpacing: 3.4
BeatDivisor: 2
GridSize: 16
TimelineZoom: 1.8

[Metadata]
Title:Harumachi Clover (2x Speed)
TitleUnicode:Harumachi Clover (2x Speed)
Artist:Hanasaka Yui (CV: M.A.O)
ArtistUnicode:Hanasaka Yui (CV: M.A.O)
Creator:MemeMeme_YT
Version:Extra
Source:OneRoom
Tags:pp farm map
BeatmapID:1795917
BeatmapSetID:859435

[Difficulty]
HPDrainRate:10
CircleSize:4
OverallDifficulty:0
ApproachRate:10
SliderMultiplier:1.4
SliderTickRate:1

[Events]
//Background and Video events
0,0,"snsbu-one-room-05-bdrip-1920x1080-x264-flac-mkv_snapshot_01-24_2017-08-24_00-12-15.jpg",0,0
//Break Periods
//Storyboard Layer 0 (Background)
//Storyboard Layer 1 (Fail)
//Storyboard Layer 2 (Pass)
//Storyboard Layer 3 (Foreground)
//Storyboard Sound Samples

[TimingPoints]
670.5,211.267605633803,4,2,1,100,1,0

[HitObjects]
180,76,670,5,0,0:0:0:0:
365,226,776,1,0,0:0:0:0:
146,316,881,5,0,0:0:0:0:
313,146,987,1,0,0:0:0:0:
81,88,1093,5,0,0:0:0:0:
241,261,1198,1,0,0:0:0:0:
325,37,1304,1,0,0:0:0:0:
160,207,1409,1,0,0:0:0:0:
390,143,1515,5,0,0:0:0:0:
287,358,1621,1,0,0:0:0:0:
224,129,1726,1,0,0:0:0:0:
79,318,1832,2,0,L|79:208,1,70
252,84,2043,2,0,L|257:189,1,70
495,169,2255,5,0,0:0:0:0:
306,312,2360,1,0,0:0:0:0:
317,73,2466,5,0,0:0:0:0:
403,293,2571,1,0,0:0:0:0:
398,54,2677,5,0,0:0:0:0:
263,251,2783,1,0,0:0:0:0:
253,14,2888,5,0,0:0:0:0:
377,217,2994,1,0,0:0:0:0:
138,225,3100,5,0,0:0:0:0:
262,23,3205,1,0,0:0:0:0:
291,259,3311,1,0,0:0:0:0:
126,89,3416,2,0,L|103:191,1,70
291,259,3628,2,0,L|305:180,1,70
262,23,3839,5,0,0:0:0:0:
174,245,3945,1,0,0:0:0:0:
409,268,4050,1,0,0:0:0:0:
228,111,4156,1,0,0:0:0:0:
316,332,4262,5,0,0:0:0:0:
376,103,4367,1,0,0:0:0:0:
190,253,4473,1,0,0:0:0:0:
94,36,4578,1,0,0:0:0:0:
90,274,4684,1,0,0:0:0:0:
273,121,4790,2,0,L|285:202,1,70
99,343,5001,5,0,0:0:0:0:
187,121,5107,1,0,0:0:0:0:
366,274,5212,1,0,0:0:0:0:
135,210,5318,1,0,0:0:0:0:
370,172,5424,1,0,0:0:0:0:
168,295,5529,2,0,L|203:207,1,70
344,44,5740,5,0,0:0:0:0:
321,281,5846,1,0,0:0:0:0:
153,110,5952,1,0,0:0:0:0:
384,160,6057,1,0,0:0:0:0:
155,230,6163,2,0,L|226:159,1,70
432,108,6374,2,0,L|371:188,1,70
201,16,6585,6,0,L|186:58,2,35
239,254,6797,2,0,L|256:202,2,35
67,87,7008,6,0,L|85:131,2,35
295,157,7219,2,0,L|276:107,2,35
92,288,7431,5,0,0:0:0:0:
175,66,7536,1,0,0:0:0:0:
324,251,7642,1,0,0:0:0:0:
108,153,7747,5,0,0:0:0:0:
342,106,7853,1,0,0:0:0:0:
243,323,7959,1,0,0:0:0:0:
214,88,8064,1,0,0:0:0:0:
447,35,8170,5,0,0:0:0:0:
293,218,8276,1,0,0:0:0:0:
108,153,8381,1,0,0:0:0:0:
317,37,8487,5,0,0:0:0:0:
215,253,8593,1,0,0:0:0:0:
133,30,8698,5,0,0:0:0:0:
346,137,8804,1,0,0:0:0:0:
278,363,8909,5,0,0:0:0:0:
242,126,9015,1,0,0:0:0:0:
20,214,9121,5,0,0:0:0:0:
252,255,9226,1,0,0:0:0:0:
92,77,9332,5,0,0:0:0:0:
324,118,9437,1,0,0:0:0:0:
170,300,9543,5,0,0:0:0:0:
402,341,9648,1,0,0:0:0:0:
250,153,9755,5,0,0:0:0:0:
482,194,9860,1,0,0:0:0:0:
293,47,9966,6,0,L|258:142,1,70
128,305,10177,2,0,L|155:217,1,70
331,84,10388,2,0,L|301:168,1,70
159,340,10600,2,0,L|191:259,1,70
128,42,10811,5,0,0:0:0:0:
320,179,10916,1,0,0:0:0:0:
147,344,11022,1,0,0:0:0:0:
220,116,11128,1,0,0:0:0:0:
341,319,11233,1,0,0:0:0:0:
130,206,11339,1,0,0:0:0:0:
335,84,11445,2,0,L|351:163,1,70
128,42,11656,5,0,0:0:0:0:
199,269,11762,1,0,0:0:0:0:
293,52,11867,1,0,0:0:0:0:
102,195,11973,1,0,0:0:0:0:
334,240,12078,1,0,0:0:0:0:
213,33,12184,1,0,0:0:0:0:
136,259,12290,2,0,L|175:170,1,70
392,125,12501,6,0,L|269:147,1,70
111,26,12712,2,0,L|136:116,1,70
195,325,12924,2,0,L|202:233,1,70
301,38,13135,2,0,L|204:103,1,70
99,267,13346,5,0,0:0:0:0:
218,60,13452,1,0,0:0:0:0:
291,284,13557,1,0,0:0:0:0:
134,103,13663,1,0,0:0:0:0:
370,134,13769,1,0,0:0:0:0:
206,304,13874,1,0,0:0:0:0:
254,70,13980,1,0,0:0:0:0:
364,279,14085,1,0,0:0:0:0:
256,192,14191,12,0,15036,0:0:0:0:
