osu file format v14

[General]
AudioFilename: audio.mp3
AudioLeadIn: 0
PreviewTime: 17051
Countdown: 0
SampleSet: Normal
StackLeniency: 0.7
Mode: 1
LetterboxInBreaks: 0
WidescreenStoryboard: 0

[Editor]
Bookmarks: 3139,10095,17052,24008,30965
DistanceSpacing: 0.9
BeatDivisor: 4
GridSize: 8
TimelineZoom: 2.2

[Metadata]
Title:Aozora Morning Glory (TV Size)
TitleUnicode:青空モーニンググローリー (TV Size)
Artist:Hanasaka Yui (CV: M.A.O)
ArtistUnicode:花坂結衣 (CV:M・A・O)
Creator:yuki_momoiro722
Version:Oni
Source:OneRoom セカンドシーズン
Tags:taiko second season ワンルーム
BeatmapID:1695808
BeatmapSetID:808072

[Difficulty]
HPDrainRate:6
CircleSize:5
OverallDifficulty:5
ApproachRate:5
SliderMultiplier:1.4
SliderTickRate:1

[Events]
//Background and Video events
0,0,"bg.jpg",0,0
//Break Periods
//Storyboard Layer 0 (Background)
//Storyboard Layer 1 (Fail)
//Storyboard Layer 2 (Pass)
//Storyboard Layer 3 (Foreground)
//Storyboard Sound Samples

[TimingPoints]
3138,434.782608695652,4,1,0,60,1,0
3138,-100,4,1,0,60,0,0
10094,-100,4,1,0,70,0,0
13572,-100,4,1,0,80,0,0
17051,-100,4,1,0,90,0,1
30964,-100,4,1,0,90,0,0
31398,-100,4,1,0,80,0,0
31833,-100,4,1,0,40,0,0
32268,-100,4,1,0,20,0,0

[HitObjects]
256,192,1398,12,0,2920,0:0:0:0:
256,192,3138,5,8,0:0:0:0:
256,192,3572,1,8,0:0:0:0:
256,192,3790,1,0,0:0:0:0:
256,192,4224,1,8,0:0:0:0:
256,192,4659,1,0,0:0:0:0:
256,192,4876,1,8,0:0:0:0:
256,192,5094,1,8,0:0:0:0:
256,192,5529,1,0,0:0:0:0:
256,192,5963,1,8,0:0:0:0:
256,192,6398,1,8,0:0:0:0:
256,192,6616,1,0,0:0:0:0:
256,192,6833,1,8,0:0:0:0:
256,192,7050,1,8,0:0:0:0:
256,192,7268,1,0,0:0:0:0:
256,192,7485,1,0,0:0:0:0:
256,192,7703,1,8,0:0:0:0:
256,192,8137,1,0,0:0:0:0:
256,192,8246,1,0,0:0:0:0:
256,192,8355,1,8,0:0:0:0:
256,192,9224,1,0,0:0:0:0:
256,192,10094,1,4,0:0:0:0:
256,192,10529,1,8,0:0:0:0:
256,192,10746,1,8,0:0:0:0:
256,192,11181,1,0,0:0:0:0:
256,192,11398,1,8,0:0:0:0:
256,192,11616,1,8,0:0:0:0:
256,192,11833,1,4,0:0:0:0:
256,192,12050,1,0,0:0:0:0:
256,192,12268,1,8,0:0:0:0:
256,192,12485,1,8,0:0:0:0:
256,192,12920,1,0,0:0:0:0:
256,192,13137,1,8,0:0:0:0:
256,192,13355,1,0,0:0:0:0:
256,192,13572,1,4,0:0:0:0:
256,192,14007,1,0,0:0:0:0:
256,192,14224,1,0,0:0:0:0:
256,192,14442,1,0,0:0:0:0:
256,192,14659,1,0,0:0:0:0:
256,192,14876,1,0,0:0:0:0:
256,192,15094,1,0,0:0:0:0:
256,192,15311,1,8,0:0:0:0:
256,192,15529,1,0,0:0:0:0:
256,192,15746,1,8,0:0:0:0:
256,192,15963,1,8,0:0:0:0:
256,192,16181,1,8,0:0:0:0:
256,192,16398,1,0,0:0:0:0:
256,192,16616,1,8,0:0:0:0:
256,192,16724,1,8,0:0:0:0:
256,192,16833,1,0,0:0:0:0:
256,192,17050,1,4,0:0:0:0:
256,192,17485,1,8,0:0:0:0:
256,192,17703,1,0,0:0:0:0:
256,192,17811,1,0,0:0:0:0:
256,192,17920,1,0,0:0:0:0:
256,192,18137,1,0,0:0:0:0:
256,192,18355,1,8,0:0:0:0:
256,192,18572,1,8,0:0:0:0:
256,192,18789,1,0,0:0:0:0:
256,192,19007,1,0,0:0:0:0:
256,192,19116,1,0,0:0:0:0:
256,192,19224,1,8,0:0:0:0:
256,192,19442,1,0,0:0:0:0:
256,192,19876,1,8,0:0:0:0:
256,192,20094,1,0,0:0:0:0:
256,192,20311,1,8,0:0:0:0:
256,192,20420,1,8,0:0:0:0:
256,192,20529,1,0,0:0:0:0:
256,192,20746,1,0,0:0:0:0:
256,192,20963,1,8,0:0:0:0:
256,192,21181,1,0,0:0:0:0:
256,192,21289,1,0,0:0:0:0:
256,192,21398,1,8,0:0:0:0:
256,192,21616,1,8,0:0:0:0:
256,192,21833,1,0,0:0:0:0:
256,192,22050,1,8,0:0:0:0:
256,192,22268,1,8,0:0:0:0:
256,192,22703,1,8,0:0:0:0:
256,192,22920,1,0,0:0:0:0:
256,192,23137,1,0,0:0:0:0:
256,192,23246,1,8,0:0:0:0:
256,192,23355,1,0,0:0:0:0:
256,192,23463,1,0,0:0:0:0:
256,192,23572,1,8,0:0:0:0:
256,192,23789,1,0,0:0:0:0:
256,192,24007,1,4,0:0:0:0:
256,192,24442,1,8,0:0:0:0:
256,192,24659,1,0,0:0:0:0:
256,192,25094,1,0,0:0:0:0:
256,192,25311,1,8,0:0:0:0:
256,192,25529,1,8,0:0:0:0:
256,192,25637,1,8,0:0:0:0:
256,192,25746,1,0,0:0:0:0:
256,192,25963,1,0,0:0:0:0:
256,192,26181,1,8,0:0:0:0:
256,192,26398,1,0,0:0:0:0:
256,192,26833,1,0,0:0:0:0:
256,192,27050,1,8,0:0:0:0:
256,192,27268,1,0,0:0:0:0:
256,192,27485,1,12,0:0:0:0:
256,192,27920,1,8,0:0:0:0:
256,192,28137,1,0,0:0:0:0:
256,192,28246,1,8,0:0:0:0:
256,192,28355,1,0,0:0:0:0:
256,192,28572,1,0,0:0:0:0:
256,192,28789,1,8,0:0:0:0:
256,192,29224,1,8,0:0:0:0:
256,192,29659,1,8,0:0:0:0:
256,192,29876,1,0,0:0:0:0:
256,192,29985,1,0,0:0:0:0:
256,192,30094,1,8,0:0:0:0:
256,192,30311,1,8,0:0:0:0:
256,192,30420,1,0,0:0:0:0:
256,192,30529,1,8,0:0:0:0:
256,192,30637,1,8,0:0:0:0:
256,192,30746,1,0,0:0:0:0:
256,192,30963,1,4,0:0:0:0:
256,192,31181,12,0,32268,0:0:0:0:
