osu file format v14

[General]
AudioFilename: audio.mp3
AudioLeadIn: 0
PreviewTime: 1755
Countdown: 0
SampleSet: Soft
StackLeniency: 0.4
Mode: 0
LetterboxInBreaks: 0
WidescreenStoryboard: 1

[Editor]
Bookmarks: 35,8730,15687,29600,30904
DistanceSpacing: 1
BeatDivisor: 4
GridSize: 4
TimelineZoom: 3.099999

[Metadata]
Title:Aozora Morning Glory (TV Size)
TitleUnicode:青空モーニンググローリー (TV Size)
Artist:Hanasaka Yui (CV: M.A.O)
ArtistUnicode:花坂結衣(CV: M·A·O)
Creator:lit120
Version:Insane
Source:One Room セカンドシーズン
Tags:oneroom season two second 2 カントク kantoku mao ichimichi 市道 真央 -Hakurei- Lasse toybot Yuii-
BeatmapID:1695925
BeatmapSetID:808138

[Difficulty]
HPDrainRate:7
CircleSize:4.3
OverallDifficulty:8
ApproachRate:8.5
SliderMultiplier:1.9
SliderTickRate:1

[Events]
//Background and Video events
0,0,"bg.jpg",0,0
//Break Periods
//Storyboard Layer 0 (Background)
//Storyboard Layer 1 (Fail)
//Storyboard Layer 2 (Pass)
//Storyboard Layer 3 (Foreground)
//Storyboard Sound Samples

[TimingPoints]
61,434.782608695652,4,2,2,10,1,0
61,-200,4,2,1,30,0,0
1691,-133.333333333333,4,2,2,5,0,0
1800,-133.333333333333,4,2,2,50,0,0
8756,-100,4,2,1,60,0,0
15713,-90.9090909090909,4,2,1,75,0,1
29626,-133.333333333333,4,2,1,75,0,0
30930,-100,4,2,1,5,0,0

[Colours]
Combo1 : 199,238,108
Combo2 : 177,137,103
Combo3 : 103,160,125
Combo4 : 71,90,139

[HitObjects]
89,111,61,6,0,P|145:245|224:123,1,356.25,0|0,3:2|0:0,0:0:0:0:
152,163,1800,6,0,P|208:204|275:188,1,142.500005435944,6|2,0:0|0:0,0:0:0:0:
225,52,2452,2,0,L|225:124,1,71.2500027179719,2|0,0:0|0:0,0:0:0:0:
275,259,2887,2,0,L|276:188,1,71.2500027179719,2|2,0:0|0:0,0:0:0:0:
220,323,3321,6,0,P|251:340|286:344,1,71.2500027179719,2|2,0:0|0:0,0:0:0:0:
325,212,3756,2,0,P|295:230|275:259,1,71.2500027179719,0|2,0:0|0:0,0:0:0:0:
368,361,4191,2,0,P|367:325|353:293,1,71.2500027179719,2|0,0:0|0:0,0:0:0:0:
260,191,4626,2,0,P|260:226|274:258,1,71.2500027179719,2|0,0:0|0:0,0:0:0:0:
395,162,5060,6,0,P|394:127|380:95,1,71.2500027179719,2|2,0:0|0:0,0:0:0:0:
236,39,5495,1,2,0:0:0:0:
261,191,5713,1,2,0:0:0:0:
380,95,5930,1,2,0:0:0:0:
172,127,6147,1,2,0:0:0:0:
350,255,6365,2,0,P|385:254|417:240,1,71.2500027179719,2|0,0:0|0:0,0:0:0:0:
261,191,6800,1,2,0:0:0:0:
261,191,6908,1,2,0:0:0:0:
261,191,7017,6,0,P|242:259|266:325,1,142.500005435944,2|2,0:0|0:0,0:0:0:0:
350,255,7669,1,2,0:0:0:0:
207,260,7887,2,0,L|350:255,1,142.500005435944,2|2,0:0|0:0,0:0:0:0:
367,362,8539,1,2,0:0:0:0:
167,346,8756,6,0,P|114:271|147:186,1,190,6|2,3:2|0:0,0:0:0:0:
207,260,9408,2,0,P|117:277|55:210,1,190,2|2,0:0|0:0,0:0:0:0:
81,119,10060,1,2,0:0:0:0:
207,260,10278,1,2,0:0:0:0:
207,260,10387,1,2,0:0:0:0:
207,260,10495,5,6,3:2:0:0:
240,171,10713,1,2,0:0:0:0:
146,186,10930,1,2,0:0:0:0:
300,245,11147,2,0,P|327:206|334:159,1,95,2|0,0:0|0:0,0:0:0:0:
277,84,11582,1,2,0:0:0:0:
240,171,11800,1,2,0:0:0:0:
371,72,12017,1,2,0:0:0:0:
448,303,12234,5,6,3:2:0:0:
300,245,12452,1,0,0:0:0:0:
425,145,12669,5,8,0:0:0:0:
357,316,12887,1,8,0:0:0:0:
369,74,13104,5,10,0:0:0:0:
448,303,13321,1,8,0:0:0:0:
153,187,13539,5,10,0:0:0:0:
425,145,13756,1,8,0:0:0:0:
176,345,13974,5,10,0:0:0:0:
369,74,14191,1,8,0:0:0:0:
62,201,14408,5,8,0:0:0:0:
392,231,14626,1,8,0:0:0:0:
85,359,14843,5,14,0:0:0:0:
185,100,15060,1,8,0:0:0:0:
214,118,15169,1,8,0:0:0:0:
234,145,15278,1,8,0:0:0:0:
243,177,15387,1,8,0:0:0:0:
241,211,15495,1,8,0:3:0:0:
226,241,15604,1,4,0:3:0:0:
202,264,15713,6,0,P|261:183|360:193,1,209.000006378174,6|10,3:2|0:0,0:0:0:0:
304,380,16365,2,0,L|302:276,1,104.500003189087,2|0,0:0|3:2,0:0:0:0:
358,89,16800,2,0,L|361:194,1,104.500003189087,2|8,0:0|0:0,0:0:0:0:
152,97,17234,6,0,P|202:83|253:92,1,104.500003189087,2|2,0:0|3:2,0:0:0:0:
113,247,17669,2,0,P|63:261|12:251,1,104.500003189087,0|10,0:0|0:0,0:0:0:0:
55,47,18104,2,0,L|58:152,1,104.500003189087,2|0,0:0|3:2,0:0:0:0:
209,296,18539,2,0,L|207:192,1,104.500003189087,2|8,0:0|0:0,0:0:0:0:
357,37,18974,6,0,L|360:142,1,104.500003189087,2|2,0:0|3:2,0:0:0:0:
410,295,19408,1,2,0:0:0:0:
207,192,19626,1,10,0:0:0:0:
257,345,19843,1,2,0:0:0:0:
429,205,20060,1,2,3:2:0:0:
188,282,20278,2,0,P|167:330|172:381,1,104.500003189087,2|8,0:0|0:0,0:0:0:0:
309,244,20713,1,2,0:0:0:0:
34,244,20930,6,0,P|132:222|167:129,1,209.000006378174,2|8,3:2|0:0,0:0:0:0:
64,143,21582,1,2,0:0:0:0:
188,282,21800,1,2,3:2:0:0:
188,282,21908,1,10,0:0:0:0:
188,282,22017,1,2,0:0:0:0:
206,32,22234,1,10,0:0:0:0:
330,171,22452,1,2,0:0:0:0:
64,143,22669,6,0,P|162:128|229:202,1,209.000006378174,6|10,3:2|0:0,0:0:0:0:
170,351,23321,2,0,B|129:383|129:383|128:226,1,209.000006378174,2|0,0:0|0:0,0:0:0:0:
206,32,23974,1,10,0:0:0:0:
335,197,24191,6,0,P|323:247|286:292,1,104.500003189087,0|2,0:0|3:2,0:0:0:0:
128,226,24626,1,0,0:0:0:0:
318,77,24843,1,10,0:0:0:0:
401,165,25060,2,0,P|305:198|219:144,1,209.000006378174,2|0,0:0|0:0,0:0:0:0:
77,8,25713,2,0,L|78:113,1,104.500003189087,10|0,0:0|0:0,0:0:0:0:
128,330,26147,6,0,L|128:226,1,104.500003189087,6|0,3:2|0:0,0:0:0:0:
318,77,26582,2,0,L|318:181,1,104.500003189087,10|0,0:0|0:0,0:0:0:0:
77,113,27017,2,0,P|129:104|180:114,1,104.500003189087,2|0,3:2|0:0,0:0:0:0:
368,294,27452,2,0,P|317:303|266:293,1,104.500003189087,10|0,0:0|0:0,0:0:0:0:
179,9,27887,6,0,L|180:114,1,104.500003189087,2|0,3:2|0:0,0:0:0:0:
214,380,28321,1,14,0:0:0:0:
318,181,28539,1,8,0:0:0:0:
318,181,28647,1,8,0:0:0:0:
318,181,28756,1,10,0:0:0:0:
76,313,28974,1,10,0:0:0:0:
118,319,29082,1,8,0:0:0:0:
157,301,29191,1,8,0:3:0:0:
179,264,29300,1,8,0:3:0:0:
178,221,29408,1,4,0:3:0:0:
153,186,29517,1,4,0:3:0:0:
112,171,29626,6,0,P|318:181|270:39,1,427.500016307831,6|0,3:2|0:0,0:0:0:0:
