osu file format v14

[General]
AudioFilename: audio.mp3
AudioLeadIn: 0
PreviewTime: 13638
Countdown: 0
SampleSet: Soft
StackLeniency: 0.5
Mode: 0
LetterboxInBreaks: 0
WidescreenStoryboard: 1

[Editor]
Bookmarks: 30199,30634
DistanceSpacing: 1.2
BeatDivisor: 4
GridSize: 8
TimelineZoom: 1.2

[Metadata]
Title:Aozora Morning Glory (TV Size)
TitleUnicode:青空モーニンググローリー (TV Size)
Artist:Hanasaka Yui (CV: M.A.O)
ArtistUnicode:花坂 結衣(CV: M·A·O)
Creator:P4ndemonium
Version:sinn's Hard
Source:One Room セカンドシーズン
Tags:one room second 2nd season 2 two ending ed harumachi clover prinsep sinn dojikkoffee
BeatmapID:1696206
BeatmapSetID:807788

[Difficulty]
HPDrainRate:5
CircleSize:3.8
OverallDifficulty:8.2
ApproachRate:8
SliderMultiplier:1.7
SliderTickRate:1

[Events]
//Background and Video events
0,0,"yexdddd.jpg",0,0
//Break Periods
//Storyboard Layer 0 (Background)
//Storyboard Layer 1 (Fail)
//Storyboard Layer 2 (Pass)
//Storyboard Layer 3 (Foreground)
//Storyboard Sound Samples

[TimingPoints]
200,434.782608695652,4,2,0,60,1,0

[HitObjects]
74,154,200,6,0,P|91:97|189:68,1,170,0|0,0:0|0:0,0:0:0:0:
241,156,852,2,0,P|200:163|157:147,1,85,0|0,0:0|0:0,0:0:0:0:
293,87,1286,2,0,P|319:119|325:170,1,85,0|0,0:0|0:0,0:0:0:0:
235,240,1721,6,0,L|241:145,1,85,0|0,0:0|0:0,0:0:0:0:
138,270,2156,2,0,L|144:175,1,85,0|0,0:0|0:0,0:0:0:0:
43,301,2591,2,0,L|49:206,1,85,0|0,0:0|0:0,0:0:0:0:
118,354,3026,2,0,P|164:353|197:333,1,85,0|0,0:0|0:0,0:0:0:0:
235,240,3460,1,0,0:0:0:0:
296,362,3678,6,0,L|381:355,1,85,0|0,0:0|0:0,0:0:0:0:
455,313,4113,1,0,0:0:0:0:
380,271,4330,1,0,0:0:0:0:
452,226,4547,1,0,0:0:0:0:
307,222,4765,2,0,P|295:252|300:307,1,85,0|0,0:0|0:0,0:0:0:0:
452,226,5199,6,0,P|496:185|414:224,1,340,0|0,0:0|0:0,0:0:0:0:
450,28,6286,2,0,P|366:44|297:187,1,255,0|0,0:0|0:0,0:0:0:0:
380,355,7156,5,4,0:0:0:0:
380,355,8895,1,4,0:0:0:0:
380,355,9982,2,0,L|468:349,2,85,0|0|0,0:0|0:0|0:0,0:0:0:0:
317,296,10634,6,0,P|295:339|297:379,1,85,4|0,0:0|0:0,0:0:0:0:
189,221,11069,2,0,P|211:264|209:304,1,85,0|0,0:0|0:0,0:0:0:0:
357,205,11504,2,0,P|335:248|337:288,1,85,0|0,0:0|0:0,0:0:0:0:
149,130,11939,2,0,P|171:173|169:213,1,85,0|8,0:0|0:0,0:0:0:0:
95,303,12373,5,0,0:0:0:0:
170,208,12591,1,8,0:0:0:0:
191,349,12808,1,0,0:0:0:0:
79,214,13026,5,8,0:0:0:0:
255,285,13243,1,0,0:0:0:0:
101,331,13460,1,8,0:0:0:0:
169,207,13678,6,0,L|212:203,1,42.5,8|8,0:0|0:0,0:0:0:0:
290,252,13895,1,8,0:0:0:0:
290,252,14113,6,0,P|333:250|371:217,1,85,4|0,0:0|0:0,0:0:0:0:
406,151,14547,1,8,0:0:0:0:
300,83,14765,2,0,L|304:180,1,85,0|0,0:0|0:0,0:0:0:0:
487,119,15199,2,0,P|461:84|403:66,1,85,0|8,0:0|0:0,0:0:0:0:
303,167,15634,6,0,L|206:171,1,85,0|0,0:0|0:0,0:0:0:0:
173,104,16069,2,0,P|148:130|139:188,1,85,0|8,0:0|0:0,0:0:0:0:
221,255,16504,2,0,L|217:158,1,85,0|0,0:0|0:0,0:0:0:0:
308,251,16939,2,0,P|300:292|272:323,1,85,0|8,0:0|0:0,0:0:0:0:
81,287,17373,6,0,P|142:233|230:264,1,170,0|0,0:0|0:0,0:0:0:0:
272,323,18026,1,8,0:0:0:0:
324,256,18243,1,0,0:0:0:0:
365,330,18460,1,0,0:0:0:0:
369,181,18678,2,0,P|324:170|275:183,1,85,0|8,0:0|0:0,0:0:0:0:
365,330,19113,1,0,0:0:0:0:
451,210,19330,6,0,P|455:175|436:125,1,85,0|0,0:0|0:0,0:0:0:0:
283,59,19765,2,0,P|311:79|364:88,1,85,8|0,0:0|0:0,0:0:0:0:
428,36,20199,1,0,0:0:0:0:
428,36,20308,1,0,0:0:0:0:
428,36,20417,1,0,0:0:0:0:
451,210,20634,5,8,0:0:0:0:
438,128,20852,1,0,0:0:0:0:
378,268,21069,6,0,P|318:271|256:179,1,170,4|8,0:0|0:0,0:0:0:0:
327,23,21721,2,0,B|350:70|350:70|341:197,1,170,0|0,0:0|0:0,0:0:0:0:
256,104,22373,1,8,0:0:0:0:
173,202,22591,6,0,L|80:196,1,85,0|0,0:0|0:0,0:0:0:0:
229,276,23026,1,0,0:0:0:0:
288,215,23243,1,8,0:0:0:0:
385,280,23460,2,0,P|403:243|403:192,1,85,0|0,0:0|0:0,0:0:0:0:
352,128,23895,1,0,0:0:0:0:
288,215,24113,2,0,L|290:360,1,127.5,8|0,0:0|0:0,0:0:0:0:
289,342,24547,6,0,P|252:348|203:329,1,85,4|0,0:0|0:0,0:0:0:0:
104,208,24982,2,0,P|141:202|190:221,1,85,8|0,0:0|0:0,0:0:0:0:
289,342,25417,2,0,L|291:238,1,85,0|0,0:0|0:0,0:0:0:0:
186,132,25852,2,0,L|184:236,1,85,8|0,0:0|0:0,0:0:0:0:
289,342,26286,5,0,0:0:0:0:
184,216,26504,1,0,0:0:0:0:
185,368,26721,1,8,0:0:0:0:
294,256,26939,1,0,0:0:0:0:
294,256,27047,1,0,0:0:0:0:
294,256,27156,5,8,0:0:0:0:
166,319,27373,2,0,P|130:297|88:293,2,85,8|8|8,0:0|0:0|0:0,0:0:0:0:
235,377,28026,5,12,0:0:0:0:
256,192,28134,12,0,30634,0:0:0:0:
