osu file format v14

[General]
AudioFilename: audio.mp3
AudioLeadIn: 0
PreviewTime: -1
Countdown: 0
SampleSet: Soft
StackLeniency: 0.3
Mode: 0
LetterboxInBreaks: 0
WidescreenStoryboard: 1

[Editor]
DistanceSpacing: 0.2
BeatDivisor: 4
GridSize: 8
TimelineZoom: 1.2

[Metadata]
Title:Aozora Morning Glory (TV Size)
TitleUnicode:青空モーニンググローリー (TV Size)
Artist:Hanasaka Yui (CV: M.A.O)
ArtistUnicode:花坂 結衣(CV: M·A·O)
Creator:P4ndemonium
Version:Prinsep's Insane
Source:One Room セカンドシーズン
Tags:one room second 2nd season 2 two ending ed harumachi clover prinsep sinn dojikkoffee
BeatmapID:1695354
BeatmapSetID:807788

[Difficulty]
HPDrainRate:6
CircleSize:3.2
OverallDifficulty:9
ApproachRate:9.4
SliderMultiplier:2
SliderTickRate:1

[Events]
//Background and Video events
0,0,"yexdddd.jpg",0,0
//Break Periods
//Storyboard Layer 0 (Background)
//Storyboard Layer 1 (Fail)
//Storyboard Layer 2 (Pass)
//Storyboard Layer 3 (Foreground)
//Storyboard Sound Samples

[TimingPoints]
200,434.782608695652,4,2,0,60,1,0
200,-200,4,2,0,60,0,0
7156,-125,4,2,0,60,0,0
8895,-100,4,2,0,60,0,0
11069,-83.3333333333333,4,2,0,60,0,0
11504,-71.4285714285714,4,2,0,60,0,0
11939,-62.5,4,2,0,60,0,0
12373,-34.4827586206897,4,2,0,60,0,0
12808,-125,4,2,0,60,0,0
12917,-125,4,2,0,5,0,0
13026,-125,4,2,0,60,0,0
13134,-125,4,2,0,5,0,0
13243,-125,4,2,0,60,0,0
13352,-125,4,2,0,5,0,0
13460,-125,4,2,0,60,0,0
13569,-125,4,2,0,5,0,0
13678,-125,4,2,0,60,0,0
14113,-34.4827586206897,4,2,0,60,0,0
14547,-55.5555555555556,4,2,0,60,0,0
14765,-34.4827586206897,4,2,0,60,0,0
21069,-29.4117647058824,4,2,0,60,0,0
21504,-34.4827586206897,4,2,0,60,0,0
28134,-100,4,2,0,5,0,0

[HitObjects]
511,123,200,6,0,B|278:37|212:157|164:330|261:316|337:387|410:237|430:93|250:27|250:27|186:136|10:174|2:-21|144:-23|158:73,1,1150,0|0,0:0|0:0,0:0:0:0:
154,69,5308,1,0,0:0:0:0:
153,84,5417,6,0,B|172:170|104:150|135:251,1,175,0|0,0:0|0:0,0:0:0:0:
206,310,6286,2,0,P|128:344|56:300,1,175,0|0,0:0|0:0,0:0:0:0:
429,373,7156,6,0,B|364:295|432:208|432:208|496:115|416:37|416:37|303:60|312:170,1,560,4|0,0:0|0:0,0:0:0:0:
191,335,8895,6,0,B|309:397|324:203|167:231|99:368|99:368|64:280|116:198|116:198|86:177|76:135,1,600,4|0,0:0|0:0,0:0:0:0:
486,85,10634,6,0,L|466:186,1,100,4|0,0:0|0:0,0:0:0:0:
370,206,11069,2,0,L|393:88,1,119.999996337891,0|0,0:0|0:0,0:0:0:0:
391,337,11504,6,0,P|333:375|266:365,1,139.999995727539,0|0,0:0|0:0,0:0:0:0:
227,238,11939,2,0,P|291:194|368:205,1,160,0|8,0:0|0:0,0:0:0:0:
136,336,12373,6,0,B|108:359|103:384|103:384|44:327|79:251|79:251|96:213|85:167,1,290.000008850098,0|8,0:0|0:0,0:0:0:0:
116,25,12808,6,0,L|158:7,1,40,0|0,0:0|0:0,0:0:0:0:
155,122,13026,2,0,L|186:88,1,40,8|0,0:0|0:0,0:0:0:0:
392,99,13243,6,0,L|363:62,1,40,0|0,0:0|0:0,0:0:0:0:
309,163,13461,2,0,L|298:117,1,40,8|8,0:0|0:0,0:0:0:0:
153,9,13678,5,8,0:0:0:0:
182,92,13786,1,8,0:0:0:0:
367,67,13895,5,8,0:0:0:0:
300,124,14004,1,0,0:0:0:0:
260,40,14113,6,0,L|174:333,1,290.000008850098,4|0,0:0|0:0,0:0:0:0:
446,93,14547,2,0,P|410:66|363:68,1,89.9999972534181,8|0,0:0|0:0,0:0:0:0:
82,270,14765,6,0,B|5:317|-12:153|151:182|179:322,1,290.000008850098,0|0,0:0|0:0,0:0:0:0:
462,92,15199,2,0,B|435:48|374:19|291:40|279:124|337:179|404:146,1,290.000008850098,0|8,0:0|0:0,0:0:0:0:
281,329,15634,2,0,P|358:327|417:294,1,145.000004425049,0|0,0:0|0:0,0:0:0:0:
462,92,15852,6,0,P|486:230|393:335,2,290.000008850098,0|0|8,0:0|0:0|0:0,0:0:0:0:
118,34,16504,6,0,B|65:25|65:25|1:101|1:101|136:120,1,290.000008850098,0|0,0:0|0:0,0:0:0:0:
461,90,16939,2,0,B|375:90|344:167|344:167|314:247|241:246,1,290.000008850098,0|8,0:0|0:0,0:0:0:0:
23,359,17373,2,0,L|53:211,1,145.000004425049,0|0,0:0|0:0,0:0:0:0:
271,162,17591,6,0,P|321:209|323:280,1,145.000004425049,0|0,0:0|0:0,0:0:0:0:
284,365,17808,1,0,0:0:0:0:
183,178,18026,6,0,P|198:110|258:72,1,145.000004425049,8|0,0:0|0:0,0:0:0:0:
352,65,18243,1,0,0:0:0:0:
240,246,18461,6,0,P|173:266|111:232,1,145.000004425049,0|0,0:0|0:0,0:0:0:0:
58,156,18678,1,0,0:0:0:0:
51,127,18895,1,8,0:0:0:0:
44,97,19113,2,0,B|37:68|37:68|79:28|143:39,1,145.000004425049,0|0,0:0|0:0,0:0:0:0:
485,133,19330,6,0,B|442:207|360:195|360:195|275:182|239:245,1,290.000008850098,0|0,0:0|0:0,0:0:0:0:
439,299,19765,2,0,B|439:226|359:195|359:195|282:165|282:78,1,290.000008850098,8|0,0:0|0:0,0:0:0:0:
330,301,20199,5,0,0:0:0:0:
386,95,20308,1,0,0:0:0:0:
330,301,20417,2,0,B|304:339|253:339|253:339|282:322|291:300,1,145.000004425049,0|0,0:0|0:0,0:0:0:0:
388,116,20634,2,0,B|433:119|459:163|459:163|430:147|406:149,1,145.000004425049,8|0,0:0|0:0,0:0:0:0:
198,158,20852,2,0,B|178:116|203:72|203:72|203:105|217:125,1,145.000004425049,0|0,0:0|0:0,0:0:0:0:
455,342,21069,6,0,B|448:224|301:161|203:251|203:251|155:293|102:293|102:293|133:277|145:248,1,510.000009727478,4|0,0:0|0:0,0:0:0:0:
276,27,21504,2,0,P|214:-7|145:10,1,145.000004425049,8|0,0:0|0:0,0:0:0:0:
52,373,21721,2,0,B|137:379|186:306|186:306|230:241|296:243,1,290.000008850098,0|0,0:0|0:0,0:0:0:0:
473,73,22156,6,0,B|498:3|498:3|437:40,1,145.000004425049,0|0,0:0|0:0,0:0:0:0:
396,297,22373,2,0,B|443:353|443:353|441:282,1,145.000004425049,8|0,0:0|0:0,0:0:0:0:
240,119,22591,2,0,B|167:131|167:131|229:165,1,145.000004425049,0|0,0:0|0:0,0:0:0:0:
369,164,22808,5,0,0:0:0:0:
0,384,23026,2,0,P|60:346|80:278,1,145.000004425049,0|0,0:0|0:0,0:0:0:0:
83,91,23243,2,0,P|85:161|134:213,1,145.000004425049,8|0,0:0|0:0,0:0:0:0:
296,310,23460,2,0,P|233:276|164:293,1,145.000004425049,0|0,0:0|0:0,0:0:0:0:
0,384,23678,5,0,0:0:0:0:
87,71,23895,1,0,0:0:0:0:
309,325,24113,5,8,0:0:0:0:
0,221,24330,1,0,0:0:0:0:
383,42,24547,6,0,B|439:26|439:26|504:84|517:167|463:232,1,290.000008850098,4|0,0:0|0:0,0:0:0:0:
251,384,24982,2,0,P|263:257|384:294,1,290.000008850098,8|0,0:0|0:0,0:0:0:0:
143,373,25417,2,0,B|132:291|168:232|168:232|205:171|194:93,1,290.000008850098,0|0,0:0|0:0,0:0:0:0:
425,118,25852,2,0,B|446:30|574:134|438:229|321:147,1,290.000008850098,8|0,0:0|0:0,0:0:0:0:
80,68,26286,6,0,B|76:41|86:1|86:1|9:22|9:22|-9:79|13:131|49:151,1,290.000008850098,0|0,0:0|0:0,0:0:0:0:
380,287,26721,2,0,L|91:314,1,290.000008850098,8|0,0:0|0:0,0:0:0:0:
62,318,27047,1,0,0:0:0:0:
33,320,27156,5,8,0:0:0:0:
251,31,27373,5,0,0:0:0:0:
329,96,27482,1,0,0:0:0:0:
144,178,27591,5,0,0:0:0:0:
161,77,27700,1,0,0:0:0:0:
325,198,27808,5,0,0:0:0:0:
229,233,27917,1,0,0:0:0:0:
237,137,28026,5,0,0:0:0:0:
256,192,28134,12,0,30634,0:0:0:0:
