osu file format v14

[General]
AudioFilename: audio.mp3
AudioLeadIn: 0
PreviewTime: 13638
Countdown: 0
SampleSet: Soft
StackLeniency: 0.4
Mode: 0
LetterboxInBreaks: 0
WidescreenStoryboard: 0

[Editor]
DistanceSpacing: 1.2
BeatDivisor: 4
GridSize: 8
TimelineZoom: 1.2

[Metadata]
Title:Aozora Morning Glory (TV Size)
TitleUnicode:青空モーニンググローリー (TV Size)
Artist:Hanasaka Yui (CV: M.A.O)
ArtistUnicode:花坂 結衣(CV: M·A·O)
Creator:P4ndemonium
Version:ONE TWO DIMENSIONS
Source:One Room セカンドシーズン
Tags:one room second 2nd season 2 two ending ed harumachi clover prinsep sinn dojikkoffee
BeatmapID:1695271
BeatmapSetID:807788

[Difficulty]
HPDrainRate:5
CircleSize:4.3
OverallDifficulty:9
ApproachRate:8.5
SliderMultiplier:2
SliderTickRate:1

[Events]
//Background and Video events
0,0,"yexdddd.jpg",0,0
//Break Periods
//Storyboard Layer 0 (Background)
//Storyboard Layer 1 (Fail)
//Storyboard Layer 2 (Pass)
//Storyboard Layer 3 (Foreground)
//Storyboard Sound Samples

[TimingPoints]
200,434.782608695652,4,2,0,60,1,0
200,-133.333333333333,4,2,0,60,0,0
526,-133.333333333333,4,2,0,5,0,0
634,-133.333333333333,4,2,0,60,0,0
3352,-133.333333333333,4,2,0,5,0,0
3460,-133.333333333333,4,2,0,60,0,0
7482,-133.333333333333,4,2,0,5,0,0
7591,-133.333333333333,4,2,0,60,0,0
8134,-133.333333333333,4,2,0,5,0,0
8243,-133.333333333333,4,2,0,60,0,0
14113,-100,4,2,0,60,0,0
17699,-100,4,2,0,5,0,0
17808,-100,4,2,0,60,0,0
27156,-133.333333333333,4,2,0,60,0,0
28134,-133.333333333333,4,2,0,5,0,0
30417,-133.333333333333,4,2,0,5,0,0

[HitObjects]
454,94,200,6,0,P|429:144|426:199,1,112.500004291535
431,224,634,1,0,0:0:0:0:
360,272,852,2,0,P|324:259|287:256,1,75.0000028610231
166,345,1286,2,0,P|201:332|238:329,1,75.0000028610231
95,207,1721,6,0,L|81:280,1,75.0000028610231
219,140,2156,2,0,L|205:66,1,75.0000028610231
117,208,2591,2,0,L|103:281,1,75.0000028610231
372,319,3026,2,0,P|347:269|344:214,1,112.500004291535
349,191,3460,6,0,P|313:203|276:206,1,75.0000028610231
109,191,3895,1,0,0:0:0:0:
236,126,4113,1,0,0:0:0:0:
86,36,4330,1,0,0:0:0:0:
317,91,4547,1,0,0:0:0:0:
71,49,4765,2,0,P|103:115|108:190,1,150.000005722046
99,212,5308,5,0,0:0:0:0:
99,212,5417,2,0,B|218:187|190:277|312:245,1,225.000008583069
478,137,6286,2,0,P|409:223|402:334,1,225.000008583069
207,384,7156,6,0,P|199:328|165:284,1,112.500004291535,4|0,0:0|0:0,0:0:0:0:
148,274,7591,1,0,0:0:0:0:
330,174,7808,2,0,P|288:211|271:264,1,112.500004291535
271,285,8243,2,0,P|285:319|291:356,1,75.0000028610231
173,190,8678,1,0,0:0:0:0:
27,334,8895,6,0,P|40:298|60:267,1,75.0000028610231,4|0,0:0|0:0,0:0:0:0:
171,141,9330,1,0,0:0:0:0:
177,291,9547,2,0,P|164:255|144:223,1,75.0000028610231
71,90,9982,5,0,0:0:0:0:
173,190,10199,1,0,0:0:0:0:
273,49,10417,1,0,0:0:0:0:
318,265,10634,5,4,0:0:0:0:
197,99,10852,1,0,0:0:0:0:
173,308,11069,5,0,0:0:0:0:
323,127,11286,1,0,0:0:0:0:
265,352,11504,5,0,0:0:0:0:
167,64,11721,1,0,0:0:0:0:
252,371,11939,5,0,0:0:0:0:
337,88,12156,1,8,0:0:0:0:
50,205,12373,5,0,0:0:0:0:
414,136,12591,1,8,0:0:0:0:
0,133,12808,5,0,0:0:0:0:
468,210,13026,1,8,0:0:0:0:
18,289,13243,5,0,0:0:0:0:
454,57,13460,6,8,P|446:74|442:92,1,37.5000014305115
129,221,13678,6,8,P|125:203|118:186,1,37.5000014305115
381,328,13895,5,8,0:0:0:0:
182,131,14113,6,0,P|205:175|214:223,1,100,4|0,0:0|0:0,0:0:0:0:
304,95,14547,1,8,0:0:0:0:
345,247,14765,2,0,P|370:204|407:171,1,100
313,384,15199,2,0,P|287:341|251:307,1,100,0|8,0:0|0:0,0:0:0:0:
116,243,15634,6,0,L|214:225,1,100
149,348,16069,2,0,L|50:330,1,100,0|8,0:0|0:0,0:0:0:0:
192,131,16504,2,0,P|213:175|213:225,1,100
83,156,16939,2,0,P|82:106|104:61,1,100,0|8,0:0|0:0,0:0:0:0:
208,246,17373,6,0,P|271:283|352:288,1,150
368,285,17808,1,0,0:0:0:0:
279,167,18026,1,8,0:0:0:0:
202,349,18243,1,0,0:0:0:0:
435,227,18460,1,0,0:0:0:0:
162,83,18678,2,0,P|211:84|255:61,1,100,0|8,0:0|0:0,0:0:0:0:
322,298,19113,1,0,0:0:0:0:
311,127,19330,6,0,P|285:169|283:218,1,100
185,343,19765,2,0,P|182:293|157:251,1,100,8|0,0:0|0:0,0:0:0:0:
54,156,20199,1,0,0:0:0:0:
194,171,20417,1,0,0:0:0:0:
10,233,20634,1,8,0:0:0:0:
127,25,20852,1,0,0:0:0:0:
253,235,21069,6,0,P|299:256|348:261,1,100,4|0,0:0|0:0,0:0:0:0:
192,83,21504,1,8,0:0:0:0:
81,334,21721,2,0,P|126:313|175:308,1,100
62,146,22156,1,0,0:0:0:0:
188,292,22373,1,8,0:0:0:0:
301,39,22591,6,0,P|255:59|206:64,1,100
344,278,23026,1,0,0:0:0:0:
361,106,23243,1,8,0:0:0:0:
404,345,23460,2,0,P|449:324|498:319,1,100
307,187,23895,2,0,P|257:181|212:161,1,100,0|8,0:0|0:0,0:0:0:0:
108,327,24330,1,0,0:0:0:0:
298,9,24547,5,4,0:0:0:0:
183,373,24765,1,0,0:0:0:0:
157,22,24982,5,8,0:0:0:0:
261,332,25199,1,0,0:0:0:0:
232,67,25417,5,0,0:0:0:0:
108,327,25634,1,0,0:0:0:0:
91,80,25852,5,8,0:0:0:0:
186,286,26069,1,0,0:0:0:0:
364,74,26286,5,0,0:0:0:0:
40,252,26504,1,0,0:0:0:0:
363,301,26721,5,8,0:0:0:0:
21,166,26939,1,0,0:0:0:0:
393,31,27156,6,8,P|385:48|381:66,1,37.5000014305115
138,153,27373,6,8,P|145:170|149:188,1,37.5000014305115
361,253,27591,6,8,P|353:270|349:288,1,37.5000014305115
193,349,27808,6,8,P|200:366|204:384,1,37.5000014305115
256,0,28026,5,12,0:0:0:0:
256,192,28134,12,0,30417,0:0:0:0:
