osu file format v14

[General]
AudioFilename: audio.mp3
AudioLeadIn: 0
PreviewTime: 13638
Countdown: 0
SampleSet: Soft
StackLeniency: 0.4
Mode: 0
LetterboxInBreaks: 0
WidescreenStoryboard: 1

[Editor]
DistanceSpacing: 1.2
BeatDivisor: 4
GridSize: 8
TimelineZoom: 1.2

[Metadata]
Title:Aozora Morning Glory (TV Size)
TitleUnicode:青空モーニンググローリー (TV Size)
Artist:Hanasaka Yui (CV: M.A.O)
ArtistUnicode:花坂 結衣(CV: M·A·O)
Creator:P4ndemonium
Version:Normal
Source:One Room セカンドシーズン
Tags:one room second 2nd season 2 two ending ed harumachi clover prinsep sinn dojikkoffee
BeatmapID:1696205
BeatmapSetID:807788

[Difficulty]
HPDrainRate:3
CircleSize:3.3
OverallDifficulty:5
ApproachRate:5
SliderMultiplier:1.3
SliderTickRate:1

[Events]
//Background and Video events
0,0,"yexdddd.jpg",0,0
//Break Periods
//Storyboard Layer 0 (Background)
//Storyboard Layer 1 (Fail)
//Storyboard Layer 2 (Pass)
//Storyboard Layer 3 (Foreground)
//Storyboard Sound Samples

[TimingPoints]
200,434.782608695652,4,2,0,60,1,0
200,-100,4,2,0,60,0,0
28026,-100,4,2,0,5,0,0

[HitObjects]
91,87,200,6,0,P|196:191|49:170,1,390,0|0,0:0|0:0,0:0:0:0:
93,319,1939,6,0,P|263:248|264:64,1,390,0|0,0:0|0:0,0:0:0:0:
398,142,3678,6,0,P|292:246|439:225,1,390,0|0,0:0|0:0,0:0:0:0:
395,374,5417,2,0,P|224:303|223:119,1,390,0|0,0:0|0:0,0:0:0:0:
84,48,7156,6,0,L|212:25,1,130,4|0,0:0|0:0,0:0:0:0:
279,64,7808,1,0,0:0:0:0:
434,45,8243,6,0,L|422:109,1,65,0|0,0:0|0:0,0:0:0:0:
367,164,8678,2,0,L|389:292,1,130,0|0,0:0|0:0,0:0:0:0:
312,306,9330,2,0,L|300:241,1,65,0|0,0:0|0:0,0:0:0:0:
155,184,9982,6,0,L|143:248,1,65,0|0,0:0|0:0,0:0:0:0:
78,289,10417,1,0,0:0:0:0:
24,235,10634,5,4,0:0:0:0:
103,100,11069,1,0,0:0:0:0:
197,224,11504,1,0,0:0:0:0:
276,89,11939,1,0,0:0:0:0:
370,213,12373,5,0,0:0:0:0:
443,239,12591,1,8,0:0:0:0:
383,288,12808,1,0,0:0:0:0:
456,314,13026,1,8,0:0:0:0:
396,363,13243,5,0,0:0:0:0:
323,337,13460,1,8,0:0:0:0:
250,366,13678,2,0,L|185:354,1,65,8|8,0:0|0:0,0:0:0:0:
109,338,14113,6,0,P|101:274|59:226,1,130,4|8,0:0|0:0,0:0:0:0:
94,156,14765,2,0,P|111:128|137:108,1,65,0|0,0:0|0:0,0:0:0:0:
170,38,15199,2,0,P|202:39|232:51,1,65,0|8,0:0|0:0,0:0:0:0:
299,91,15634,6,0,L|287:156,1,65,0|0,0:0|0:0,0:0:0:0:
363,172,16069,2,0,L|375:107,1,65,0|8,0:0|0:0,0:0:0:0:
431,54,16504,2,0,L|496:42,1,65,0|0,0:0|0:0,0:0:0:0:
512,118,16939,2,0,L|447:130,1,65,0|8,0:0|0:0,0:0:0:0:
431,205,17373,6,0,P|442:235|444:267,1,65,0|0,0:0|0:0,0:0:0:0:
389,323,17808,1,0,0:0:0:0:
317,292,18026,2,0,L|252:304,1,65,8|0,0:0|0:0,0:0:0:0:
176,317,18460,1,0,0:0:0:0:
104,348,18678,2,0,L|39:336,1,65,0|8,0:0|0:0,0:0:0:0:
2,268,19113,1,0,0:0:0:0:
40,199,19330,6,0,L|104:188,1,65,0|0,0:0|0:0,0:0:0:0:
141,119,19765,2,0,L|204:130,1,65,8|0,0:0|0:0,0:0:0:0:
258,73,20199,1,0,0:0:0:0:
288,144,20417,2,0,L|351:155,1,65,0|8,0:0|0:0,0:0:0:0:
405,98,20851,1,0,0:0:0:0:
432,171,21069,6,0,P|474:219|481:282,1,130,4|8,0:0|0:0,0:0:0:0:
412,318,21721,2,0,P|389:294|361:278,1,65,0|0,0:0|0:0,0:0:0:0:
301,329,22156,1,0,0:0:0:0:
228,299,22373,1,8,0:0:0:0:
167,349,22591,6,0,P|139:333|117:310,1,65,0|0,0:0|0:0,0:0:0:0:
106,231,23026,1,0,0:0:0:0:
43,278,23243,1,8,0:0:0:0:
31,200,23460,2,0,L|20:137,1,65,0|0,0:0|0:0,0:0:0:0:
81,88,23895,2,0,L|92:25,1,65,0|8,0:0|0:0,0:0:0:0:
166,1,24330,1,0,0:0:0:0:
233,36,24547,6,0,P|288:69|352:72,1,130,4|8,0:0|0:0,0:0:0:0:
401,221,25417,2,0,P|344:251|309:305,1,130,0|8,0:0|0:0,0:0:0:0:
156,273,26286,2,0,P|157:208|128:151,1,130,0|8,0:0|0:0,0:0:0:0:
233,36,27156,6,0,L|296:25,1,65,8|8,0:0|0:0,0:0:0:0:
336,92,27591,2,0,L|399:103,1,65,8|8,0:0|0:0,0:0:0:0:
256,192,28026,12,0,30417,0:0:0:0:
