osu file format v14

[General]
AudioFilename: audio.mp3
AudioLeadIn: 0
PreviewTime: 13638
Countdown: 0
SampleSet: Soft
StackLeniency: 0.4
Mode: 0
LetterboxInBreaks: 0
WidescreenStoryboard: 1

[Editor]
DistanceSpacing: 1.2
BeatDivisor: 4
GridSize: 8
TimelineZoom: 1.2

[Metadata]
Title:Aozora Morning Glory (TV Size)
TitleUnicode:青空モーニンググローリー (TV Size)
Artist:Hanasaka Yui (CV: M.A.O)
ArtistUnicode:花坂 結衣(CV: M·A·O)
Creator:P4ndemonium
Version:Light Insane
Source:One Room セカンドシーズン
Tags:one room second 2nd season 2 two ending ed harumachi clover prinsep sinn dojikkoffee
BeatmapID:1696204
BeatmapSetID:807788

[Difficulty]
HPDrainRate:5
CircleSize:4
OverallDifficulty:7.5
ApproachRate:7.5
SliderMultiplier:1.5
SliderTickRate:1

[Events]
//Background and Video events
0,0,"yexdddd.jpg",0,0
//Break Periods
//Storyboard Layer 0 (Background)
//Storyboard Layer 1 (Fail)
//Storyboard Layer 2 (Pass)
//Storyboard Layer 3 (Foreground)
//Storyboard Sound Samples

[TimingPoints]
200,434.782608695652,4,2,0,60,1,0
200,-200,4,2,0,60,0,0
7156,-133.333333333333,4,2,0,60,0,0
14113,-100,4,2,0,60,0,0
28134,-100,4,2,0,5,0,0

[HitObjects]
421,122,200,6,0,B|309:70|293:197|173:143,1,262.5,0|0,0:0|0:0,0:0:0:0:
51,61,1939,6,0,B|73:6|173:9|190:117|98:185,1,262.5,0|0,0:0|0:0,0:0:0:0:
0,259,3678,6,0,P|55:264|104:291,1,112.5,0|0,0:0|0:0,0:0:0:0:
234,352,4547,2,0,P|178:357|129:384,1,112.5,0|0,0:0|0:0,0:0:0:0:
267,167,5417,6,0,L|286:277,1,112.5,0|0,0:0|0:0,0:0:0:0:
399,350,6286,2,0,L|418:239,1,112.5,0|0,0:0|0:0,0:0:0:0:
403,115,7156,6,0,P|377:126|349:131,1,56.2500021457673,4|0,0:0|0:0,0:0:0:0:
408,25,7591,1,0,0:0:0:0:
408,25,7808,2,0,P|380:17|356:3,1,56.2500021457673,0|0,0:0|0:0,0:0:0:0:
251,135,8243,2,0,L|307:126,1,56.2500021457673
393,209,8678,6,0,P|365:211|338:221,1,56.2500021457673,0|4,0:0|0:0,0:0:0:0:
255,186,9113,1,0,0:0:0:0:
272,335,9330,1,0,0:0:0:0:
134,312,9547,2,0,P|161:309|188:299,1,56.2500021457673,0|0,0:0|0:0,0:0:0:0:
88,195,9982,2,0,P|76:220|71:248,1,56.2500021457673,0|0,0:0|0:0,0:0:0:0:
233,185,10417,1,0,0:0:0:0:
59,108,10634,5,4,0:0:0:0:
134,312,10852,1,0,0:0:0:0:
151,54,11069,5,0,0:0:0:0:
71,247,11286,1,0,0:0:0:0:
251,89,11504,5,0,0:0:0:0:
8,182,11721,1,0,0:0:0:0:
288,188,11939,5,0,0:0:0:0:
59,108,12156,1,8,0:0:0:0:
164,309,12373,5,0,0:0:0:0:
279,101,12591,1,8,0:0:0:0:
8,182,12808,5,0,0:0:0:0:
319,183,13026,1,8,0:0:0:0:
110,34,13243,5,0,0:0:0:0:
178,325,13460,2,8,P|183:337|186:351,4,28.1250010728836
268,313,14113,6,0,P|277:276|296:244,1,75,4|0,0:0|0:0,0:0:0:0:
323,384,14547,1,8,0:0:0:0:
380,215,14765,2,0,P|370:178|351:146,1,75,0|0,0:0|0:0,0:0:0:0:
433,328,15199,2,0,P|442:291|461:259,1,75,0|8,0:0|0:0,0:0:0:0:
426,134,15634,6,0,L|352:147,1,75,0|0,0:0|0:0,0:0:0:0:
287,39,16069,2,0,L|361:53,1,75,0|8,0:0|0:0,0:0:0:0:
330,257,16504,2,0,L|256:270,1,75,0|0,0:0|0:0,0:0:0:0:
190,161,16939,2,0,L|264:175,1,75,0|8,0:0|0:0,0:0:0:0:
111,356,17373,6,0,P|101:319|82:287,1,75
172,177,17808,1,0,0:0:0:0:
227,259,18026,2,0,P|207:291|198:327,1,75,8|0,0:0|0:0,0:0:0:0:
324,243,18460,1,0,0:0:0:0:
126,111,18678,2,0,P|157:131|181:160,1,75,0|8,0:0|0:0,0:0:0:0:
258,39,19113,1,0,0:0:0:0:
408,49,19330,6,0,P|388:81|379:117,1,75,0|0,0:0|0:0,0:0:0:0:
291,242,19765,2,0,P|281:205|262:173,1,75,8|0,0:0|0:0,0:0:0:0:
344,367,20199,1,0,0:0:0:0:
185,342,20417,2,0,L|258:328,2,75,0|8|0,0:0|0:0|0:0,0:0:0:0:
38,229,21069,6,0,P|57:261|66:297,1,75,4|0,0:0|0:0,0:0:0:0:
201,239,21504,1,8,0:0:0:0:
152,115,21721,2,0,P|132:148|123:184,1,75,0|0,0:0|0:0,0:0:0:0:
333,189,22156,1,0,0:0:0:0:
260,59,22373,1,8,0:0:0:0:
216,252,22591,6,0,L|289:265,1,75
323,170,23026,1,8,0:0:0:0:
197,261,23243,1,8,0:0:0:0:
286,384,23460,2,0,L|359:371,1,75
468,293,23895,2,0,L|394:280,2,75,0|8|0,0:0|0:0|0:0,0:0:0:0:
428,105,24547,6,0,P|409:137|400:174,1,75,4|0,0:0|0:0,0:0:0:0:
309,330,24982,2,0,P|299:293|280:261,1,75,8|0,0:0|0:0,0:0:0:0:
189,128,25417,2,0,P|198:165|218:197,1,75,0|0,0:0|0:0,0:0:0:0:
85,269,25852,2,0,P|104:237|114:201,1,75,8|0,0:0|0:0,0:0:0:0:
176,55,26286,6,0,L|189:128,1,75,0|0,0:0|0:0,0:0:0:0:
374,202,26721,2,0,L|387:129,1,75,8|0,0:0|0:0,0:0:0:0:
261,0,27156,2,0,L|287:147,1,150,8|8,0:0|0:0,0:0:0:0:
374,202,27808,1,8,0:0:0:0:
256,288,28026,5,12,0:0:0:0:
256,192,28134,12,0,30417,0:0:0:0:
