osu file format v14

[General]
AudioFilename: audio.mp3
AudioLeadIn: 0
PreviewTime: 13638
Countdown: 0
SampleSet: Soft
StackLeniency: 0.4
Mode: 0
LetterboxInBreaks: 0
WidescreenStoryboard: 1

[Editor]
DistanceSpacing: 1.2
BeatDivisor: 4
GridSize: 8
TimelineZoom: 1.2

[Metadata]
Title:Aozora Morning Glory (TV Size)
TitleUnicode:青空モーニンググローリー (TV Size)
Artist:Hanasaka Yui (CV: M.A.O)
ArtistUnicode:花坂 結衣(CV: M·A·O)
Creator:P4ndemonium
Version:Insane
Source:One Room セカンドシーズン
Tags:one room second 2nd season 2 two ending ed harumachi clover prinsep sinn dojikkoffee
BeatmapID:1695885
BeatmapSetID:807788

[Difficulty]
HPDrainRate:5
CircleSize:4
OverallDifficulty:8
ApproachRate:8.3
SliderMultiplier:2
SliderTickRate:1

[Events]
//Background and Video events
0,0,"yexdddd.jpg",0,0
//Break Periods
//Storyboard Layer 0 (Background)
//Storyboard Layer 1 (Fail)
//Storyboard Layer 2 (Pass)
//Storyboard Layer 3 (Foreground)
//Storyboard Sound Samples

[TimingPoints]
200,434.782608695652,4,2,0,60,1,0
200,-133.333333333333,4,2,0,60,0,0
3786,-133.333333333333,4,2,0,5,0,0
3895,-133.333333333333,4,2,0,60,0,0
14113,-100,4,2,0,60,0,0
17699,-100,4,2,0,5,0,0
17808,-100,4,2,0,60,0,0
27591,-133.333333333333,4,2,0,60,0,0
28134,-100,4,2,0,5,0,0
30417,-100,4,2,0,5,0,0

[HitObjects]
57,146,200,6,0,P|93:151|125:170,1,75.0000028610231,0|0,0:0|0:0,0:0:0:0:
224,240,634,1,0,0:0:0:0:
224,240,852,2,0,P|187:245|155:264,1,75.0000028610231,0|0,0:0|0:0,0:0:0:0:
281,371,1286,2,0,L|294:297,1,75.0000028610231,0|0,0:0|0:0,0:0:0:0:
497,163,1721,6,0,P|478:195|473:232,1,75.0000028610231,0|0,0:0|0:0,0:0:0:0:
392,301,2156,2,0,P|386:264|367:232,1,75.0000028610231,0|0,0:0|0:0,0:0:0:0:
345,93,2591,2,0,L|418:106,1,75.0000028610231,0|0,0:0|0:0,0:0:0:0:
302,171,3026,2,0,L|228:184,1,75.0000028610231,0|0,0:0|0:0,0:0:0:0:
111,17,3460,6,0,P|140:64|151:119,1,112.500004291535,0|0,0:0|0:0,0:0:0:0:
151,138,3895,1,0,0:0:0:0:
77,214,4113,1,0,0:0:0:0:
234,53,4330,1,0,0:0:0:0:
294,269,4547,1,0,0:0:0:0:
82,113,4765,2,0,P|114:132|151:138,1,75.0000028610231,0|0,0:0|0:0,0:0:0:0:
323,63,5199,5,0,0:0:0:0:
440,214,5417,2,0,P|408:128|358:205,1,225.000008583069
217,332,6286,2,0,P|249:246|299:323,1,225.000008583069
58,187,7156,6,0,P|77:218|82:255,1,75.0000028610231,4|0,0:0|0:0,0:0:0:0:
191,132,7591,1,0,0:0:0:0:
190,132,7808,2,0,P|171:163|166:200,1,75.0000028610231,0|0,0:0|0:0,0:0:0:0:
299,145,8243,2,0,P|279:113|274:76,1,75.0000028610231,0|0,0:0|0:0,0:0:0:0:
459,1,8678,5,0,0:0:0:0:
459,1,8895,2,0,L|445:74,1,75.0000028610231,4|0,0:0|0:0,0:0:0:0:
424,189,9330,1,0,0:0:0:0:
299,145,9547,2,0,P|330:125|367:120,1,75.0000028610231,0|0,0:0|0:0,0:0:0:0:
400,275,9982,5,0,0:0:0:0:
287,127,10199,1,0,0:0:0:0:
208,337,10417,1,0,0:0:0:0:
135,100,10634,5,4,0:0:0:0:
269,272,10852,1,0,0:0:0:0:
219,69,11069,5,0,0:0:0:0:
136,283,11286,1,0,0:0:0:0:
151,12,11504,5,0,0:0:0:0:
341,326,11721,1,0,0:0:0:0:
303,38,11939,5,0,0:0:0:0:
75,348,12156,1,8,0:0:0:0:
405,222,12373,5,0,0:0:0:0:
26,106,12591,1,8,0:0:0:0:
227,351,12808,5,0,0:0:0:0:
168,0,13026,1,8,0:0:0:0:
433,186,13243,5,0,0:0:0:0:
10,253,13460,1,8,0:0:0:0:
202,96,13678,1,8,0:0:0:0:
202,96,13786,1,8,0:0:0:0:
202,96,13895,1,8,0:0:0:0:
319,344,14113,6,0,P|312:294|286:252,1,100,4|0,0:0|0:0,0:0:0:0:
495,280,14547,1,8,0:0:0:0:
345,184,14765,2,0,P|351:134|377:92,1,100,0|0,0:0|0:0,0:0:0:0:
500,262,15199,2,0,L|401:279,1,100,0|8,0:0|0:0,0:0:0:0:
238,132,15634,6,0,P|286:145|331:165,1,100,0|0,0:0|0:0,0:0:0:0:
180,306,16069,2,0,P|131:319|86:339,1,100,0|8,0:0|0:0,0:0:0:0:
268,236,16504,2,0,L|285:334,1,100,0|0,0:0|0:0,0:0:0:0:
138,163,16939,2,0,L|155:64,1,100,0|8,0:0|0:0,0:0:0:0:
405,123,17373,6,0,B|326:104|335:162|260:138,1,150,0|0,0:0|0:0,0:0:0:0:
238,132,17808,1,0,0:0:0:0:
353,29,18026,1,8,0:0:0:0:
414,213,18243,1,0,0:0:0:0:
190,56,18460,1,0,0:0:0:0:
118,320,18678,6,0,P|159:293|209:287,1,100,0|8,0:0|0:0,0:0:0:0:
276,347,19113,1,0,0:0:0:0:
399,228,19330,2,0,P|349:221|307:195,1,100,0|0,0:0|0:0,0:0:0:0:
204,70,19765,2,0,P|224:116|222:166,1,100,8|0,0:0|0:0,0:0:0:0:
135,306,20199,1,0,0:0:0:0:
47,199,20417,2,0,L|146:217,2,100,0|8|0,0:0|0:0|0:0,0:0:0:0:
316,131,21069,6,0,P|268:144|223:164,1,100,4|0,0:0|0:0,0:0:0:0:
387,187,21504,1,8,0:0:0:0:
145,217,21721,2,0,P|104:188|68:154,1,100,0|0,0:0|0:0,0:0:0:0:
240,66,22156,2,0,L|223:164,1,100,0|8,0:0|0:0,0:0:0:0:
404,285,22591,6,0,L|387:187,1,100,0|0,0:0|0:0,0:0:0:0:
330,338,23026,1,0,0:0:0:0:
485,244,23243,1,8,0:0:0:0:
237,180,23460,2,0,P|262:222|269:271,1,100,0|0,0:0|0:0,0:0:0:0:
420,95,23895,2,0,P|394:137|387:186,2,100,0|8|0,0:0|0:0|0:0,0:0:0:0:
45,125,24547,5,4,0:0:0:0:
330,244,24765,1,0,0:0:0:0:
83,224,24982,5,8,0:0:0:0:
292,145,25199,1,0,0:0:0:0:
64,134,25416,5,0,0:0:0:0:
311,235,25634,1,0,0:0:0:0:
101,215,25852,5,8,0:0:0:0:
274,154,26069,1,0,0:0:0:0:
135,35,26286,5,0,0:0:0:0:
260,308,26504,1,0,0:0:0:0:
217,0,26721,5,8,0:0:0:0:
79,302,26939,1,0,0:0:0:0:
340,159,27156,6,0,P|315:154|291:145,3,50,8|8|8|8,0:0|0:0|0:0|0:0,0:0:0:0:
414,247,27591,6,0,P|395:249|377:254,3,37.5000014305115,8|8|8|8,0:0|0:0|0:0|0:0,0:0:0:0:
490,201,28026,5,12,0:0:0:0:
256,192,28134,12,0,30417,0:0:0:0:
