osu file format v14

[General]
AudioFilename: audio.mp3
AudioLeadIn: 0
PreviewTime: 15604
Countdown: 0
SampleSet: Soft
StackLeniency: 0.7
Mode: 2
LetterboxInBreaks: 0
WidescreenStoryboard: 1

[Editor]
DistanceSpacing: 0.1
BeatDivisor: 4
GridSize: 32
TimelineZoom: 3.499999

[Metadata]
Title:Aozora Morning Glory (TV Size)
TitleUnicode:青空モーニンググローリー (TV Size)
Artist:Hanasaka Yui (CV: M.A.O)
ArtistUnicode:花坂結衣(CV: M·A·O)
Creator:Natsuko
Version:Aku's Flowering Beauty
Source:One Room セカンドシーズン
Tags:pop anime japanese -aku aku bad mapper -hex- greaper secre chickenbible oneroom season two second 2 カントク kantoku mao ichimichi 市道 真央 ワンルーム SMIRAL
BeatmapID:2877919
BeatmapSetID:1376932

[Difficulty]
HPDrainRate:5
CircleSize:3.4
OverallDifficulty:8.4
ApproachRate:8.4
SliderMultiplier:2.35
SliderTickRate:2

[Events]
//Background and Video events
0,0,"bg1.jpg",0,0
//Break Periods
//Storyboard Layer 0 (Background)
//Storyboard Layer 1 (Fail)
//Storyboard Layer 2 (Pass)
//Storyboard Layer 3 (Foreground)
//Storyboard Layer 4 (Overlay)
//Storyboard Sound Samples

[TimingPoints]
46,434.782608695652,4,2,11,10,1,0
263,-100,4,2,11,20,0,0
480,-100,4,2,11,30,0,0
698,-100,4,2,11,40,0,0
915,-100,4,2,11,50,0,0
1132,-100,4,2,11,60,0,0
1350,-100,4,2,11,65,0,0
1567,-100,4,2,11,70,0,0
1785,-100,4,2,11,75,0,0
7002,-100,4,2,11,80,0,0
8741,-100,4,2,11,75,0,0
12219,-100,4,2,11,80,0,0
13089,-100,4,2,11,75,0,0
13959,-100,4,2,11,80,0,0
14828,-100,4,2,11,75,0,0
15698,-100,4,2,11,90,0,1
17437,-100,4,2,11,85,0,1
19176,-100,4,2,11,80,0,1
20915,-100,4,2,11,85,0,1
22654,-100,4,2,11,90,0,1
24393,-100,4,2,11,85,0,1
26132,-100,4,2,11,90,0,1
27872,-100,4,2,11,95,0,1
29611,-100,4,2,11,80,0,0
29828,-100,4,2,11,70,0,0
30045,-100,4,2,11,60,0,0
30263,-100,4,2,11,50,0,0
30480,-100,4,2,11,40,0,0
30698,-100,4,2,11,20,0,0
30915,-100,4,2,11,5,0,0

[Colours]
Combo1 : 166,166,255
Combo2 : 255,255,140
Combo3 : 128,255,255

[HitObjects]
256,192,46,12,0,1567,0:0:0:0:
161,285,1785,6,0,L|410:141,1,235,2|0,0:0|0:0,0:0:0:0:
263,182,2437,2,0,L|152:118,1,117.5
263,182,2872,2,0,L|401:262,1,117.5,2|0,0:0|0:0,0:0:0:0:
188,315,3306,6,0,P|122:199|188:139,1,235,2|0,0:0|0:0,0:0:0:0:
347,320,4176,2,0,P|413:204|347:144,1,235,2|0,0:0|0:0,0:0:0:0:
190,72,5045,6,0,L|411:200,1,235,2|0,0:0|0:0,0:0:0:0:
292,241,5698,1,0,0:0:0:0:
469,233,5915,2,0,L|360:170,1,117.5
175,151,6350,2,0,P|97:205|186:282,1,235,2|0,0:0|0:0,0:0:0:0:
251,261,6893,1,0,0:0:0:0:
432,353,7002,6,0,P|483:241|308:245,1,352.5,2|0,0:0|0:0,0:0:0:0:
126,166,7872,2,0,L|438:-1,1,352.5,2|0,0:0|0:0,0:0:0:0:
120,310,8741,6,0,P|21:217|102:154,1,235,4|0,0:0|0:0,0:0:0:0:
193,76,9393,2,0,L|421:200,1,235
269,267,10045,1,0,0:0:0:0:
457,355,10263,2,0,L|383:355,1,58.75
197,172,10480,6,0,L|69:172,2,117.5,4|0|0,0:0|0:0|0:0,0:0:0:0:
325,293,11132,2,0,P|410:228|352:138,1,235,2|0,0:0|0:0,0:0:0:0:
222,148,11785,1,0,0:0:0:0:
404,58,12002,1,2,0:0:0:0:
53,191,12219,6,0,L|41:63,1,117.5,4|8,0:0|0:3,0:0:0:0:
172,167,12654,2,0,L|184:39,1,117.5,8|8,0:0|0:3,0:0:0:0:
370,239,13089,2,0,L|242:239,1,117.5,8|8,0:0|0:3,0:0:0:0:
132,240,13524,1,8,0:0:0:0:
412,348,13741,1,8,0:3:0:0:
65,287,13959,6,0,L|54:170,1,117.5,8|8,0:0|0:0,0:0:0:0:
239,134,14393,1,8,0:0:0:0:
74,85,14611,1,8,0:0:0:0:
380,260,14828,1,8,0:0:0:0:
496,196,15045,6,0,L|496:147,1,39.1666666666667,8|8,0:3|0:3,0:0:0:0:
456,135,15190,1,0,0:0:0:0:
298,82,15263,2,0,L|234:82,1,58.75,8|8,0:2|0:3,0:0:0:0:
239,82,15480,2,0,L|297:82,1,58.75,8|8,0:3|0:3,0:0:0:0:
476,53,15698,6,0,L|222:13,1,235,4|8,0:0|0:0,0:0:0:0:
432,327,16350,2,0,L|443:199,1,117.5,2|8,0:0|0:3,0:0:0:0:
270,147,16785,2,0,L|142:147,1,117.5,2|8,0:0|0:0,0:0:0:0:
339,42,17219,1,2,0:0:0:0:
33,301,17437,6,0,L|21:173,1,117.5,4|2,0:3|0:0,0:0:0:0:
210,119,17872,1,8,0:0:0:0:
25,24,18089,2,0,L|185:24,1,117.5,2|8,0:0|0:3,0:0:0:0:
327,119,18524,2,0,L|167:119,1,117.5,2|8,0:0|0:0,0:0:0:0:
91,127,18959,1,2,0:0:0:0:
397,348,19176,6,0,L|408:220,1,117.5,4|0,0:0|0:0,0:0:0:0:
222,156,19611,1,8,0:0:0:0:
385,108,19828,1,0,0:0:0:0:
197,256,20045,2,0,L|69:256,2,117.5,8|2|8,0:3|0:0|0:0,0:0:0:0:
379,268,20698,1,2,0:0:0:0:
75,169,20915,6,0,L|63:41,1,117.5,4|0,0:3|0:0,0:0:0:0:
223,5,21350,2,0,L|383:5,1,117.5,8|0,0:0|0:0,0:0:0:0:
157,121,21785,2,0,L|93:121,1,58.75,8|8,0:3|0:0,0:0:0:0:
274,212,22002,2,0,L|284:93,1,117.5,8|8,0:3|0:0,0:0:0:0:
105,283,22437,1,8,0:3:0:0:
417,348,22654,6,0,L|427:229,1,117.5,4|0,0:0|0:0,0:0:0:0:
242,201,23089,1,8,0:0:0:0:
427,81,23306,2,0,L|299:81,1,117.5,2|8,0:0|0:3,0:0:0:0:
128,109,23741,2,0,L|256:109,1,117.5,0|8,0:0|0:0,0:0:0:0:
59,243,24176,1,2,0:0:0:0:
369,359,24393,6,0,L|380:231,1,117.5,4|0,0:3|0:0,0:0:0:0:
196,198,24828,1,8,0:0:0:0:
378,78,25045,2,0,L|496:78,2,117.5,2|8|0,0:2|0:3|0:0,0:0:0:0:
189,126,25698,2,0,L|177:253,1,117.5,8|0,0:0|0:0,0:0:0:0:
490,318,26132,6,0,L|254:163,1,235,4|8,0:0|0:0,0:0:0:0:
22,318,27002,2,0,L|258:163,1,235,8|8,0:3|0:0,0:0:0:0:
408,248,27872,6,0,L|419:120,1,117.5,4|0,0:0|0:0,0:0:0:0:
136,131,28306,1,8,0:0:0:0:
18,21,28524,2,0,L|82:21,1,58.75,8|8,0:0|0:0,0:0:0:0:
255,46,28741,1,8,0:3:0:0:
373,126,28959,6,0,L|302:126,1,58.75,8|8,0:0|0:0,0:0:0:0:
237,153,29176,2,0,L|237:249,1,58.75,8|8,0:0|0:3,0:0:0:0:
414,252,29393,2,0,L|495:252,1,58.75,8|8,0:3|0:3,0:0:0:0:
235,354,29611,1,6,0:0:0:0:
256,192,29828,12,0,30915,0:0:0:0:
