osu file format v14

[General]
AudioFilename: audio.mp3
AudioLeadIn: 0
PreviewTime: 0
Countdown: 1
SampleSet: Soft
StackLeniency: 0.4
Mode: 0
LetterboxInBreaks: 0
WidescreenStoryboard: 1

[Editor]
DistanceSpacing: 1.2
BeatDivisor: 4
GridSize: 4
TimelineZoom: 2.6

[Metadata]
Title:Aozora Morning Glory (TV Size)
TitleUnicode:青空モーニンググローリー (TV Size)
Artist:Hanasaka Yui (CV: M.A.O)
ArtistUnicode:花坂結衣(CV: M·A·O)
Creator:Nao Tomori
Version:lit120's Insane
Source:One Room セカンドシーズン
Tags:takeki -hakurei- ktgster lit120 oneroom season two second 2 kantoku lolis mao ichimichi dictate featured artist fa
BeatmapID:1696042
BeatmapSetID:807524

[Difficulty]
HPDrainRate:7
CircleSize:4
OverallDifficulty:7.5
ApproachRate:8
SliderMultiplier:1.8
SliderTickRate:1

[Events]
//Background and Video events
0,0,"doki2.jpg",0,0
//Break Periods
//Storyboard Layer 0 (Background)
//Storyboard Layer 1 (Fail)
//Storyboard Layer 2 (Pass)
//Storyboard Layer 3 (Foreground)
//Storyboard Sound Samples

[TimingPoints]
1783,434.782608695652,4,2,2,50,1,0
1783,-133.333333333333,4,2,2,40,0,0
8739,-100,4,2,1,60,0,0
15696,-90.9090909090909,4,2,1,75,0,1
29609,-90.9090909090909,4,2,1,75,0,0
30913,-90.9090909090909,4,2,1,5,0,0

[Colours]
Combo1 : 255,215,166
Combo2 : 175,249,121
Combo3 : 253,183,204
Combo4 : 242,170,81

[HitObjects]
256,192,43,12,0,1674,0:0:0:0:
64,177,1783,6,0,P|129:188|181:148,1,135.000005149841,6|2,0:0|0:0,0:0:0:0:
110,41,2435,2,0,L|110:109,1,67.5000025749207,2|0,0:0|0:0,0:0:0:0:
181,215,2869,2,0,L|182:148,1,67.5000025749207,2|2,0:0|0:0,0:0:0:0:
122,272,3304,6,0,P|151:291|184:297,1,67.5000025749207,2|2,0:0|0:0,0:0:0:0:
232,174,3739,2,0,P|202:189|181:215,1,67.5000025749207,0|2,0:0|0:0,0:0:0:0:
263,320,4174,2,0,P|264:286|253:254,1,67.5000025749207,2|0,0:0|0:0,0:0:0:0:
123,273,4609,2,0,P|121:306|132:338,1,67.5000025749207,2|0,0:0|0:0,0:0:0:0:
232,174,5043,6,0,P|234:140|223:108,1,67.5000025749207,2|2,0:0|0:0,0:0:0:0:
110,41,5478,1,2,0:0:0:0:
108,172,5696,1,2,0:0:0:0:
224,109,5913,1,2,0:0:0:0:
44,105,6130,1,2,0:0:0:0:
201,18,6348,2,0,P|234:16|266:26,1,67.5000025749207,2|0,0:0|0:0,0:0:0:0:
401,144,6782,1,2,0:0:0:0:
401,144,6891,1,2,0:0:0:0:
401,144,7000,6,0,L|406:294,1,135.000005149841,2|2,0:0|0:0,0:0:0:0:
367,350,7652,1,2,0:0:0:0:
211,322,7869,2,0,P|259:277|325:281,1,135.000005149841,2|2,0:0|0:0,0:0:0:0:
287,353,8522,1,2,0:0:0:0:
206,147,8739,6,0,P|227:234|211:322,1,180,6|2,3:2|0:0,0:0:0:0:
109,359,9391,2,0,P|88:271|104:183,1,180,2|2,0:0|0:0,0:0:0:0:
124,77,10043,1,2,0:0:0:0:
315,169,10261,1,2,0:0:0:0:
315,169,10369,1,2,0:0:0:0:
315,169,10478,5,6,3:2:0:0:
279,64,10696,1,2,0:0:0:0:
206,147,10913,1,2,0:0:0:0:
387,85,11130,2,0,P|414:122|425:183,1,90,2|0,0:0|0:0,0:0:0:0:
372,262,11565,1,2,0:0:0:0:
315,169,11782,1,2,0:0:0:0:
482,258,12000,1,2,0:0:0:0:
226,337,12217,5,6,3:2:0:0:
372,262,12435,1,0,0:0:0:0:
234,173,12652,5,8,0:0:0:0:
336,372,12869,1,8,0:0:0:0:
347,148,13087,5,10,0:0:0:0:
148,251,13304,1,8,0:0:0:0:
410,335,13522,5,10,0:0:0:0:
278,103,13739,1,8,0:0:0:0:
144,333,13956,5,10,0:0:0:0:
417,192,14174,1,8,0:0:0:0:
123,137,14391,5,8,0:0:0:0:
336,372,14609,1,8,0:0:0:0:
11,300,14826,5,14,0:0:0:0:
278,103,15043,1,8,0:0:0:0:
308,136,15151,1,8,0:0:0:0:
320,179,15260,1,8,0:0:0:0:
312,223,15369,1,8,0:0:0:0:
286,259,15478,2,0,P|267:271|245:278,1,45,8|4,0:3|0:3,0:0:0:0:
47,182,15696,6,0,P|136:143|224:183,1,198.000006042481,6|10,3:2|0:0,0:0:0:0:
135,361,16348,2,0,L|136:263,1,99.0000030212403,2|0,0:0|3:2,0:0:0:0:
137,45,16782,2,0,L|137:144,1,99.0000030212403,2|8,0:0|0:0,0:0:0:0:
220,312,17217,6,0,P|268:321|314:306,1,99.0000030212403,2|2,0:0|3:2,0:0:0:0:
471,160,17652,2,0,P|423:151|377:167,1,99.0000030212403,0|10,0:0|0:0,0:0:0:0:
422,362,18087,2,0,P|431:314|415:267,1,99.0000030212403,2|0,0:0|3:2,0:0:0:0:
269,110,18522,2,0,P|260:159|276:205,1,99.0000030212403,2|8,0:0|0:0,0:0:0:0:
468,44,18956,6,0,L|370:44,1,99.0000030212403,2|2,0:0|3:2,0:0:0:0:
182,43,19391,1,2,0:0:0:0:
376,167,19609,1,10,0:0:0:0:
189,167,19826,1,2,0:0:0:0:
370,44,20043,1,2,3:2:0:0:
386,262,20261,2,0,L|385:360,1,99.0000030212403,2|8,0:0|0:0,0:0:0:0:
276,205,20696,1,2,0:0:0:0:
116,308,20913,6,0,P|208:339|301:310,1,198.000006042481,2|8,3:2|0:0,0:0:0:0:
361,158,21565,1,2,0:0:0:0:
462,285,21782,1,2,3:2:0:0:
462,285,21891,1,10,0:0:0:0:
462,285,22000,1,2,0:0:0:0:
255,204,22217,1,10,0:0:0:0:
394,377,22435,1,2,0:0:0:0:
474,170,22652,6,0,P|444:79|356:42,1,198.000006042481,6|10,3:2|0:0,0:0:0:0:
163,158,23304,2,0,L|361:158,1,198.000006042481,2|0,0:0|0:0,0:0:0:0:
499,28,23956,1,10,0:0:0:0:
390,249,24174,6,0,P|366:206|360:158,1,99.0000030212403,2|2,0:0|3:2,0:0:0:0:
474,170,24609,1,0,0:0:0:0:
307,328,24826,1,10,0:0:0:0:
216,258,25043,2,0,P|300:214|390:250,1,198.000006042481,2|0,0:0|0:0,0:0:0:0:
200,371,25696,2,0,P|155:354|120:319,1,99.0000030212403,10|0,0:0|0:0,0:0:0:0:
295,115,26130,6,0,L|301:214,1,99.0000030212403,6|0,3:2|0:0,0:0:0:0:
119,110,26565,2,0,L|113:11,1,99.0000030212403,10|0,0:0|0:0,0:0:0:0:
172,195,27000,2,0,P|124:210|76:201,1,99.0000030212403,2|2,3:2|0:0,0:0:0:0:
241,29,27435,2,0,P|288:14|336:23,1,99.0000030212403,10|0,0:0|0:0,0:0:0:0:
429,197,27869,6,0,L|435:296,1,99.0000030212403,2|0,3:2|0:0,0:0:0:0:
295,115,28304,1,14,0:0:0:0:
512,142,28522,1,8,0:0:0:0:
512,142,28630,1,8,0:0:0:0:
512,142,28739,1,10,0:0:0:0:
291,273,28956,1,10,0:0:0:0:
262,269,29065,1,8,0:0:0:0:
233,266,29174,1,8,0:3:0:0:
204,263,29282,1,8,0:3:0:0:
176,259,29391,1,4,0:3:0:0:
147,256,29500,1,4,0:3:0:0:
118,253,29609,5,6,3:2:0:0:
256,192,29717,12,0,30913,0:0:0:0:
