osu file format v14

[General]
AudioFilename: audio.mp3
AudioLeadIn: 0
PreviewTime: 1673
Countdown: 0
SampleSet: Soft
StackLeniency: 0.7
Mode: 2
LetterboxInBreaks: 0
WidescreenStoryboard: 1

[Editor]
Bookmarks: 8738,12216,15695
DistanceSpacing: 1
BeatDivisor: 4
GridSize: 8
TimelineZoom: 1

[Metadata]
Title:Aozora Morning Glory (TV Size)
TitleUnicode:青空モーニンググローリー (TV Size)
Artist:Hanasaka Yui (CV: M.A.O)
ArtistUnicode:花坂結衣(CV: M·A·O)
Creator:Greaper
Version:Onedose
Source:One Room セカンドシーズン
Tags:bastian jorkseljund joni 第2期 oneroom season two second 2 kantoku lolis mao ichimichi
BeatmapID:2161970
BeatmapSetID:1033998

[Difficulty]
HPDrainRate:6
CircleSize:4.2
OverallDifficulty:9.2
ApproachRate:9.2
SliderMultiplier:2.1
SliderTickRate:2

[Events]
//Background and Video events
0,0,"bg.jpg",0,0
//Break Periods
//Storyboard Layer 0 (Background)
//Storyboard Layer 1 (Fail)
//Storyboard Layer 2 (Pass)
//Storyboard Layer 3 (Foreground)
//Storyboard Layer 4 (Overlay)
//Storyboard Sound Samples

[TimingPoints]
43,434.782608695652,4,2,11,10,1,0
260,-100,4,2,11,20,0,0
477,-100,4,2,11,30,0,0
695,-100,4,2,11,40,0,0
912,-100,4,2,11,50,0,0
1129,-100,4,2,11,60,0,0
1347,-100,4,2,11,65,0,0
1564,-100,4,2,11,70,0,0
1782,-100,4,2,11,75,0,0
6999,-100,4,2,11,80,0,0
8738,-100,4,2,11,75,0,0
12216,-100,4,2,11,80,0,0
13086,-100,4,2,11,75,0,0
13956,-100,4,2,11,80,0,0
14825,-100,4,2,11,75,0,0
15695,-83.3333333333333,4,2,11,90,0,1
17434,-83.3333333333333,4,2,11,85,0,1
19173,-83.3333333333333,4,2,11,80,0,1
20912,-83.3333333333333,4,2,11,85,0,1
22651,-83.3333333333333,4,2,11,90,0,1
24390,-83.3333333333333,4,2,11,85,0,1
26129,-83.3333333333333,4,2,11,90,0,1
27869,-83.3333333333333,4,2,11,95,0,1
29608,-100,4,2,11,80,0,0
29825,-100,4,2,11,70,0,0
30042,-100,4,2,11,60,0,0
30260,-100,4,2,11,50,0,0
30477,-100,4,2,11,40,0,0
30695,-100,4,2,11,20,0,0
30912,-100,4,2,11,5,0,0

[Colours]
Combo1 : 113,113,255
Combo2 : 255,191,128
Combo3 : 255,149,255
Combo4 : 217,255,145

[HitObjects]
256,192,43,12,0,1564,0:0:0:0:
428,274,1782,6,0,L|432:128,1,105,2|0,0:0|0:0,0:0:0:0:
158,168,2216,1,0,0:0:0:0:
328,109,2434,2,0,L|459:100,1,105,0|0,0:0|0:0,0:0:0:0:
157,97,2869,2,0,L|277:90,1,105,0|2,0:0|0:0,0:0:0:0:
93,61,3303,1,0,0:0:0:0:
368,46,3521,5,2,0:0:0:0:
92,132,3738,2,0,L|81:243,1,105,0|0,0:0|0:0,0:0:0:0:
255,255,4173,2,0,L|128:274,1,105,2|0,0:0|0:0,0:0:0:0:
321,303,4608,2,0,L|430:315,1,105,0|0,0:0|0:0,0:0:0:0:
151,203,5042,1,0,0:0:0:0:
426,190,5260,5,2,0:0:0:0:
257,138,5477,2,0,L|117:124,1,105,0|0,0:0|0:0,0:0:0:0:
323,27,5912,1,0,0:0:0:0:
46,22,6129,1,2,0:0:0:0:
329,81,6347,2,0,L|433:74,1,105,0|0,0:0|0:0,0:0:0:0:
156,180,6782,1,0,0:0:0:0:
104,173,6890,1,0,0:0:0:0:
344,182,6999,6,0,P|335:244|196:321,1,210,2|0,0:0|0:0,0:0:0:0:
115,316,7651,1,0,0:0:0:0:
391,248,7869,2,0,L|403:133,1,105,2|0,0:0|0:0,0:0:0:0:
225,94,8303,2,0,L|350:88,1,105,0|0,0:0|0:0,0:0:0:0:
52,89,8738,6,0,L|270:120,1,210,4|0,0:0|0:0,0:0:0:0:
81,157,9390,2,0,L|69:284,1,105,0|0,0:0|0:0,0:0:0:0:
250,256,9825,1,0,0:0:0:0:
79,277,10042,1,0,0:0:0:0:
362,286,10260,1,0,0:0:0:0:
415,287,10369,1,0,0:0:0:0:
178,161,10477,5,4,0:0:0:0:
348,139,10695,1,0,0:0:0:0:
180,108,10912,1,0,0:0:0:0:
459,101,11129,2,0,L|464:213,1,105,0|0,0:0|0:0,0:0:0:0:
285,169,11564,2,0,L|171:178,1,105,0|0,0:0|0:0,0:0:0:0:
360,227,11999,1,0,0:0:0:0:
75,237,12216,5,8,0:0:0:0:
255,177,12434,2,0,L|379:157,1,105,8|8,0:3|0:0,0:0:0:0:
189,127,12869,1,8,0:3:0:0:
88,114,13086,1,8,0:0:0:0:
266,91,13303,2,0,L|153:69,1,105,8|8,0:3|0:0,0:0:0:0:
442,49,13738,1,8,0:3:0:0:
123,51,13956,5,8,0:0:0:0:
293,113,14173,2,0,L|296:232,1,105,8|8,0:0|0:0,0:0:0:0:
117,215,14608,1,8,0:0:0:0:
395,211,14825,1,8,0:0:0:0:
447,172,14934,1,8,0:0:0:0:
432,107,15042,1,8,0:0:0:0:
379,86,15151,1,8,0:0:0:0:
193,85,15260,1,8,0:3:0:0:
136,75,15369,1,8,0:3:0:0:
321,43,15477,1,8,0:3:0:0:
375,29,15586,1,8,0:3:0:0:
91,154,15695,6,0,L|239:167,1,125.999996154785,4|0,0:0|0:0,0:0:0:0:
405,165,16129,1,8,0:0:0:0:
214,173,16347,2,0,L|206:299,1,125.999996154785,0|8,0:0|0:3,0:0:0:0:
486,236,16782,2,0,L|347:250,1,125.999996154785,0|8,0:0|0:0,0:0:0:0:
171,255,17216,1,0,0:0:0:0:
453,321,17434,5,10,0:3:0:0:
266,188,17651,2,0,L|129:177,1,125.999996154785,0|8,0:0|0:0,0:0:0:0:
419,189,18086,2,0,L|432:27,1,125.999996154785,0|8,0:0|0:3,0:0:0:0:
238,55,18521,2,0,L|373:48,1,125.999996154785,0|8,0:0|0:0,0:0:0:0:
162,48,18956,1,0,0:0:0:0:
446,117,19173,5,10,0:3:0:0:
242,117,19390,1,0,0:0:0:0:
458,60,19608,2,0,L|315:69,1,125.999996154785,8|0,0:0|0:0,0:0:0:0:
146,78,20042,1,10,0:3:0:0:
429,141,20260,2,0,L|419:273,1,125.999996154785,0|8,0:0|0:0,0:0:0:0:
204,267,20695,1,0,0:0:0:0:
481,66,20912,6,0,L|344:76,1,125.999996154785,10|0,0:3|0:0,0:0:0:0:
152,125,21347,2,0,L|7:142,1,125.999996154785,8|0,0:0|0:0,0:0:0:0:
312,184,21782,1,8,0:0:0:0:
375,186,21890,1,8,0:0:0:0:
154,213,21999,2,0,L|283:233,1,125.999996154785,0|8,0:0|0:0,0:0:0:0:
482,239,22434,1,0,0:0:0:0:
173,317,22651,6,0,L|31:301,1,125.999996154785,4|0,0:0|0:0,0:0:0:0:
252,144,23086,1,8,0:0:0:0:
50,121,23303,2,0,L|193:106,1,125.999996154785,0|8,0:0|0:3,0:0:0:0:
368,82,23738,1,0,0:0:0:0:
165,61,23956,1,8,0:0:0:0:
444,40,24173,1,0,0:0:0:0:
165,19,24390,5,10,0:3:0:0:
367,157,24608,2,0,L|238:168,1,125.999996154785,0|8,0:0|0:0,0:0:0:0:
446,168,25042,1,0,0:0:0:0:
254,295,25260,2,0,L|241:155,1,125.999996154785,8|0,0:3|0:0,0:0:0:0:
445,318,25695,2,0,L|451:189,1,125.999996154785,8|0,0:0|0:0,0:0:0:0:
169,107,26129,6,0,L|30:95,1,125.999996154785,4|0,0:0|0:0,0:0:0:0:
323,101,26564,2,0,L|458:84,1,125.999996154785,8|0,0:0|0:0,0:0:0:0:
246,295,26999,2,0,L|90:286,1,125.999996154785,8|0,0:3|0:0,0:0:0:0:
322,234,27434,2,0,L|166:219,1,125.999996154785,8|0,0:0|0:0,0:0:0:0:
477,290,27869,6,0,L|330:277,1,125.999996154785,10|0,0:3|0:0,0:0:0:0:
152,162,28303,1,8,0:0:0:0:
431,144,28521,1,8,0:0:0:0:
493,123,28629,1,8,0:0:0:0:
209,81,28738,1,8,0:3:0:0:
400,73,28956,1,8,0:0:0:0:
416,18,29064,1,8,0:0:0:0:
194,24,29173,1,8,0:0:0:0:
130,20,29282,1,8,0:3:0:0:
381,177,29390,1,8,0:3:0:0:
442,169,29499,1,8,0:3:0:0:
125,185,29608,5,6,0:0:0:0:
256,192,29825,12,0,30912,0:0:0:0:
