osu file format v14

[General]
AudioFilename: audio.mp3
AudioLeadIn: 0
PreviewTime: 1673
Countdown: 0
SampleSet: Soft
StackLeniency: 0.7
Mode: 2
LetterboxInBreaks: 0
WidescreenStoryboard: 1

[Editor]
Bookmarks: 8738,12216,15695
DistanceSpacing: 1.8
BeatDivisor: 4
GridSize: 8
TimelineZoom: 1

[Metadata]
Title:Aozora Morning Glory (TV Size)
TitleUnicode:青空モーニンググローリー (TV Size)
Artist:Hanasaka Yui (CV: M.A.O)
ArtistUnicode:花坂結衣(CV: M·A·O)
Creator:Greaper
Version:Bastian's Cup
Source:One Room セカンドシーズン
Tags:bastian jorkseljund joni 第2期 oneroom season two second 2 kantoku lolis mao ichimichi
BeatmapID:2162155
BeatmapSetID:1033998

[Difficulty]
HPDrainRate:3
CircleSize:2.5
OverallDifficulty:6
ApproachRate:6
SliderMultiplier:1.2
SliderTickRate:1

[Events]
//Background and Video events
0,0,"bg.jpg",0,0
//Break Periods
//Storyboard Layer 0 (Background)
//Storyboard Layer 1 (Fail)
//Storyboard Layer 2 (Pass)
//Storyboard Layer 3 (Foreground)
//Storyboard Layer 4 (Overlay)
//Storyboard Sound Samples

[TimingPoints]
43,434.782608695652,4,2,11,10,1,0
260,-100,4,2,11,20,0,0
477,-100,4,2,11,30,0,0
695,-100,4,2,11,40,0,0
912,-100,4,2,11,50,0,0
1129,-100,4,2,11,60,0,0
1347,-100,4,2,11,65,0,0
1564,-100,4,2,11,70,0,0
1782,-100,4,2,11,75,0,0
6999,-100,4,2,11,80,0,0
8738,-100,4,2,11,75,0,0
12216,-100,4,2,11,80,0,0
13086,-100,4,2,11,75,0,0
13956,-100,4,2,11,80,0,0
14825,-100,4,2,11,75,0,0
15695,-100,4,2,11,90,0,1
17434,-100,4,2,11,85,0,1
19173,-100,4,2,11,80,0,1
20912,-100,4,2,11,85,0,1
22651,-100,4,2,11,90,0,1
24390,-100,4,2,11,85,0,1
26129,-100,4,2,11,90,0,1
27869,-100,4,2,11,95,0,1
29608,-100,4,2,11,80,0,0
29825,-100,4,2,11,70,0,0
30042,-100,4,2,11,60,0,0
30260,-100,4,2,11,50,0,0
30477,-100,4,2,11,40,0,0
30695,-100,4,2,11,20,0,0
30912,-100,4,2,11,5,0,0

[Colours]
Combo1 : 113,113,255
Combo2 : 255,191,128
Combo3 : 255,149,255
Combo4 : 217,255,145

[HitObjects]
256,192,43,12,0,1347,0:0:0:0:
404,324,1782,6,0,L|479:205,1,120,2|0,0:0|0:0,0:0:0:0:
371,222,2434,1,0,0:0:0:0:
178,222,2869,1,0,0:0:0:0:
369,222,3303,6,0,L|369:93,1,120,0|0,0:0|0:0,0:0:0:0:
176,102,4173,2,0,L|315:102,1,120,2|0,0:0|0:0,0:0:0:0:
199,102,4825,1,0,0:0:0:0:
103,102,5042,6,0,P|69:141|122:193,1,120,0|0,0:0|0:0,0:0:0:0:
198,191,5695,1,0,0:0:0:0:
389,191,6129,2,0,L|464:192,1,60,2|0,0:0|0:0,0:0:0:0:
298,72,6782,1,0,0:0:0:0:
190,72,6999,6,0,P|111:147|191:221,1,240,2|2,0:0|0:0,0:0:0:0:
378,221,8303,1,0,0:0:0:0:
161,221,8738,6,0,L|122:90,1,120,4|0,0:0|0:0,0:0:0:0:
235,105,9390,2,0,P|278:117|303:244,1,180,0|0,0:0|0:0,0:0:0:0:
94,233,10477,6,0,P|65:196|115:130,1,120,4|0,0:0|0:0,0:0:0:0:
201,136,11129,2,0,L|128:35,1,120
227,38,11782,1,0,0:0:0:0:
418,38,12216,6,0,L|438:160,1,120,8|8,0:0|0:0,0:0:0:0:
234,256,13086,2,0,L|114:203,1,120,8|8,0:0|0:0,0:0:0:0:
232,207,13738,1,8,0:3:0:0:
340,203,13956,6,0,P|379:182|328:31,1,240,8|8,0:0|0:0,0:0:0:0:
225,31,15042,1,8,0:0:0:0:
116,31,15260,1,8,0:3:0:0:
332,31,15695,6,0,P|361:77|318:137,1,120,4|8,0:0|0:0,0:0:0:0:
236,130,16347,1,0,0:0:0:0:
43,130,16782,1,0,0:0:0:0:
236,130,17216,2,0,L|108:130,1,120,0|0,0:0|0:0,0:0:0:0:
308,130,18086,6,0,P|337:179|309:229,1,120,0|0,0:0|0:0,0:0:0:0:
93,229,18956,2,0,L|80:101,1,120,0|0,0:0|0:0,0:0:0:0:
177,109,19608,1,8,0:0:0:0:
368,109,20042,6,0,L|368:172,1,60,10|0,0:3|0:0,0:0:0:0:
175,169,20695,1,0,0:0:0:0:
67,169,20912,2,0,P|12:229|83:295,1,180,10|0,0:3|0:0,0:0:0:0:
257,292,21999,1,0,0:0:0:0:
351,294,22216,1,8,0:0:0:0:
134,294,22651,6,0,P|105:244|149:187,1,120,4|8,0:0|0:0,0:0:0:0:
240,194,23303,2,0,L|364:194,1,120,0|0,0:0|0:0,0:0:0:0:
251,194,23956,1,8,0:0:0:0:
35,194,24390,6,0,P|34:138|70:83,1,120,10|8,0:3|0:0,0:0:0:0:
163,85,25042,1,0,0:0:0:0:
355,85,25477,2,0,L|355:152,1,60,0|8,0:0|0:0,0:0:0:0:
246,145,25912,1,0,0:0:0:0:
138,145,26129,6,0,P|109:207|154:243,1,120,4|8,0:0|0:0,0:0:0:0:
330,239,26999,2,0,L|187:239,1,120,8|8,0:3|0:0,0:0:0:0:
402,239,27869,6,0,L|441:116,1,120,10|8,0:3|0:0,0:0:0:0:
246,124,28738,2,0,L|145:30,1,120
266,42,29390,1,8,0:3:0:0:
374,42,29608,5,6,0:0:0:0:
256,192,30042,12,0,30912,0:0:0:0:
