osu file format v14

[General]
AudioFilename: audio.mp3
AudioLeadIn: 0
PreviewTime: 15480
Countdown: 0
SampleSet: Normal
StackLeniency: 0.7
Mode: 1
LetterboxInBreaks: 0
WidescreenStoryboard: 1

[Editor]
DistanceSpacing: 0.1
BeatDivisor: 12
GridSize: 8
TimelineZoom: 1

[Metadata]
Title:Aozora Morning Glory (TV Size)
TitleUnicode:青空モーニンググローリー (TV Size)
Artist:Hanasaka Yui (CV: M.A.O)
ArtistUnicode:花坂結衣(CV: M·A·O)
Creator:Aljotzi
Version:Futsuu
Source:One Room セカンドシーズン
Tags:pop anime japanese oneroom season two second s2 カントク kantoku mao ichimichi 市道 真央 ワンルーム female solo vocals SMIRAL スマイラル 奥井康介 稲葉エミ Kosuke Okui Emi Inaba
BeatmapID:2965582
BeatmapSetID:1441562

[Difficulty]
HPDrainRate:8
CircleSize:2
OverallDifficulty:3
ApproachRate:3.7
SliderMultiplier:1.4
SliderTickRate:1

[Events]
//Background and Video events
0,0,"bg1.jpg",0,-30
//Break Periods
//Storyboard Layer 0 (Background)
//Storyboard Layer 1 (Fail)
//Storyboard Layer 2 (Pass)
//Storyboard Layer 3 (Foreground)
//Storyboard Layer 4 (Overlay)
//Storyboard Sound Samples

[TimingPoints]
45,434.782608695652,4,1,0,65,1,0
15697,-100,4,1,0,65,0,1
29610,-100,4,1,0,65,0,0

[HitObjects]
256,192,45,12,0,1349,0:0:0:0:
256,191,1784,5,8,0:0:0:0:
256,191,2436,1,0,0:0:0:0:
256,191,2871,1,8,0:0:0:0:
256,191,3305,1,8,0:0:0:0:
248,196,4175,1,0,0:0:0:0:
248,196,4610,1,8,0:0:0:0:
248,196,5044,1,0,0:0:0:0:
248,196,5479,1,0,0:0:0:0:
248,196,5697,1,8,0:0:0:0:
248,196,6131,1,8,0:0:0:0:
248,196,6349,1,0,0:0:0:0:
248,196,6784,1,0,0:0:0:0:
248,196,7001,1,8,0:0:0:0:
248,196,7871,1,0,0:0:0:0:
248,196,8740,1,12,0:0:0:0:
248,196,9392,1,8,0:0:0:0:
248,196,9827,1,0,0:0:0:0:
248,196,10262,1,8,0:0:0:0:
248,196,10479,1,4,0:0:0:0:
248,196,11349,1,0,0:0:0:0:
248,196,11784,1,0,0:0:0:0:
248,196,12218,1,12,0:0:0:0:
248,196,13088,1,8,0:0:0:0:
248,196,13523,1,8,0:0:0:0:
248,196,13958,1,8,0:0:0:0:
248,196,14827,1,8,0:0:0:0:
248,196,15262,1,8,0:0:0:0:
248,196,15479,1,0,0:0:0:0:
248,196,15697,1,12,0:0:0:0:
248,196,16131,1,8,0:0:0:0:
248,196,16349,1,0,0:0:0:0:
248,196,16784,1,8,0:0:0:0:
248,196,17001,1,0,0:0:0:0:
248,196,17218,1,8,0:0:0:0:
248,196,17653,1,8,0:0:0:0:
248,196,17871,1,8,0:0:0:0:
248,196,18088,1,0,0:0:0:0:
248,196,18523,1,8,0:0:0:0:
248,196,18740,1,0,0:0:0:0:
248,196,18958,1,0,0:0:0:0:
248,196,19392,1,0,0:0:0:0:
248,196,19610,1,8,0:0:0:0:
248,196,20044,1,8,0:0:0:0:
248,196,20262,1,8,0:0:0:0:
248,196,20697,1,8,0:0:0:0:
248,196,21566,1,0,0:0:0:0:
248,196,22001,1,8,0:0:0:0:
248,196,22218,1,8,0:0:0:0:
248,196,22436,1,0,0:0:0:0:
248,196,22653,1,12,0:0:0:0:
248,196,23088,1,8,0:0:0:0:
248,196,23305,1,0,0:0:0:0:
241,193,23740,1,0,0:0:0:0:
248,196,23958,1,0,0:0:0:0:
248,196,24175,1,8,0:0:0:0:
241,193,24610,1,8,0:0:0:0:
248,196,24827,1,8,0:0:0:0:
258,198,25044,1,0,0:0:0:0:
258,198,25479,1,0,0:0:0:0:
258,198,25697,1,0,0:0:0:0:
258,198,26131,1,12,0:0:0:0:
258,198,26566,1,8,0:0:0:0:
258,198,27001,1,0,0:0:0:0:
258,198,27436,1,0,0:0:0:0:
258,198,27871,1,8,0:0:0:0:
258,198,28305,1,0,0:0:0:0:
258,198,28740,1,0,0:0:0:0:
258,198,28958,1,0,0:0:0:0:
258,198,29175,1,0,0:0:0:0:
258,198,29610,1,12,0:0:0:0:
256,192,29827,12,8,30914,0:0:0:0:
