osu file format v14

[General]
AudioFilename: audio.mp3
AudioLeadIn: 0
PreviewTime: 178
Countdown: 0
SampleSet: Normal
StackLeniency: 0.7
Mode: 0
LetterboxInBreaks: 0
WidescreenStoryboard: 0

[Editor]
DistanceSpacing: 1
BeatDivisor: 4
GridSize: 16
TimelineZoom: 1.8

[Metadata]
Title:Harumachi Clover Crool cover (TV Size)
TitleUnicode:Harumachi Clover Crool cover (TV Size)
Artist:Hanasaka Yui (CV: M.A.O) (feat. crool)
ArtistUnicode:Hanasaka Yui (CV: M.A.O) (feat. crool)
Creator:Tuffiii
Version:Sub2Crool
Source:
Tags:
BeatmapID:1922403
BeatmapSetID:920552

[Difficulty]
HPDrainRate:6
CircleSize:3.7
OverallDifficulty:7
ApproachRate:9
SliderMultiplier:1.4
SliderTickRate:1

[Events]
//Background and Video events
0,0,"Artboard 1.png",0,0
//Break Periods
//Storyboard Layer 0 (Background)
//Storyboard Layer 1 (Fail)
//Storyboard Layer 2 (Pass)
//Storyboard Layer 3 (Foreground)
//Storyboard Sound Samples

[TimingPoints]
1340,422.535211267606,4,1,0,100,1,0
1340,-71.4285714285714,4,1,0,100,0,0

[HitObjects]
255,89,283,5,0,0:0:0:0:
135,174,494,1,0,0:0:0:0:
256,295,706,1,0,0:0:0:0:
354,192,917,2,0,L|456:192,1,70
176,33,1340,5,4,0:0:0:0:
168,261,1551,1,0,0:0:0:0:
349,158,1762,1,0,0:0:0:0:
121,150,1973,2,0,L|4:150,1,97.9999970092774
256,95,2396,2,0,L|348:39,1,97.9999970092774
351,173,2818,1,0,0:0:0:0:
323,214,2924,1,0,0:0:0:0:
294,253,3030,1,0,0:0:0:0:
108,141,3241,1,0,0:0:0:0:
304,58,3452,1,0,0:0:0:0:
255,191,3663,2,0,P|266:279|356:266,1,195.999994018555
304,58,4297,5,0,0:0:0:0:
126,160,4509,1,0,0:0:0:0:
275,197,4720,5,0,0:0:0:0:
173,18,4932,1,0,0:0:0:0:
357,136,5142,5,0,0:0:0:0:
179,238,5354,1,0,0:0:0:0:
380,350,5565,5,0,0:0:0:0:
275,197,5777,1,0,0:0:0:0:
498,271,5987,5,0,0:0:0:0:
396,92,6199,2,0,L|331:6,1,97.9999970092774
255,158,6621,1,0,0:0:0:0:
112,95,6832,2,0,P|19:106|21:196,1,195.999994018555
162,257,7466,2,0,L|268:277,1,97.9999970092774
176,152,7889,5,0,0:0:0:0:
205,113,7995,1,0,0:0:0:0:
233,72,8101,1,4,0:0:0:0:
280,278,8311,5,0,0:0:0:0:
364,103,8523,1,0,0:0:0:0:
166,187,8734,2,0,L|56:131,1,97.9999970092774
189,336,9156,2,0,P|277:326|304:291,1,97.9999970092774
228,208,9579,5,0,0:0:0:0:
187,180,9685,1,0,0:0:0:0:
148,151,9791,1,4,0:0:0:0:
115,367,10001,2,0,L|194:300,1,97.9999970092774
322,192,10424,2,0,P|353:156|355:98,1,97.9999970092774
84,138,10847,5,0,0:0:0:0:
123,167,10953,1,0,0:0:0:0:
163,195,11059,1,4,0:0:0:0:
245,280,11269,2,0,L|365:253,1,97.9999970092774
363,84,11692,5,0,0:0:0:0:
206,195,11903,1,0,0:0:0:0:
228,47,12114,1,0,0:0:0:0:
87,148,12325,1,0,0:0:0:0:
211,298,12537,2,0,L|331:323,2,97.9999970092774
206,54,13170,5,0,0:0:0:0:
58,248,13382,1,12,0:0:0:0:
304,61,13593,5,0,0:0:0:0:
498,209,13805,1,12,0:0:0:0:
254,236,14016,1,0,0:0:0:0:
253,211,14121,1,0,0:0:0:0:
254,186,14227,1,0,0:0:0:0:
255,161,14332,1,0,0:0:0:0:
255,136,14438,1,0,0:0:0:0:
255,111,14544,2,0,L|255:57,1,48.9999985046387
47,192,14861,6,0,L|119:281,1,97.9999970092774
254,186,15283,5,0,0:0:0:0:
106,44,15494,1,0,0:0:0:0:
81,251,15706,1,0,0:0:0:0:
189,100,15917,5,0,0:0:0:0:
395,71,16129,1,0,0:0:0:0:
297,251,16340,1,0,0:0:0:0:
293,56,16551,5,0,0:0:0:0:
128,193,16762,1,0,0:0:0:0:
297,251,16973,6,0,L|369:340,1,97.9999970092774
362,73,17396,5,0,0:0:0:0:
444,270,17607,1,0,0:0:0:0:
243,96,17818,1,0,0:0:0:0:
316,286,18029,1,0,0:0:0:0:
83,154,18241,6,0,L|0:204,2,97.9999970092774
293,251,18875,1,0,0:0:0:0:
177,135,19086,1,0,0:0:0:0:
293,21,19297,1,0,0:0:0:0:
407,135,19509,1,0,0:0:0:0:
288,139,19720,5,0,0:0:0:0:
404,254,19931,1,0,0:0:0:0:
224,288,20142,2,0,L|135:359,1,97.9999970092774
127,192,20565,1,0,0:0:0:0:
126,167,20670,1,0,0:0:0:0:
123,142,20776,1,4,0:0:0:0:
341,74,20987,5,0,0:0:0:0:
257,256,21199,1,0,0:0:0:0:
258,91,21410,1,0,0:0:0:0:
257,66,21515,1,0,0:0:0:0:
254,41,21621,1,4,0:0:0:0:
99,94,21832,5,0,0:0:0:0:
18,255,22044,1,0,0:0:0:0:
225,257,22255,1,0,0:0:0:0:
250,256,22360,1,0,0:0:0:0:
275,253,22466,1,4,0:0:0:0:
430,147,22678,5,0,0:0:0:0:
252,35,22890,1,0,0:0:0:0:
255,302,23100,1,4,0:0:0:0:
102,193,23523,1,0,0:0:0:0:
78,194,23628,1,0,0:0:0:0:
52,197,23734,1,4,0:0:0:0:
226,46,23945,1,0,0:0:0:0:
402,192,24156,1,0,0:0:0:0:
256,368,24368,1,0,0:0:0:0:
96,193,24579,6,0,L|96:61,1,97.9999970092774
416,191,25001,2,0,L|416:323,1,97.9999970092774
256,120,25424,1,0,0:0:0:0:
146,260,25635,1,0,0:0:0:0:
131,280,25741,1,0,0:0:0:0:
116,299,25847,1,0,0:0:0:0:
81,79,26058,1,0,0:0:0:0:
336,272,26269,1,0,0:0:0:0:
305,97,26480,6,0,L|370:24,1,97.9999970092774
401,255,26903,1,0,0:0:0:0:
63,159,27114,1,0,0:0:0:0:
309,338,27325,2,0,P|327:274|310:224,1,97.9999970092774
233,274,27748,1,0,0:0:0:0:
189,252,27853,1,0,0:0:0:0:
159,212,27959,1,0,0:0:0:0:
154,163,28064,1,0,0:0:0:0:
183,123,28170,1,0,0:0:0:0:
221,153,28276,1,0,0:0:0:0:
256,186,28381,1,4,0:0:0:0:
256,192,28593,12,0,30072,0:0:0:0:
