osu file format v14

[General]
AudioFilename: audio.mp3
AudioLeadIn: 0
PreviewTime: 178
Countdown: 0
SampleSet: None
StackLeniency: 0.7
Mode: 0
LetterboxInBreaks: 0
WidescreenStoryboard: 1

[Editor]
Bookmarks: 11269
DistanceSpacing: 0.5
BeatDivisor: 2
GridSize: 16
TimelineZoom: 1.8

[Metadata]
Title:Harumachi Clover Crool cover (TV Size)
TitleUnicode:Harumachi Clover Crool cover (TV Size)
Artist:Hanasaka Yui (CV: M.A.O) (feat. crool)
ArtistUnicode:Hanasaka Yui (CV: M.A.O) (feat. crool)
Creator:Tuffiii
Version:Fjelltarks 1-2
Source:
Tags:
BeatmapID:1994887
BeatmapSetID:920552

[Difficulty]
HPDrainRate:8
CircleSize:3.7
OverallDifficulty:9
ApproachRate:9.3
SliderMultiplier:1.4
SliderTickRate:1

[Events]
//Background and Video events
0,0,"Artboard 1.png",0,0
//Break Periods
//Storyboard Layer 0 (Background)
//Storyboard Layer 1 (Fail)
//Storyboard Layer 2 (Pass)
//Storyboard Layer 3 (Foreground)
//Storyboard Sound Samples

[TimingPoints]
1340,422.535211267606,4,3,0,100,1,0
1340,-71.4285714285714,4,3,0,100,0,0

[HitObjects]
80,64,1340,5,8,0:0:0:0:
96,288,1551,1,0,0:0:0:0:
274,124,1762,5,8,0:0:0:0:
96,226,1973,1,0,0:0:0:0:
187,50,2185,5,8,0:0:0:0:
324,224,2396,1,0,0:0:0:0:
398,31,2607,5,8,0:0:0:0:
256,157,2818,1,0,0:0:0:0:
296,342,3030,5,8,0:0:0:0:
257,82,3241,1,0,0:0:0:0:
160,272,3452,5,8,0:0:0:0:
384,304,3663,1,0,0:0:0:0:
384,304,3769,1,0,0:0:0:0:
384,304,3875,1,4,0:0:0:0:
171,118,4086,5,0,0:0:0:0:
105,372,4298,1,0,0:0:0:0:
138,249,4509,1,0,0:0:0:0:
239,273,4720,2,0,P|286:272|314:234,1,97.9999970092774
253,72,5142,5,8,0:0:0:0:
104,263,5354,1,0,0:0:0:0:
220,345,5565,5,8,0:0:0:0:
372,203,5776,1,0,0:0:0:0:
368,32,5987,5,8,0:0:0:0:
480,256,6199,1,8,0:0:0:0:
480,256,6304,1,0,0:0:0:0:
480,256,6410,1,4,0:0:0:0:
368,32,6621,5,8,0:0:0:0:
215,237,6833,1,0,0:0:0:0:
293,131,7044,1,0,0:0:0:0:
393,176,7255,5,8,0:0:0:0:
79,211,7466,1,8,0:0:0:0:
187,121,7678,5,8,0:0:0:0:
250,329,7889,1,0,0:0:0:0:
349,64,8100,1,8,0:0:0:0:
124,314,8311,1,0,0:0:0:0:
43,96,8523,5,8,0:0:0:0:
198,65,8734,1,0,0:0:0:0:
258,303,8945,5,8,0:0:0:0:
85,211,9156,1,0,0:0:0:0:
382,283,9368,5,8,0:0:0:0:
375,114,9579,1,0,0:0:0:0:
212,222,9790,1,4,0:0:0:0:
135,90,10001,5,8,0:0:0:0:
266,222,10213,1,0,0:0:0:0:
87,170,10424,1,8,0:0:0:0:
262,108,10635,1,0,0:0:0:0:
141,250,10847,5,0,0:0:0:0:
89,71,11058,1,8,0:0:0:0:
258,147,11269,1,0,0:0:0:0:
437,97,11480,5,0,0:0:0:0:
328,249,11692,1,0,0:0:0:0:
281,68,11903,5,0,0:0:0:0:
417,193,12114,1,0,0:0:0:0:
233,225,12325,5,0,0:0:0:0:
342,73,12537,1,8,0:0:0:0:
357,258,12748,5,0,0:0:0:0:
213,140,12959,1,8,0:0:0:0:
71,104,13170,5,0,0:0:0:0:
381,359,13382,1,8,0:0:0:0:
419,29,13593,5,0,0:0:0:0:
258,265,13804,1,8,0:0:0:0:
385,214,14016,5,0,0:0:0:0:
226,72,14227,1,0,0:0:0:0:
108,183,14438,5,8,0:0:0:0:
121,204,14544,1,0,0:0:0:0:
137,224,14649,1,4,0:0:0:0:
155,240,14755,1,0,0:0:0:0:
174,255,14861,1,4,0:0:0:0:
387,301,15072,5,0,0:0:0:0:
309,65,15283,1,4,0:0:0:0:
187,124,15494,5,0,0:0:0:0:
360,242,15706,1,4,0:0:0:0:
433,103,15917,5,0,0:0:0:0:
254,326,16128,1,0,0:0:0:0:
342,47,16340,5,0,0:0:0:0:
172,268,16551,1,4,0:0:0:0:
172,153,16762,5,0,0:0:0:0:
473,45,16973,1,4,0:0:0:0:
372,225,17185,5,0,0:0:0:0:
163,71,17396,1,4,0:0:0:0:
235,42,17607,5,0,0:0:0:0:
383,262,17818,1,4,0:0:0:0:
107,209,18030,5,0,0:0:0:0:
140,46,18241,1,4,0:0:0:0:
265,257,18452,5,0,0:0:0:0:
326,76,18663,1,4,0:0:0:0:
291,300,18875,5,0,0:0:0:0:
116,61,19086,1,4,0:0:0:0:
182,323,19297,5,0,0:0:0:0:
456,162,19509,1,4,0:0:0:0:
391,72,19720,5,0,0:0:0:0:
163,196,19931,1,4,0:0:0:0:
419,267,20142,5,0,0:0:0:0:
93,92,20354,1,4,0:0:0:0:
114,238,20565,5,0,0:0:0:0:
233,120,20776,1,4,0:0:0:0:
276,285,20987,1,0,0:0:0:0:
101,149,21199,1,4,0:0:0:0:
365,192,21410,1,0,0:0:0:0:
168,312,21621,1,4,0:0:0:0:
241,62,21832,5,0,0:0:0:0:
401,261,22044,1,4,0:0:0:0:
95,103,22255,1,0,0:0:0:0:
155,299,22466,1,4,0:0:0:0:
326,78,22678,5,0,0:0:0:0:
105,237,22889,1,0,0:0:0:0:
228,158,23100,1,0,0:0:0:0:
356,276,23311,5,0,0:0:0:0:
122,59,23523,1,0,0:0:0:0:
427,42,23734,5,0,0:0:0:0:
457,264,23945,1,0,0:0:0:0:
321,54,24156,5,0,0:0:0:0:
282,258,24368,1,0,0:0:0:0:
61,198,24579,5,0,0:0:0:0:
370,141,24790,1,0,0:0:0:0:
264,308,25001,5,0,0:0:0:0:
134,51,25213,1,0,0:0:0:0:
336,105,25424,5,0,0:0:0:0:
190,312,25635,1,0,0:0:0:0:
130,76,25847,5,0,0:0:0:0:
355,295,26058,1,0,0:0:0:0:
246,251,26269,5,0,0:0:0:0:
275,38,26480,1,0,0:0:0:0:
144,97,26692,5,0,0:0:0:0:
266,312,26903,1,0,0:0:0:0:
352,110,27114,5,0,0:0:0:0:
391,238,27325,1,0,0:0:0:0:
263,185,27537,5,0,0:0:0:0:
425,150,27748,1,0,0:0:0:0:
298,74,27959,5,0,0:0:0:0:
276,306,28170,1,0,0:0:0:0:
152,181,28382,5,0,0:0:0:0:
256,192,28593,12,0,29861,0:0:0:0:
