osu file format v14

[General]
AudioFilename: audio.mp3
AudioLeadIn: 0
PreviewTime: -1
Countdown: 0
SampleSet: None
StackLeniency: 0.7
Mode: 3
LetterboxInBreaks: 0
SpecialStyle: 1
WidescreenStoryboard: 1

[Editor]
DistanceSpacing: 1.2
BeatDivisor: 6
GridSize: 4
TimelineZoom: 1

[Metadata]
Title:Harumachi Clover
TitleUnicode:Harumachi Clover
Artist:Hanasaka Yui (CV: M. A. O.)
ArtistUnicode:Hanasaka Yui (CV: M. A. O.)
Creator:DeadlyMffin
Version:Mffin vs. Kenneth
Source:One Room
Tags:pp, harumachi clover, xd pp, clover, harumachi, one room
BeatmapID:1897904
BeatmapSetID:909505

[Difficulty]
HPDrainRate:6
CircleSize:4
OverallDifficulty:10
ApproachRate:9.3
SliderMultiplier:1.4
SliderTickRate:1

[Events]
//Background and Video events
0,0,"maxresdefault (1).jpg",0,0
//Break Periods
//Storyboard Layer 0 (Background)
//Storyboard Layer 1 (Fail)
//Storyboard Layer 2 (Pass)
//Storyboard Layer 3 (Foreground)
//Storyboard Sound Samples

[TimingPoints]
0,410.958904109589,4,2,1,100,1,0

[HitObjects]
64,192,719,5,0,0:0:0:0:
448,192,958,1,0,0:0:0:0:
192,192,1164,1,0,0:0:0:0:
320,192,1369,1,0,0:0:0:0:
64,192,1575,1,0,0:0:0:0:
448,192,1780,128,0,2465:0:0:0:0:
64,192,1986,1,0,0:0:0:0:
192,192,2260,1,0,0:0:0:0:
320,192,2465,1,0,0:0:0:0:
448,192,2671,1,0,0:0:0:0:
64,192,2671,1,0,0:0:0:0:
320,192,2876,1,0,0:0:0:0:
64,192,2876,1,0,0:0:0:0:
448,192,3082,1,0,0:0:0:0:
320,192,3082,1,0,0:0:0:0:
64,192,3287,128,0,5000:0:0:0:0:
320,192,3287,1,0,0:0:0:0:
192,192,3493,1,0,0:0:0:0:
320,192,3698,1,0,0:0:0:0:
448,192,3904,1,0,0:0:0:0:
192,192,4109,1,0,0:0:0:0:
320,192,4246,1,0,0:0:0:0:
448,192,4383,1,0,0:0:0:0:
192,192,4589,1,0,0:0:0:0:
448,192,4794,1,0,0:0:0:0:
448,192,5000,1,0,0:0:0:0:
192,192,5205,1,0,0:0:0:0:
448,192,5410,1,0,0:0:0:0:
64,192,5616,1,0,0:0:0:0:
448,192,5821,1,0,0:0:0:0:
64,192,6027,1,0,0:0:0:0:
320,192,6027,1,0,0:0:0:0:
448,192,6232,1,0,0:0:0:0:
192,192,6232,1,0,0:0:0:0:
64,192,6438,128,0,6643:0:0:0:0:
320,192,6643,128,0,6849:0:0:0:0:
192,192,6849,128,0,7054:0:0:0:0:
448,192,7054,1,0,0:0:0:0:
64,192,7054,128,0,7328:0:0:0:0:
448,192,7328,1,0,0:0:0:0:
320,192,7328,128,0,7808:0:0:0:0:
448,192,7534,1,0,0:0:0:0:
192,192,7602,1,0,0:0:0:0:
64,192,7671,1,0,0:0:0:0:
192,192,7945,1,0,0:0:0:0:
320,192,8150,1,0,0:0:0:0:
64,192,8356,1,0,0:0:0:0:
320,192,8561,1,0,0:0:0:0:
192,192,8767,1,0,0:0:0:0:
320,192,8972,128,0,9178:0:0:0:0:
64,192,9178,1,0,0:0:0:0:
192,192,9452,128,0,9657:0:0:0:0:
448,192,9657,1,0,0:0:0:0:
320,192,9863,128,0,10479:0:0:0:0:
192,192,10068,128,0,10479:0:0:0:0:
448,192,10136,1,0,0:0:0:0:
64,192,10205,1,0,0:0:0:0:
64,192,10479,1,0,0:0:0:0:
64,192,10684,1,0,0:0:0:0:
192,192,10890,1,0,0:0:0:0:
320,192,11095,1,0,0:0:0:0:
448,192,11301,1,0,0:0:0:0:
320,192,11506,128,0,11986:0:0:0:0:
192,192,11712,128,0,11986:0:0:0:0:
448,192,11712,1,0,0:0:0:0:
64,192,11849,1,0,0:0:0:0:
448,192,11986,1,0,0:0:0:0:
64,192,12191,1,0,0:0:0:0:
64,192,12397,1,0,0:0:0:0:
320,192,12602,1,0,0:0:0:0:
320,192,12808,1,0,0:0:0:0:
320,192,13013,1,0,0:0:0:0:
320,192,13219,1,8,0:0:0:0:
64,192,13424,1,8,0:0:0:0:
448,192,13630,1,8,0:0:0:0:
192,192,13835,1,8,0:0:0:0:
448,192,14041,1,8,0:0:0:0:
64,192,14246,1,8,0:0:0:0:
448,192,14452,1,8,0:0:0:0:
64,192,14657,1,8,0:0:0:0:
448,192,14863,1,0,0:0:0:0:
320,192,14931,1,0,0:0:0:0:
192,192,15000,1,0,0:0:0:0:
64,192,15068,1,0,0:0:0:0:
192,192,15136,1,0,0:0:0:0:
320,192,15205,1,0,0:0:0:0:
448,192,15342,1,0,0:0:0:0:
64,192,15547,1,0,0:0:0:0:
448,192,15753,1,0,0:0:0:0:
64,192,15958,128,0,16369:0:0:0:0:
192,192,16164,128,0,16369:0:0:0:0:
320,192,16369,1,0,0:0:0:0:
448,192,16575,128,0,17054:0:0:0:0:
320,192,16780,128,0,17054:0:0:0:0:
192,192,17054,1,0,0:0:0:0:
320,192,17260,1,0,0:0:0:0:
448,192,17465,1,0,0:0:0:0:
64,192,17671,128,0,18287:0:0:0:0:
192,192,17876,1,0,0:0:0:0:
192,192,18082,1,0,0:0:0:0:
192,192,18287,1,0,0:0:0:0:
448,192,18493,1,0,0:0:0:0:
320,192,18493,1,0,0:0:0:0:
64,192,18698,1,0,0:0:0:0:
192,192,18698,1,0,0:0:0:0:
448,192,18904,1,0,0:0:0:0:
64,192,19109,1,0,0:0:0:0:
448,192,19383,1,0,0:0:0:0:
320,192,19383,1,0,0:0:0:0:
64,192,19589,128,0,19794:0:0:0:0:
192,192,19794,1,0,0:0:0:0:
448,192,20000,1,0,0:0:0:0:
192,192,20205,1,0,0:0:0:0:
448,192,20410,128,0,20821:0:0:0:0:
320,192,20616,128,0,20821:0:0:0:0:
192,192,20821,1,0,0:0:0:0:
448,192,21027,128,0,21438:0:0:0:0:
64,192,21643,128,0,22123:0:0:0:0:
192,192,21849,1,0,0:0:0:0:
320,192,22123,1,0,0:0:0:0:
448,192,22328,128,0,22739:0:0:0:0:
320,192,22534,1,0,0:0:0:0:
320,192,22739,1,0,0:0:0:0:
64,192,22945,1,0,0:0:0:0:
320,192,23150,1,0,0:0:0:0:
192,192,23356,1,0,0:0:0:0:
448,192,23561,128,0,23972:0:0:0:0:
320,192,23972,1,0,0:0:0:0:
64,192,24178,1,0,0:0:0:0:
448,192,24383,1,0,0:0:0:0:
192,192,24589,1,0,0:0:0:0:
320,192,24863,1,0,0:0:0:0:
64,192,25068,1,0,0:0:0:0:
448,192,25273,128,0,25684:0:0:0:0:
64,192,25273,1,0,0:0:0:0:
64,192,25684,1,0,0:0:0:0:
448,192,25890,1,0,0:0:0:0:
192,192,26095,1,0,0:0:0:0:
320,192,26164,1,0,0:0:0:0:
64,192,26232,1,0,0:0:0:0:
448,192,26506,1,0,0:0:0:0:
192,192,26712,1,0,0:0:0:0:
64,192,26917,128,0,28150:0:0:0:0:
448,192,27328,128,0,28150:0:0:0:0:
192,192,27534,1,0,0:0:0:0:
320,192,27739,1,0,0:0:0:0:
192,192,27808,1,0,0:0:0:0:
320,192,27876,1,0,0:0:0:0:
192,192,27945,1,0,0:0:0:0:
320,192,28150,1,0,0:0:0:0:
192,192,28150,1,0,0:0:0:0:
448,192,28424,1,0,0:0:0:0:
320,192,28424,1,0,0:0:0:0:
64,192,28630,1,0,0:0:0:0:
192,192,28630,1,0,0:0:0:0:
448,192,28835,128,0,30000:0:0:0:0:
