osu file format v14

[General]
AudioFilename: audio.mp3
AudioLeadIn: 0
PreviewTime: 18840
Countdown: 0
SampleSet: Normal
StackLeniency: 0.7
Mode: 0
LetterboxInBreaks: 0
WidescreenStoryboard: 1

[Editor]
Bookmarks: 23693
DistanceSpacing: 0.5
BeatDivisor: 4
GridSize: 4
TimelineZoom: 1

[Metadata]
Title:Harumachi Rover
TitleUnicode:Harumachi Rover
Artist:Hanasaka Yui & Vickeblanka
ArtistUnicode:Hanasaka Yui & Vickeblanka
Creator:Mijn Tap Zuigt
Version:Extra
Source:
Tags:harumachi clover black rover oneroom Pepega good mapping sotarks 1-2 jumps no streams
BeatmapID:2048175
BeatmapSetID:976995

[Difficulty]
HPDrainRate:5
CircleSize:4
OverallDifficulty:7
ApproachRate:9.2
SliderMultiplier:1.4
SliderTickRate:1

[Events]
//Background and Video events
0,0,"oneroom.png",0,0
//Break Periods
//Storyboard Layer 0 (Background)
//Storyboard Layer 1 (Fail)
//Storyboard Layer 2 (Pass)
//Storyboard Layer 3 (Foreground)
//Storyboard Sound Samples

[TimingPoints]
271,422.535211267606,4,1,1,50,1,0
3651,-76.9230769230769,4,1,1,50,0,0
13988,294.117647058824,4,1,0,50,1,0
14135,-71.4285714285714,4,1,0,50,0,0
23693,-71.4285714285714,4,1,0,50,0,1
33105,-100,4,1,0,50,0,0
35458,-66.6666666666667,4,1,0,50,0,0
42517,-100,4,1,0,50,0,0

[Colours]
Combo1 : 255,192,0
Combo2 : 0,202,0
Combo3 : 18,124,255
Combo4 : 242,24,57

[HitObjects]
92,71,271,5,0,0:0:0:0:
120,220,482,1,0,0:0:0:0:
202,71,693,1,0,0:0:0:0:
205,206,904,1,0,0:0:0:0:
54,139,1116,1,0,0:0:0:0:
358,211,1327,6,0,L|269:179,1,70
177,146,1749,1,0,0:0:0:0:
410,76,1961,1,0,0:0:0:0:
194,71,2172,5,0,0:0:0:0:
420,156,2383,1,0,0:0:0:0:
309,52,2594,1,0,0:0:0:0:
256,220,2806,1,0,0:0:0:0:
256,220,2911,1,0,0:0:0:0:
256,220,3017,1,0,0:0:0:0:
199,82,3228,5,0,0:0:0:0:
134,238,3440,1,0,0:0:0:0:
32,110,3651,2,0,P|64:170|83:87,1,181.999991668702
58,30,4285,1,0,0:0:0:0:
71,264,4496,1,0,0:0:0:0:
186,163,4707,2,0,L|198:271,1,90.9999958343508
92,358,5130,5,0,0:0:0:0:
261,315,5341,1,0,0:0:0:0:
137,289,5552,1,0,0:0:0:0:
287,214,5763,1,0,0:0:0:0:
254,331,5975,1,0,0:0:0:0:
417,238,6186,5,0,0:0:0:0:
436,356,6397,2,0,L|337:342,1,90.9999958343508
494,275,6820,1,0,0:0:0:0:
346,263,7031,1,0,0:0:0:0:
346,263,7137,1,0,0:0:0:0:
346,263,7242,1,0,0:0:0:0:
461,143,7454,5,0,0:0:0:0:
335,70,7665,1,0,0:0:0:0:
422,249,7876,1,0,0:0:0:0:
234,81,8087,2,0,L|279:173,1,90.9999958343508
260,273,8510,5,0,0:0:0:0:
361,150,8721,1,0,0:0:0:0:
374,306,8932,1,0,0:0:0:0:
361,150,9144,1,0,0:0:0:0:
193,180,9355,5,0,0:0:0:0:
357,231,9566,1,0,0:0:0:0:
306,85,9778,2,0,L|421:55,1,90.9999958343508
481,37,10200,5,0,0:0:0:0:
426,182,10411,1,0,0:0:0:0:
306,85,10623,1,0,0:0:0:0:
201,157,10834,1,0,0:0:0:0:
113,88,11045,1,0,0:0:0:0:
56,175,11256,1,0,0:0:0:0:
56,175,11362,1,0,0:0:0:0:
56,175,11468,1,0,0:0:0:0:
233,72,11679,5,0,0:0:0:0:
126,272,11890,1,0,0:0:0:0:
146,72,12101,1,0,0:0:0:0:
213,268,12313,5,0,0:0:0:0:
67,110,12524,1,0,0:0:0:0:
296,195,12735,1,0,0:0:0:0:
71,205,12947,1,0,0:0:0:0:
251,127,13158,2,0,P|300:112|377:219,1,181.999991668702
479,300,13721,2,0,L|332:303,1,136.499993751526
259,371,14135,6,0,P|291:335|283:174,1,195.999994018555
162,39,14576,2,0,P|161:97|190:143,1,97.9999970092774
209,307,14870,2,0,P|228:252|156:301,1,195.999994018555
56,340,15311,1,0,0:0:0:0:
31,179,15458,2,0,P|88:163|146:184,1,97.9999970092774
455,242,15752,2,0,P|398:258|340:237,1,97.9999970092774
237,144,16046,5,0,0:0:0:0:
279,276,16193,1,0,0:0:0:0:
329,126,16340,1,0,0:0:0:0:
362,250,16488,2,0,P|364:307|237:343,1,195.999994018555
55,267,16929,2,0,P|129:262|152:282,1,97.9999970092774
451,256,17223,2,0,P|377:261|354:241,1,97.9999970092774
358,131,17517,2,0,P|282:142|242:112,1,97.9999970092774
180,19,17811,6,0,P|192:81|164:114,1,97.9999970092774
50,178,18105,2,0,P|38:116|66:83,1,97.9999970092774
292,57,18399,1,0,0:0:0:0:
119,273,18546,1,0,0:0:0:0:
112,136,18693,1,0,0:0:0:0:
52,258,18840,2,0,P|95:343|177:308,1,195.999994018555
247,299,19282,6,0,P|299:280|353:296,1,97.9999970092774
415,174,19576,1,0,0:0:0:0:
199,220,19723,1,0,0:0:0:0:
301,146,19870,2,0,P|282:83|182:105,1,146.999995513916
136,45,20164,2,0,L|173:147,1,97.9999970092774
240,310,20458,2,0,L|197:215,1,97.9999970092774
74,155,20752,5,0,0:0:0:0:
262,121,20899,1,0,0:0:0:0:
116,250,21046,1,0,0:0:0:0:
352,293,21193,2,0,L|258:114,1,195.999994018555
193,51,21635,5,0,0:0:0:0:
213,269,21782,1,0,0:0:0:0:
322,84,21929,1,0,0:0:0:0:
170,155,22076,1,0,0:0:0:0:
238,193,22223,1,0,0:0:0:0:
140,229,22370,1,0,0:0:0:0:
346,186,22517,2,0,P|400:243|322:226,1,195.999994018555
204,285,22958,5,0,0:0:0:0:
204,285,23032,1,0,0:0:0:0:
204,285,23105,1,0,0:0:0:0:
68,170,23252,1,0,0:0:0:0:
68,285,23399,1,0,0:0:0:0:
205,171,23546,1,0,0:0:0:0:
191,261,23693,5,10,0:0:0:0:
127,103,23840,1,0,0:0:0:0:
249,226,23988,5,10,0:0:0:0:
115,93,24135,1,0,0:0:0:0:
280,174,24282,5,10,0:0:0:0:
105,83,24429,1,0,0:0:0:0:
299,117,24576,5,10,0:0:0:0:
96,73,24723,1,0,0:0:0:0:
215,268,24870,5,10,0:0:0:0:
298,120,25017,1,0,0:0:0:0:
287,274,25164,5,10,0:0:0:0:
301,113,25311,1,0,0:0:0:0:
352,270,25458,5,10,0:0:0:0:
303,109,25605,1,0,0:0:0:0:
412,246,25752,5,10,0:0:0:0:
306,102,25899,1,0,0:0:0:0:
297,306,26046,5,10,0:0:0:0:
228,100,26193,1,0,0:0:0:0:
224,318,26340,5,10,0:0:0:0:
308,95,26488,1,0,0:0:0:0:
373,262,26635,5,10,0:0:0:0:
170,150,26782,1,0,0:0:0:0:
375,173,26929,5,10,0:0:0:0:
126,231,27076,1,0,0:0:0:0:
250,74,27223,5,10,0:0:0:0:
329,302,27370,1,0,0:0:0:0:
310,130,27517,5,10,0:0:0:0:
217,294,27664,1,0,0:0:0:0:
337,196,27811,5,10,0:0:0:0:
144,231,27958,1,0,0:0:0:0:
299,262,28105,5,10,0:0:0:0:
139,153,28252,1,0,0:0:0:0:
111,292,28399,5,10,0:0:0:0:
154,137,28546,1,0,0:0:0:0:
225,305,28693,5,10,0:0:0:0:
221,108,28840,1,0,0:0:0:0:
301,304,28988,5,10,0:0:0:0:
294,94,29135,1,0,0:0:0:0:
396,301,29282,5,10,0:0:0:0:
351,71,29429,1,0,0:0:0:0:
190,244,29576,5,10,0:0:0:0:
346,200,29723,1,0,0:0:0:0:
190,173,29870,5,10,0:0:0:0:
356,208,30017,1,0,0:0:0:0:
221,108,30164,5,10,0:0:0:0:
366,212,30311,1,0,0:0:0:0:
275,70,30458,5,10,0:0:0:0:
377,219,30605,1,0,0:0:0:0:
225,273,30752,5,10,0:0:0:0:
316,133,30899,1,0,0:0:0:0:
316,267,31046,5,10,0:0:0:0:
219,132,31193,1,0,0:0:0:0:
220,286,31340,5,10,0:0:0:0:
328,125,31487,1,0,0:0:0:0:
328,280,31634,5,10,0:0:0:0:
215,122,31781,1,0,0:0:0:0:
394,234,31929,5,10,0:0:0:0:
162,177,32076,1,0,0:0:0:0:
397,161,32223,5,10,0:0:0:0:
175,235,32370,1,0,0:0:0:0:
387,232,32517,5,10,0:0:0:0:
144,176,32664,1,12,0:0:0:0:
389,163,32811,5,14,0:0:0:0:
147,241,32958,1,14,0:0:0:0:
304,72,33105,2,0,P|246:96|329:114,1,210
327,228,33693,2,2,P|280:235|161:114,1,210,10|2,0:0|0:0,0:0:0:0:
117,5,34282,2,2,B|131:82|80:114|80:114|21:161|38:237,1,245,14|2,0:0|0:0,0:0:0:0:
0,315,34870,2,8,P|43:291|143:291,1,140
341,329,35311,1,0,0:0:0:0:
265,223,35458,6,0,P|327:231|374:199,1,105.000004005432
439,145,35752,1,8,0:0:0:0:
305,149,35899,1,8,0:0:0:0:
421,38,36046,1,8,0:0:0:0:
421,38,36193,1,8,0:0:0:0:
278,62,36340,2,0,P|217:75|162:46,1,105.000004005432,2|0,0:0|0:0,0:0:0:0:
98,40,36635,5,8,0:0:0:0:
177,194,36782,1,8,0:0:0:0:
178,61,36929,1,8,0:0:0:0:
113,145,37076,2,8,L|48:256,1,105.000004005432,8|0,0:0|0:0,0:0:0:0:
101,323,37370,1,8,0:0:0:0:
201,303,37517,2,0,L|260:202,1,105.000004005432,8|0,0:0|0:0,0:0:0:0:
276,49,37811,6,0,P|214:41|167:73,1,105.000004005432,8|0,0:0|0:0,0:0:0:0:
102,127,38105,1,8,0:0:0:0:
234,123,38252,1,8,0:0:0:0:
161,209,38399,1,8,0:0:0:0:
161,209,38546,1,8,0:0:0:0:
259,223,38693,2,0,P|337:201|378:212,1,105.000004005432,8|0,0:0|0:0,0:0:0:0:
443,232,38988,5,8,0:0:0:0:
382,42,39135,1,8,0:0:0:0:
357,213,39282,1,8,0:0:0:0:
482,153,39429,2,0,L|448:17,1,105.000004005432,8|0,0:0|0:0,0:0:0:0:
382,21,39723,1,8,0:0:0:0:
301,49,39870,2,0,L|276:150,1,105.000004005432,8|0,0:0|0:0,0:0:0:0:
123,20,40164,6,0,P|143:76|32:82,1,210.000008010865,8|0,0:0|0:0,0:0:0:0:
38,197,40605,1,8,0:0:0:0:
111,243,40752,2,0,P|188:204|225:213,1,105.000004005432,8|0,0:0|0:0,0:0:0:0:
391,267,41046,2,0,L|293:208,1,105.000004005432
50,42,41340,2,0,B|160:24|189:93|189:93|228:174|362:122,1,315.000012016297
387,28,41929,2,0,L|411:159,1,105.000004005432,8|0,0:0|0:0,0:0:0:0:
486,112,42223,2,0,L|457:230,1,105.000004005432,8|0,0:0|0:0,0:0:0:0:
448,310,42517,6,6,B|167:330|364:161|54:175,1,420,14|14,0:0|0:0,0:0:0:0:
