osu file format v14

[General]
AudioFilename: audio.mp3
AudioLeadIn: 0
PreviewTime: 129145
Countdown: 0
SampleSet: Soft
StackLeniency: 0.7
Mode: 0
LetterboxInBreaks: 0
WidescreenStoryboard: 1

[Editor]
DistanceSpacing: 1
BeatDivisor: 4
GridSize: 32
TimelineZoom: 1

[Metadata]
Title:Xue Mao Jiao
TitleUnicode:学猫叫
Artist:Hanamaru Hareru
ArtistUnicode:花丸はれる
Creator:samplefish
Version:Normal
Source:
Tags:Chinese Japanese Cover Jpop Vtuber cat learning how to meow learn MUE 花寄女子寮 小潘潘 小峰峰
BeatmapID:2232608
BeatmapSetID:1065445

[Difficulty]
HPDrainRate:4
CircleSize:3.5
OverallDifficulty:4
ApproachRate:4.5
SliderMultiplier:1.2
SliderTickRate:1

[Events]
//Background and Video events
0,0,"chrome_2019-11-14_04-21-22.jpg",0,0
//Break Periods
2,94168,109625
//Storyboard Layer 0 (Background)
//Storyboard Layer 1 (Fail)
//Storyboard Layer 2 (Pass)
//Storyboard Layer 3 (Foreground)
//Storyboard Layer 4 (Overlay)
//Storyboard Sound Samples

[TimingPoints]
276.354299539926,521.739130434783,4,2,1,60,1,0
25319,-100,4,2,2,60,0,0
60798,-100,4,2,3,70,0,1
93667,-100,4,2,1,70,0,0
110885,-100,4,2,2,60,0,0
129145,-100,4,2,3,70,0,0
129667,-100,4,2,3,70,0,1
162015,-100,4,2,3,70,0,0
163058,-100,4,2,3,70,0,1
196450,-100,4,2,1,70,0,0

[Colours]
Combo1 : 183,255,179
Combo2 : 255,202,227
Combo3 : 183,217,255
Combo4 : 255,174,66

[HitObjects]
379,130,276,6,0,P|385:171|391:218,1,60,0|0,0:0|0:0,0:0:0:0:
424,237,798,1,2,0:0:0:0:
424,237,1058,2,0,P|379:233|314:285,1,120,0|0,0:0|0:0,0:0:0:0:
295,329,1841,1,2,0:0:0:0:
177,302,2363,2,0,P|183:261|189:214,1,60
222,195,2885,1,2,0:0:0:0:
222,195,3145,2,0,P|177:199|112:147,1,120
91,103,3928,1,2,0:0:0:0:
202,57,4450,6,0,L|192:126,2,60,0|0|2,0:0|0:0|0:0,0:0:0:0:
253,39,5232,2,0,B|312:27|311:93|397:57,1,120,0|0,0:0|0:0,0:0:0:0:
424,52,6015,1,2,0:0:0:0:
500,144,6537,2,0,L|510:213,2,60,0|0|2,0:0|0:0|0:0,0:0:0:0:
439,144,7319,2,0,B|380:132|381:198|295:162,1,120,0|2,0:0|0:0,0:0:0:0:
267,157,8102,1,2,0:0:0:0:
147,164,8624,6,0,L|134:97,2,60,2|0|2,0:0|0:0|0:0,0:0:0:0:
172,218,9406,1,0,0:0:0:0:
172,218,9667,2,0,L|24:201,1,120,2|0,0:0|0:0,0:0:0:0:
74,85,10711,2,0,L|162:95,1,60,2|2,0:0|0:0,0:0:0:0:
168,140,11232,2,0,L|256:130,1,60,2|2,0:0|0:0,0:0:0:0:
275,96,11754,1,2,0:0:0:0:
384,45,12276,2,0,P|387:85|374:138,1,60
351,155,12798,6,0,P|353:181|361:244,1,60,2|0,0:0|0:0,0:0:0:0:
415,228,13319,2,0,P|413:254|405:317,1,60,2|0,0:0|0:0,0:0:0:0:
406,347,13841,2,0,P|352:362|301:324,1,120,2|2,0:0|0:0,0:0:0:0:
326,209,14885,2,0,P|332:183|316:124,1,60,2|2,0:0|0:0,0:0:0:0:
286,108,15406,2,0,P|260:101|201:118,1,60,2|2,0:0|0:0,0:0:0:0:
199,158,15928,2,0,P|208:225|172:266,1,120,2|0,0:0|0:0,0:0:0:0:
56,275,16972,6,0,P|44:303|35:333,2,60,2|0|2,0:0|0:0|0:0,0:0:0:0:
80,219,17754,1,0,0:0:0:0:
80,219,18015,2,0,P|86:171|40:99,1,120,2|0,0:0|0:0,0:0:0:0:
142,28,19058,2,0,P|186:31|209:35,1,60,2|0,0:0|0:0,0:0:0:0:
225,89,19580,2,0,P|254:87|284:83,1,60,2|0,0:0|0:0,0:0:0:0:
330,43,20102,2,0,P|379:48|458:61,1,120,2|2,0:0|0:0,0:0:0:0:
494,170,21145,6,0,P|504:200|509:237,2,60,2|0|2,0:0|0:0|0:0,0:0:0:0:
465,116,21928,1,0,0:0:0:0:
465,116,22189,2,0,L|368:127,1,60,2|2,0:0|0:0,0:0:0:0:
373,173,22711,2,0,L|286:166,1,60,2|2,0:0|0:0,0:0:0:0:
258,144,23232,2,0,B|169:118|171:218|82:186,1,180,2|2,0:0|0:0,0:0:0:0:
1,111,24537,2,0,P|11:172|14:264,1,120,2|0,0:0|0:0,0:0:0:0:
0,288,25319,6,0,L|100:294,1,60,2|0,0:0|0:0,0:0:0:0:
117,312,25841,1,8,0:0:0:0:
117,312,26102,2,0,L|217:306,1,60,2|0,0:0|0:0,0:0:0:0:
285,255,26885,2,0,L|385:261,1,60,8|0,0:0|0:0,0:0:0:0:
404,260,27406,2,0,P|387:287|391:330,2,60,2|0|8,0:0|0:0|0:0,0:0:0:0:
444,215,28189,2,0,P|448:156|458:71,1,120,2|2,0:0|0:0,0:0:0:0:
468,36,28972,1,8,0:0:0:0:
362,92,29493,6,0,P|292:104|241:43,1,120,2|8,0:0|0:0,0:0:0:0:
209,38,30276,1,2,0:0:0:0:
209,38,30537,2,0,P|175:57|148:86,1,60
102,52,31058,2,0,P|86:77|76:105,1,60,8|2,0:0|0:0,0:0:0:0:
51,160,31580,2,0,P|113:155|158:209,1,120,2|8,0:0|0:0,0:0:0:0:
147,252,32363,2,0,L|274:240,1,120,2|8,0:0|0:0,0:0:0:0:
326,239,33145,1,8,0:0:0:0:
420,314,33667,5,2,0:0:0:0:
420,314,33928,2,0,P|422:257|428:172,1,120,0|2,0:0|0:0,0:0:0:0:
484,87,34972,1,0,0:0:0:0:
484,87,35232,2,0,L|396:105,1,60,8|0,0:0|0:0,0:0:0:0:
365,103,35754,2,0,P|330:70|242:83,1,120,2|8,0:0|0:0,0:0:0:0:
228,120,36537,2,0,P|169:124|124:87,1,120,2|2,0:0|0:0,0:0:0:0:
86,40,37319,1,8,0:0:0:0:
71,159,37841,6,0,P|77:207|85:298,1,120,2|8,0:0|0:0,0:0:0:0:
73,337,38624,1,2,0:0:0:0:
73,337,38885,2,0,P|118:327|165:339,1,60,0|0,0:0|0:0,0:0:0:0:
182,359,39406,2,0,P|211:358|240:350,1,60,8|2,0:0|0:0,0:0:0:0:
293,320,39928,2,0,B|346:305|352:367|431:339,1,120,2|8,0:0|0:0,0:0:0:0:
482,252,40972,2,0,P|486:204|498:107,2,120,2|2|2,0:3|0:3|0:0,0:0:0:0:
406,345,42537,6,0,P|381:329|315:332,1,60,8|2,0:0|0:0,0:0:0:0:
292,310,43058,2,0,P|322:265|283:166,1,120,0|8,0:0|0:0,0:0:0:0:
227,120,44102,2,0,L|110:138,1,60,2|0,0:0|0:0,0:0:0:0:
108,136,44624,1,8,0:0:0:0:
108,136,44885,1,2,0:0:0:0:
3,78,45406,2,0,P|5:48|17:-3,2,60,2|8|0,0:0|0:0|0:0,0:0:0:0:
17,136,46189,6,0,P|54:174|35:283,1,120,2|8,0:0|0:0,0:0:0:0:
45,296,46972,1,2,0:0:0:0:
45,296,47232,2,0,P|83:300|133:309,1,60,0|0,0:0|0:0,0:0:0:0:
159,326,47754,2,0,P|188:321|218:318,1,60,8|2,0:0|0:0,0:0:0:0:
277,331,48276,2,0,L|445:348,2,120,2|8|0,0:0|0:0|0:0,0:0:0:0:
218,318,49580,2,0,L|228:223,1,60,8|8,0:0|0:0,0:0:0:0:
193,142,50363,6,0,L|260:150,1,60,2|0,0:0|0:0,0:0:0:0:
306,175,50885,1,8,0:0:0:0:
306,175,51145,2,0,L|480:164,1,120,2|0,0:0|0:0,0:0:0:0:
485,164,51928,1,8,0:0:0:0:
504,282,52450,2,0,L|511:363,2,60,2|0|8,0:0|0:0|0:0,0:0:0:0:
475,229,53232,2,0,P|482:175|494:102,2,120,2|2|0,0:0|0:0|0:0,0:0:0:0:
420,254,54537,6,0,P|351:257|312:211,1,120,2|8,0:0|0:0,0:0:0:0:
270,186,55319,1,2,0:0:0:0:
270,186,55580,2,0,P|262:217|257:249,1,60,0|0,0:0|0:0,0:0:0:0:
259,304,56102,2,0,P|239:297|175:302,1,60,8|2,0:0|0:0,0:0:0:0:
82,321,56885,2,0,P|87:297|87:245,1,60,0|8,0:0|0:0,0:0:0:0:
54,212,57406,2,0,L|68:68,1,120,2|2,0:0|0:0,0:0:0:0:
70,32,58189,1,8,0:0:0:0:
70,32,58450,1,4,0:3:0:0:
145,104,58972,5,6,0:0:0:0:
145,104,59232,2,0,P|188:139|290:101,1,120,6|2,0:0|0:3,0:0:0:0:
367,111,60276,2,0,L|358:192,1,60,8|2,0:3|0:0,0:0:0:0:
369,230,60798,6,0,P|330:234|302:261,1,60,6|0,0:0|0:0,0:0:0:0:
286,298,61319,2,0,P|256:297|230:282,1,60,8|2,0:0|0:0,0:0:0:0:
206,227,61841,2,0,P|155:224|107:281,1,120,0|8,0:0|0:0,0:0:0:0:
41,171,62885,2,0,L|50:93,1,60,2|0,0:0|0:0,0:0:0:0:
58,52,63406,2,0,L|134:57,1,60,8|2,0:0|0:0,0:0:0:0:
177,64,63928,1,0,0:0:0:0:
252,157,64450,2,0,L|311:162,1,60,8|0,0:0|0:0,0:0:0:0:
371,168,64972,6,0,P|375:140|389:84,2,60,2|0|8,0:0|0:0|0:0,0:0:0:0:
373,227,65754,1,2,0:0:0:0:
373,227,66015,2,0,P|382:283|391:352,1,120,0|8,0:0|0:0,0:0:0:0:
507,373,67058,2,0,P|498:346|493:305,1,60,2|0,0:0|0:0,0:0:0:0:
464,262,67580,2,0,P|466:232|475:194,1,60,8|2,0:0|0:0,0:0:0:0:
496,147,68102,1,0,0:0:0:0:
414,58,68624,2,0,L|340:63,1,60,8|2,0:0|0:0,0:0:0:0:
294,62,69145,6,0,L|296:-16,2,60,6|0|8,0:0|0:0|0:0,0:0:0:0:
265,115,69928,1,2,0:0:0:0:
265,115,70189,2,0,B|207:104|207:170|132:143,1,120,0|8,0:0|0:0,0:0:0:0:
76,242,71232,2,0,P|106:243|153:247,1,60,2|0,0:0|0:0,0:0:0:0:
183,282,71754,2,0,P|212:281|242:278,1,60,8|2,0:0|0:0,0:0:0:0:
285,233,72276,2,0,L|275:387,1,120,0|8,0:0|0:0,0:0:0:0:
158,370,73319,6,0,L|166:276,1,60,2|0,0:0|0:0,0:0:0:0:
126,262,73841,2,0,L|49:234,2,60,8|2|0,0:0|0:0|0:0,0:0:0:0:
185,250,74624,1,2,0:0:0:0:
185,250,74885,2,0,L|228:178,1,60,8|0,0:0|0:0,0:0:0:0:
202,139,75406,2,0,P|265:140|314:58,1,120,2|8,0:0|0:0,0:0:0:0:
321,45,76189,2,0,P|379:43|423:82,1,120,2|2,0:0|0:3,0:0:0:0:
447,137,76972,1,8,0:0:0:0:
430,255,77493,6,0,L|327:262,1,60,6|0,0:0|0:0,0:0:0:0:
309,258,78015,2,0,L|311:182,1,60,8|2,0:0|0:0,0:0:0:0:
313,138,78536,1,0,0:0:0:0:
245,38,79058,2,0,L|142:45,1,60,8|0,0:0|0:0,0:0:0:0:
130,64,79580,2,0,P|117:94|121:158,1,60,2|0,0:0|0:0,0:0:0:0:
125,180,80102,2,0,P|95:167|31:171,1,60,8|2,0:0|0:0,0:0:0:0:
9,176,80623,1,0,0:0:0:0:
81,271,81145,2,0,P|110:274|137:287,1,60,8|2,0:0|0:0,0:0:0:0:
188,320,81667,6,0,P|192:292|206:236,2,60,2|0|8,0:0|0:0|0:0,0:0:0:0:
160,373,82449,1,2,0:0:0:0:
160,373,82710,2,0,L|291:385,1,120,0|8,0:0|0:0,0:0:0:0:
399,381,83754,2,0,P|408:354|413:313,1,60,2|0,0:0|0:0,0:0:0:0:
442,270,84276,2,0,P|440:240|431:202,1,60,8|2,0:0|0:0,0:0:0:0:
399,161,84798,1,0,0:0:0:0:
333,263,85319,2,0,L|259:268,1,60,8|0,0:0|0:0,0:0:0:0:
213,262,85841,6,0,L|225:202,2,60,6|0|8,0:0|0:0|0:0,0:0:0:0:
206,321,86623,1,2,0:0:0:0:
206,321,86884,2,0,B|148:310|148:376|73:349,1,120,0|8,0:0|0:0,0:0:0:0:
2,277,87928,2,0,P|-3:247|0:188,1,60,2|0,0:0|0:0,0:0:0:0:
5,158,88450,2,0,P|35:155|64:154,1,60,8|2,0:0|0:0,0:0:0:0:
123,168,88971,2,0,P|158:128|103:35,1,120,0|8,0:0|0:0,0:0:0:0:
37,22,90015,6,0,L|45:116,1,60,2|0,0:0|0:0,0:0:0:0:
63,138,90537,2,0,L|55:232,1,60,8|2,0:0|0:0,0:0:0:0:
65,257,91058,1,0,0:0:0:0:
65,257,91319,2,0,L|-26:270,2,60,2|8|0,0:0|0:0|0:0,0:0:0:0:
120,281,92102,2,0,P|180:292|231:232,1,120,6|2,0:0|0:3,0:3:0:0:
283,263,92885,2,0,L|298:145,1,120,6|0,0:0|0:0,0:0:0:0:
307,84,93667,1,2,0:0:0:0:
150,44,110885,6,0,L|165:139,1,60,2|0,0:0|0:0,0:0:0:0:
201,145,111406,2,0,L|210:85,2,60,8|2|0,0:0|0:0|0:0,0:0:0:0:
132,244,112451,2,0,P|157:242|225:272,1,60,8|0,0:0|0:0,0:0:0:0:
246,271,112972,2,0,P|244:316|233:341,2,60,2|0|8,0:0|0:0|0:0,0:0:0:0:
239,211,113755,2,0,P|243:152|303:114,1,120,2|2,0:0|0:0,0:0:0:0:
348,112,114538,1,8,0:0:0:0:
421,207,115059,6,0,P|351:219|300:158,1,120,2|8,0:0|0:0,0:0:0:0:
261,162,115842,1,2,0:0:0:0:
261,162,116103,2,0,L|277:259,1,60,0|2,0:0|0:0,0:0:0:0:
293,276,116624,2,0,L|277:373,1,60,8|0,0:0|0:0,0:0:0:0:
224,348,117146,2,0,P|180:350|58:359,2,120,2|8|0,0:0|0:0|0:0,0:0:0:0:
283,335,118451,2,0,L|356:339,1,60,2|8,0:0|0:0,0:0:0:0:
449,284,119233,5,2,0:0:0:0:
449,284,119494,2,0,P|461:230|416:175,1,120,0|2,0:0|0:0,0:0:0:0:
320,237,120538,1,2,0:0:0:0:
320,237,120798,2,0,L|408:255,1,60,8|0,0:0|0:0,0:0:0:0:
390,308,121320,2,0,L|271:283,1,120,2|8,0:0|0:0,0:0:0:0:
212,274,122103,2,0,L|241:122,1,120,2|2,0:0|0:0,0:0:0:0:
246,97,122885,1,8,0:0:0:0:
148,23,123407,6,0,P|94:20|49:76,1,120,2|8,0:0|0:0,0:0:0:0:
70,122,124190,1,2,0:0:0:0:
70,122,124451,2,0,L|64:195,1,60,0|2,0:0|0:0,0:0:0:0:
52,240,124972,1,8,0:0:0:0:
134,326,125494,2,0,B|188:347|194:285|247:300,1,120,2|8,0:0|0:0,0:0:0:0:
301,320,126276,2,0,L|320:150,1,120,2|2,0:0|0:0,0:0:0:0:
321,141,127058,1,8,0:0:0:0:
321,141,127319,1,4,0:3:0:0:
439,121,127841,5,4,0:0:0:0:
439,121,128102,2,0,L|425:240,1,120,4|2,0:0|0:3,0:0:0:0:
314,200,129145,2,0,L|324:107,1,60,8|2,3:0|0:0,0:0:0:0:
352,89,129667,6,0,P|324:92|285:77,1,60,6|0,0:0|0:0,0:0:0:0:
250,40,130189,2,0,P|221:30|191:33,1,60,8|2,0:0|0:0,0:0:0:0:
136,57,130710,1,0,0:0:0:0:
52,143,131232,2,0,P|58:177|63:224,1,60,8|0,0:0|0:0,0:0:0:0:
48,261,131754,2,0,P|76:262|109:285,1,60,2|0,0:0|0:0,0:0:0:0:
129,332,132276,2,0,P|157:331|190:308,1,60,8|2,0:0|0:0,0:0:0:0:
223,269,132798,1,0,0:0:0:0:
255,153,133319,2,0,L|314:159,1,60,8|0,0:0|0:0,0:0:0:0:
373,170,133841,6,0,L|382:72,2,60,2|0|8,0:0|0:0|0:0,0:0:0:0:
375,230,134624,1,2,0:0:0:0:
375,230,134884,2,0,L|206:242,1,120,0|8,0:0|0:0,0:0:0:0:
145,287,135928,2,0,L|153:220,1,60,2|0,0:0|0:0,0:0:0:0:
190,181,136450,2,0,L|182:114,1,60,8|2,0:0|0:0,0:0:0:0:
173,62,136971,1,0,0:0:0:0:
277,120,137493,2,0,L|351:125,1,60,8|2,0:0|0:0,0:0:0:0:
397,126,138015,6,0,L|404:52,2,60,6|0|8,0:0|0:0|0:0,0:0:0:0:
393,185,138797,1,2,0:0:0:0:
393,185,139058,1,0,0:0:0:0:
474,278,139580,2,0,L|467:365,1,60,8|0,0:0|0:0,0:0:0:0:
411,354,140102,2,0,P|380:348|334:359,1,60,2|0,0:0|0:0,0:0:0:0:
293,365,140624,2,0,P|298:341|287:301,1,60,8|2,0:0|0:0,0:0:0:0:
246,265,141145,2,0,P|238:208|306:153,1,120,0|8,0:0|0:0,0:0:0:0:
340,61,142189,6,0,L|256:49,1,60,2|0,0:0|0:0,0:0:0:0:
239,96,142711,2,0,L|179:104,1,60,8|2,0:0|0:0,0:0:0:0:
123,84,143232,1,0,0:0:0:0:
123,84,143493,2,0,L|127:-16,2,60,2|8|0,0:0|0:0|0:0,0:0:0:0:
123,144,144276,2,0,P|130:193|136:268,1,120,2|8,0:0|0:0,0:0:0:0:
106,315,145058,2,0,P|151:318|238:330,1,120,2|2,0:0|0:3,0:0:0:0:
284,339,145841,1,8,0:0:0:0:
319,224,146363,6,0,L|216:231,1,60,6|0,0:0|0:0,0:0:0:0:
200,242,146885,2,0,L|140:237,1,60,8|2,0:0|0:0,0:0:0:0:
80,231,147405,1,0,0:0:0:0:
6,135,147928,2,0,P|8:113|19:64,1,60,8|0,0:0|0:0,0:0:0:0:
47,24,148450,2,0,P|74:13|120:25,1,60,2|0,0:0|0:0,0:0:0:0:
158,42,148972,2,0,P|169:69|157:115,1,60,8|2,0:0|0:0,0:0:0:0:
134,149,149492,1,0,0:0:0:0:
254,146,150015,2,0,L|313:151,1,60,8|2,0:0|0:0,0:0:0:0:
372,162,150537,6,0,P|376:134|400:80,2,60,2|0|8,0:0|0:0|0:0,0:0:0:0:
408,209,151318,1,2,0:0:0:0:
408,209,151580,2,0,P|434:260|393:326,1,120,0|8,0:0|0:0,0:0:0:0:
291,301,152624,2,0,P|263:301|221:326,1,60,2|0,0:0|0:0,0:0:0:0:
183,347,153145,2,0,P|183:319|158:277,1,60,8|2,0:0|0:0,0:0:0:0:
137,240,153666,1,0,0:0:0:0:
38,171,154189,2,0,P|38:143|63:101,1,60,8|2,0:0|0:0,0:0:0:0:
98,78,154711,6,0,L|82:-3,2,60,6|0|8,0:0|0:0|0:0,0:0:0:0:
140,120,155493,1,2,0:0:0:0:
140,120,155754,2,0,B|198:109|198:175|273:148,1,120,0|8,0:0|0:0,0:0:0:0:
349,85,156798,2,0,P|379:86|426:90,1,60,2|0,0:0|0:0,0:0:0:0:
426,145,157319,2,0,P|396:144|349:140,1,60,8|2,0:0|0:0,0:0:0:0:
306,143,157841,2,0,P|281:189|332:264,1,120,0|8,0:0|0:0,0:0:0:0:
393,328,158885,6,0,P|362:324|316:351,1,60,2|0,0:0|0:0,0:0:0:0:
278,355,159406,2,0,P|287:321|278:281,1,60,8|2,0:0|0:0,0:0:0:0:
244,251,159927,1,0,0:0:0:0:
244,251,160189,2,0,L|248:151,2,60,2|8|0,0:0|0:0|0:0,0:0:0:0:
194,285,160972,2,0,L|42:267,1,120,6|8,0:0|0:0,0:0:0:0:
47,217,161754,2,0,L|166:231,1,120,6|2,0:0|0:3,0:0:0:0:
225,238,162537,1,8,0:0:0:0:
325,303,163058,6,0,L|333:220,1,60,6|0,0:0|0:0,0:0:0:0:
388,225,163580,2,0,L|393:165,1,60,8|2,0:0|0:0,0:0:0:0:
403,106,164101,1,0,0:0:0:0:
296,161,164624,2,0,P|267:168|237:163,1,60,8|0,0:0|0:0,0:0:0:0:
180,145,165145,2,0,L|171:51,1,60,2|0,0:0|0:0,0:0:0:0:
167,25,165667,2,0,L|261:16,1,60,8|2,0:0|0:0,0:0:0:0:
286,10,166188,1,0,0:0:0:0:
325,123,166711,2,0,L|384:128,1,60,8|2,0:0|0:0,0:0:0:0:
436,158,167232,6,0,P|442:189|426:243,2,60,2|0|8,0:0|0:0|0:0,0:0:0:0:
412,102,168014,1,2,0:0:0:0:
412,102,168276,2,0,P|404:39|443:-1,1,120,0|8,0:0|0:0,0:0:0:0:
505,101,169319,2,0,L|500:163,1,60,2|0,0:0|0:0,0:0:0:0:
439,164,169841,2,0,L|444:224,1,60,8|2,0:0|0:0,0:0:0:0:
446,284,170362,1,0,0:0:0:0:
328,260,170884,2,0,P|297:259|251:281,1,60,8|2,0:0|0:0,0:0:0:0:
211,284,171406,6,0,L|213:206,2,60,6|0|8,0:0|0:0|0:0,0:0:0:0:
211,344,172188,1,2,0:0:0:0:
211,344,172450,1,0,0:0:0:0:
123,261,172972,2,0,P|97:261|56:284,1,60,8|0,0:0|0:0,0:0:0:0:
21,233,173493,2,0,P|23:205|35:151,2,60,2|0|8,0:0|0:0|0:0,0:0:0:0:
4,291,174276,2,0,P|67:293|107:356,1,120,2|2,0:0|0:0,0:0:0:0:
131,383,175058,1,8,0:0:0:0:
198,283,175580,6,0,P|229:283|289:306,1,60,2|0,0:0|0:0,0:0:0:0:
303,328,176102,2,0,P|332:328|362:321,1,60,8|2,0:0|0:0,0:0:0:0:
418,302,176623,1,0,0:0:0:0:
418,302,176884,2,0,L|422:402,2,60,2|8|0,0:0|0:0|0:0,0:0:0:0:
387,250,177667,2,0,P|367:194|411:136,1,120,2|8,0:0|0:0,0:0:0:0:
453,128,178450,2,0,P|473:72|429:14,1,120,6|2,0:0|0:0,0:0:0:0:
388,2,179232,1,8,0:0:0:0:
301,85,179754,6,0,L|206:81,1,60,6|0,0:0|0:0,0:0:0:0:
228,141,180276,2,0,L|331:148,1,60,8|2,0:0|0:0,0:0:0:0:
348,147,180798,1,0,0:0:0:0:
456,95,181319,2,0,P|469:119|469:166,1,60,8|0,0:0|0:0,0:0:0:0:
476,211,181841,2,0,P|470:239|467:305,1,60,2|0,0:0|0:0,0:0:0:0:
409,290,182363,2,0,P|405:260|399:230,1,60,8|2,0:0|0:0,0:0:0:0:
385,172,182885,1,0,0:0:0:0:
297,90,183406,2,0,P|272:90|242:108,1,60,8|0,0:0|0:0,0:0:0:0:
191,140,183928,6,0,P|187:112|173:56,2,60,2|0|8,0:0|0:0|0:0,0:0:0:0:
201,199,184711,1,2,0:0:0:0:
201,199,184972,2,0,P|163:235|183:324,1,120,0|8,0:0|0:0,0:0:0:0:
276,338,186015,2,0,P|270:312|262:271,1,60,2|0,0:0|0:0,0:0:0:0:
281,221,186537,2,0,P|307:215|348:207,1,60,8|2,0:0|0:0,0:0:0:0:
398,200,187057,1,0,0:0:0:0:
464,299,187580,2,0,P|438:305|397:313,1,60,8|2,0:0|0:0,0:0:0:0:
348,291,188102,6,0,P|345:256|334:213,2,60,6|0|8,0:0|0:0|0:0,0:0:0:0:
301,329,188885,1,2,0:0:0:0:
301,329,189145,2,0,B|243:318|243:384|168:357,1,120,0|8,0:0|0:0,0:0:0:0:
72,337,190189,2,0,P|75:306|82:260,1,60,2|0,0:0|0:0,0:0:0:0:
87,217,190711,1,8,0:0:0:0:
87,217,190972,2,0,P|121:250|217:231,1,120,2|2,0:0|0:0,0:0:0:0:
247,231,191754,1,8,0:0:0:0:
252,113,192276,6,0,L|406:137,1,120,2|8,0:0|0:0,0:0:0:0:
430,141,193058,1,2,0:0:0:0:
430,141,193319,2,0,L|420:232,1,60,0|2,0:0|0:0,0:0:0:0:
381,243,193841,2,0,L|391:334,1,60,8|0,0:0|0:0,0:0:0:0:
417,355,194363,2,0,P|370:325|283:366,1,120,6|2,0:0|0:0,0:0:0:0:
250,344,195145,2,0,P|192:356|142:325,1,120,6|0,0:0|0:0,0:0:0:0:
102,280,195928,2,0,L|111:198,2,60,8|2|2,0:0|0:0|0:0,0:0:0:0:
