osu file format v14

[General]
AudioFilename: audio.mp3
AudioLeadIn: 0
PreviewTime: 129145
Countdown: 0
SampleSet: Soft
StackLeniency: 0.7
Mode: 0
LetterboxInBreaks: 0
WidescreenStoryboard: 1

[Editor]
DistanceSpacing: 1.1
BeatDivisor: 2
GridSize: 32
TimelineZoom: 1

[Metadata]
Title:Xue Mao Jiao
TitleUnicode:学猫叫
Artist:Hanamaru Hareru
ArtistUnicode:花丸はれる
Creator:samplefish
Version:Easy
Source:
Tags:Chinese Japanese Cover Jpop Vtuber cat learning how to meow learn MUE 花寄女子寮 小潘潘 小峰峰
BeatmapID:2231712
BeatmapSetID:1065445

[Difficulty]
HPDrainRate:3
CircleSize:3
OverallDifficulty:3
ApproachRate:3
SliderMultiplier:0.8
SliderTickRate:1

[Events]
//Background and Video events
0,0,"chrome_2019-11-14_04-21-22.jpg",0,0
//Break Periods
2,94168,109445
//Storyboard Layer 0 (Background)
//Storyboard Layer 1 (Fail)
//Storyboard Layer 2 (Pass)
//Storyboard Layer 3 (Foreground)
//Storyboard Layer 4 (Overlay)
//Storyboard Sound Samples

[TimingPoints]
276.354299539926,521.739130434783,4,2,1,60,1,0
25319,-100,4,2,2,60,0,0
60798,-100,4,2,3,70,0,1
93667,-100,4,2,1,70,0,0
110885,-100,4,2,2,60,0,0
129145,-100,4,2,3,70,0,0
129667,-100,4,2,3,70,0,1
162015,-100,4,2,3,70,0,0
163058,-100,4,2,3,70,0,1
196450,-100,4,2,1,70,0,0

[Colours]
Combo1 : 183,255,179
Combo2 : 255,202,227
Combo3 : 183,217,255
Combo4 : 255,174,66

[HitObjects]
425,244,276,6,0,B|347:234|350:324|234:271,1,160
189,267,1841,1,2,0:0:0:0:
112,222,2363,2,0,B|91:147|91:147|93:97|147:76,1,160
213,43,3928,1,2,0:0:0:0:
264,114,4450,6,0,B|338:134|338:134|388:132|409:78,1,160
491,95,6015,1,2,0:0:0:0:
464,179,6537,2,0,P|449:257|440:337,1,160
363,378,8102,1,2,0:0:0:0:
300,315,8624,6,0,P|292:242|274:145,1,160,2|0,0:0|0:0,0:0:0:0:
199,113,10189,1,0,0:0:0:0:
223,28,10711,2,0,P|266:31|321:37,1,80,2|2,0:0|0:0,0:0:0:0:
320,120,11754,2,0,P|363:117|418:111,1,80,2|0,0:0|0:0,0:0:0:0:
448,39,12798,6,0,P|491:104|418:199,1,160,2|0,0:0|0:0,0:0:0:0:
382,205,14363,1,0,0:0:0:0:
306,249,14885,2,0,P|299:298|293:357,2,80,2|2|2,0:0|0:0|0:0,0:0:0:0:
277,165,16450,1,0,0:0:0:0:
294,78,16972,6,0,P|267:60|184:78,1,80,2|0,0:0|0:0,0:0:0:0:
163,123,18015,2,0,P|123:122|89:101,1,80
32,34,19058,2,0,P|41:104|52:201,1,160,2|2,0:0|0:0,0:0:0:0:
31,278,20624,1,0,0:0:0:0:
117,294,21145,6,0,P|159:289|213:284,1,80,2|0,0:0|0:0,0:0:0:0:
262,344,22189,2,0,P|301:347|341:352,1,80,0|2,0:0|0:0,0:0:0:0:
428,366,23232,2,0,P|471:300|400:174,1,200,2|2,0:0|0:0,0:0:0:0:
284,347,25319,6,0,P|242:351|169:369,1,80,2|8,0:0|0:0,0:0:0:0:
117,367,26363,2,0,P|121:323|131:280,1,80,0|8,0:0|0:0,0:0:0:0:
150,202,27406,2,0,P|137:139|115:55,2,120,2|2|8,0:0|0:0|0:0,0:0:0:0:
128,288,29493,6,0,B|201:268|196:357|294:330,1,160,2|0,0:0|0:0,0:0:0:0:
356,304,31058,1,8,0:0:0:0:
323,222,31580,2,0,P|313:143|387:88,1,160,2|0,0:0|0:0,0:0:0:0:
453,106,33145,1,8,0:0:0:0:
397,174,33667,6,0,L|241:161,2,120,2|2|8,0:0|0:0|0:0,0:0:0:0:
475,213,35754,2,0,P|493:273|464:347,1,120,2|2,0:0|0:0,0:0:0:0:
390,327,37058,2,0,P|372:270|386:213,1,120,2|2,0:0|0:0,0:0:0:0:
427,134,38363,6,0,P|428:91|390:49,1,80,8|0,0:0|0:0,0:0:0:0:
344,120,39406,1,8,0:0:0:0:
258,99,39928,2,0,B|181:86|179:174|92:147,1,160,2|2,0:0|0:3,0:0:0:0:
42,99,41493,1,2,0:3:0:0:
9,180,42015,6,0,P|18:212|32:285,1,80,2|8,0:0|0:0,0:0:0:0:
102,304,43058,2,0,P|110:264|120:226,1,80,0|8,0:0|0:0,0:0:0:0:
199,264,44102,2,0,P|254:271|315:199,2,120,2|2|8,0:0|0:0|0:0,0:0:0:0:
159,186,46189,6,0,P|146:148|139:80,1,80,2|8,0:0|0:0,0:0:0:0:
229,99,47232,2,0,P|238:134|244:178,1,80,0|8,0:0|0:0,0:0:0:0:
223,263,48276,2,0,B|276:276|312:234|312:234|356:237|385:273,1,160,2|0,0:0|0:0,0:0:0:0:
438,308,49841,1,8,0:0:0:0:
490,237,50363,6,0,P|484:175|473:107,2,120,2|2|8,0:0|0:0|0:0,0:0:0:0:
438,308,52450,2,0,P|377:325|321:286,1,120,2|2,0:0|0:0,0:0:0:0:
323,211,53754,2,0,P|262:194|206:233,1,120,2|2,0:0|0:0,0:0:0:0:
145,273,55058,5,8,0:0:0:0:
101,196,55580,2,0,P|103:148|117:89,1,80,0|8,0:0|0:0,0:0:0:0:
167,50,56624,2,0,P|212:96|283:85,1,120,2|2,0:0|0:0,0:0:0:0:
349,72,57928,2,0,P|345:111|342:175,1,80,2|4,0:0|0:3,0:0:0:0:
358,238,58972,6,0,B|299:222|300:303|221:262,1,120,6|2,0:0|0:3,0:0:0:0:
162,253,60276,1,8,0:3:0:0:
95,194,60798,6,0,P|90:150|89:102,2,80,2|8|0,0:0|0:0|0:0,0:0:0:0:
162,253,62363,1,8,0:0:0:0:
247,230,62885,2,0,P|290:232|353:247,1,80,2|8,0:0|0:0,0:0:0:0:
368,316,63928,2,0,P|407:314|447:307,1,80,0|8,0:0|0:0,0:0:0:0:
487,228,64972,6,0,P|492:164|503:62,1,160,2|0,0:0|0:0,0:0:0:0:
430,17,66537,1,8,0:0:0:0:
379,88,67058,2,0,P|337:99|278:86,1,80,2|8,0:0|0:0,0:0:0:0:
242,28,68102,2,0,P|202:24|164:35,1,80,0|8,0:0|0:0,0:0:0:0:
108,103,69145,6,0,P|98:182|172:237,1,160,6|0,0:0|0:0,0:0:0:0:
235,219,70710,1,8,0:0:0:0:
182,151,71232,2,0,P|138:153|57:163,2,120,2|2|8,0:0|0:0|0:0,0:0:0:0:
269,159,73319,6,0,L|250:58,1,80,2|8,0:0|0:0,0:0:0:0:
335,45,74363,2,0,L|349:123,1,80,0|8,0:0|0:0,0:0:0:0:
347,211,75406,2,0,P|402:264|391:341,1,160,2|2,0:0|0:3,0:0:0:0:
311,379,76971,1,8,0:0:0:0:
320,291,77493,6,0,L|432:281,1,80,6|8,0:0|0:0,0:0:0:0:
408,196,78537,2,0,L|296:206,1,80,0|8,0:0|0:0,0:0:0:0:
252,248,79580,2,0,P|240:214|251:161,1,80,2|8,0:0|0:0,0:0:0:0:
279,89,80624,2,0,P|239:82|202:95,1,80,0|8,0:0|0:0,0:0:0:0:
122,131,81667,6,0,P|98:95|23:83,2,120,2|2|8,0:0|0:0|0:0,0:0:0:0:
114,218,83754,2,0,P|113:262|119:318,1,80,2|8,0:0|0:0,0:0:0:0:
204,297,84798,2,0,P|204:252|199:197,1,80,0|8,0:0|0:0,0:0:0:0:
189,129,85841,6,0,B|260:111|261:182|346:166,1,160,6|0,0:0|0:0,0:0:0:0:
422,138,87406,1,8,0:0:0:0:
410,225,87928,2,0,P|412:261|421:326,1,80,2|8,0:0|0:0,0:0:0:0:
502,279,88972,2,0,P|499:239|494:199,1,80,0|8,0:0|0:0,0:0:0:0:
505,111,90015,6,0,P|470:113|430:139,1,80,2|8,0:0|0:0,0:0:0:0:
410,225,91058,2,0,P|368:201|313:205,1,80,0|8,0:0|0:0,0:0:0:0:
277,263,92102,2,0,P|219:263|169:305,2,120,6|6|2,0:0|0:0|0:0,0:0:0:0:
292,322,110885,6,0,P|291:274|317:239,1,80,2|8,0:0|0:0,0:0:0:0:
364,180,111928,2,0,P|367:140|349:105,1,80,0|8,0:0|0:0,0:0:0:0:
281,162,112972,2,0,P|220:172|153:122,2,120,2|2|8,0:0|0:0|0:0,0:0:0:0:
366,180,115058,6,0,P|357:233|355:290,2,80,2|8|0,0:0|0:0|0:0,0:0:0:0:
339,96,116624,1,8,0:0:0:0:
281,162,117145,2,0,P|199:165|149:111,1,160,2|0,0:0|0:0,0:0:0:0:
98,39,118711,1,8,0:0:0:0:
62,119,119232,6,0,P|68:162|76:249,2,120,2|2|8,0:0|0:0|0:0,0:0:0:0:
148,137,121319,2,0,P|195:145|247:154,1,80,2|8,0:0|0:0,0:0:0:0:
298,202,122363,2,0,P|337:195|376:188,1,80,0|8,0:0|0:0,0:0:0:0:
385,100,123406,6,0,P|345:106|306:113,1,80,2|8,0:0|0:0,0:0:0:0:
226,150,124450,2,0,P|186:143|147:136,2,80,0|8|2,0:0|0:0|0:0,0:0:0:0:
306,113,126015,2,0,P|416:129|456:32,1,200,8|4,0:0|0:3,0:0:0:0:
371,51,127841,6,0,P|376:116|384:177,1,120,4|2,0:0|0:3,0:0:0:0:
439,237,129145,1,8,3:0:0:0:
357,270,129667,6,0,P|324:272|253:281,1,80,6|8,0:0|0:0,0:0:0:0:
203,325,130711,2,0,P|170:323|99:314,1,80,0|8,0:0|0:0,0:0:0:0:
35,315,131754,2,0,P|25:262|58:226,1,80,2|8,0:0|0:0,0:0:0:0:
122,220,132798,2,0,P|136:183|123:146,1,80,0|8,0:0|0:0,0:0:0:0:
65,80,133841,6,0,L|47:-8,2,80,2|8|0,0:0|0:0|0:0,0:0:0:0:
123,146,135406,1,8,0:0:0:0:
174,74,135928,2,0,P|213:70|251:87,1,80,2|8,0:0|0:0,0:0:0:0:
315,145,136972,2,0,P|354:148|390:132,1,80,0|8,0:0|0:0,0:0:0:0:
474,107,138015,6,0,L|465:205,2,80,4|8|0,0:0|0:0|0:0,0:0:0:0:
427,32,139579,1,8,0:0:0:0:
342,56,140102,1,2,0:0:0:0:
369,139,140624,2,0,L|389:219,2,80,8|0|8,0:0|0:0|0:0,0:0:0:0:
342,56,142189,6,0,P|315:39|247:47,1,80,2|8,0:0|0:0,0:0:0:0:
208,102,143232,2,0,P|168:102|133:83,1,80,0|8,0:0|0:0,0:0:0:0:
67,25,144275,2,0,P|122:78|111:155,1,160,2|2,0:0|0:3,0:0:0:0:
43,211,145840,1,0,0:0:0:0:
121,251,146363,6,0,L|233:241,1,80,6|8,0:0|0:0,0:0:0:0:
191,331,147406,2,0,L|79:341,1,80,0|8,0:0|0:0,0:0:0:0:
38,286,148450,2,0,P|30:247|42:210,1,80,2|8,0:0|0:0,0:0:0:0:
120,168,149493,2,0,P|128:129|116:92,1,80,0|8,0:0|0:0,0:0:0:0:
37,52,150536,6,0,P|81:12|170:25,2,120,2|2|8,0:0|0:0|0:0,0:0:0:0:
10,135,152623,2,0,P|32:177|15:235,1,80,2|8,0:0|0:0,0:0:0:0:
46,294,153667,2,0,P|89:280|151:303,1,80,0|8,0:0|0:0,0:0:0:0:
204,321,154710,6,0,B|281:335|282:264|353:282,1,160,6|0,0:0|0:0,0:0:0:0:
433,319,156275,1,8,0:0:0:0:
440,231,156797,2,0,P|438:192|429:130,1,80,2|8,0:0|0:0,0:0:0:0:
348,126,157841,2,0,P|350:165|359:227,1,80,0|8,0:0|0:0,0:0:0:0:
375,291,158884,6,0,B|331:308|288:269|288:269|243:268|230:320,1,160,2|0,0:0|0:0,0:0:0:0:
189,376,160450,1,8,0:0:0:0:
145,299,160971,2,0,P|151:241|162:159,2,120,6|6|8,0:0|0:0|0:0,0:0:0:0:
189,376,163058,5,6,0:0:0:0:
238,303,163580,2,0,P|242:255|251:194,1,80,8|0,0:0|0:0,0:0:0:0:
273,139,164624,1,8,0:0:0:0:
262,51,165145,2,0,P|234:36|168:37,1,80,2|8,0:0|0:0,0:0:0:0:
162,117,166189,2,0,P|190:132|256:131,1,80,0|8,0:0|0:0,0:0:0:0:
324,123,167232,6,0,P|318:161|313:219,2,80,2|8|0,0:0|0:0|0:0,0:0:0:0:
392,67,168797,1,8,0:0:0:0:
325,9,169319,2,0,P|285:5|248:22,1,80,2|8,0:0|0:0,0:0:0:0:
216,103,170363,2,0,P|176:106|140:90,1,80,0|8,0:0|0:0,0:0:0:0:
61,52,171406,6,0,P|56:86|52:150,1,80,4|8,0:0|0:0,0:0:0:0:
119,188,172450,2,0,P|123:222|128:286,1,80,0|8,0:0|0:0,0:0:0:0:
93,348,173493,2,0,B|183:378|176:302|255:336,1,160,2|0,0:0|0:0,0:0:0:0:
328,363,175058,1,8,0:0:0:0:
372,287,175580,6,0,L|468:301,1,80,2|8,0:0|0:0,0:0:0:0:
487,217,176624,2,0,L|407:205,1,80,0|8,0:0|0:0,0:0:0:0:
358,132,177667,2,0,P|290:106|219:165,1,160,2|2,0:0|0:3,0:0:0:0:
221,240,179231,1,8,0:0:0:0:
307,267,179754,6,0,P|312:228|300:191,2,80,6|8|0,0:0|0:0|0:0,0:0:0:0:
257,339,181319,1,8,0:0:0:0:
343,355,181841,2,0,L|426:363,1,80,2|8,0:0|0:0,0:0:0:0:
454,280,182885,2,0,L|371:272,1,80,0|8,0:0|0:0,0:0:0:0:
348,188,183928,6,0,P|344:152|333:98,2,80,2|8|0,0:0|0:0|0:0,0:0:0:0:
303,264,185493,1,8,0:0:0:0:
219,237,186015,2,0,P|201:225|130:229,1,80,2|8,0:0|0:0,0:0:0:0:
56,221,187058,2,0,P|68:203|64:132,1,80,0|8,0:0|0:0,0:0:0:0:
17,76,188101,6,0,P|101:64|156:141,1,160,6|0,0:0|0:0,0:0:0:0:
185,194,189666,1,8,0:0:0:0:
239,124,190189,2,0,P|232:67|218:-27,2,120,2|2|8,0:0|0:0|0:0,0:0:0:0:
256,210,192276,6,0,P|289:196|361:208,1,80,2|8,0:0|0:0,0:0:0:0:
379,270,193319,2,0,P|346:284|274:272,1,80,0|8,0:0|0:0,0:0:0:0:
256,210,194362,2,0,P|261:165|275:84,2,120,6|6|8,0:0|0:0|0:0,0:0:0:0:
174,244,196450,5,2,0:0:0:0:
