osu file format v14

[General]
AudioFilename: audio.mp3
AudioLeadIn: 0
PreviewTime: -1
Countdown: 1
SampleSet: Normal
StackLeniency: 0.7
Mode: 0
LetterboxInBreaks: 0
WidescreenStoryboard: 0

[Editor]
Bookmarks: 60236,86739,142690,169193,218933,270669
DistanceSpacing: 0.8
BeatDivisor: 4
GridSize: 32
TimelineZoom: 1.6

[Metadata]
Title:Three Piece
TitleUnicode:スリピス
Artist:Hanako (CV: Hina Kino), Olivia (CV: Rika Nagae), Kasumi (CV: Konomi Kohara)
ArtistUnicode:本田華子(CV:木野日菜)、オリヴィア(CV:⻑江里加)、野村香純(CV:小原好美)
Creator:GranDSenpai
Version:Se~ Se~ Se~ Olivia-San~ Fuck~
Source:あそびあそばせ
Tags:
BeatmapID:2005627
BeatmapSetID:957897

[Difficulty]
HPDrainRate:5
CircleSize:4
OverallDifficulty:9
ApproachRate:9
SliderMultiplier:2.2
SliderTickRate:1

[Events]
//Background and Video events
0,0,"9bbc.jpg",0,0
//Break Periods
2,86939,88715
2,101479,106752
2,107552,112642
2,169393,171537
2,172337,174114
2,175282,180372
//Storyboard Layer 0 (Background)
//Storyboard Layer 1 (Fail)
//Storyboard Layer 2 (Pass)
//Storyboard Layer 3 (Foreground)
//Storyboard Layer 4 (Overlay)
//Storyboard Sound Samples

[TimingPoints]
949,810.810810810811,4,1,0,100,1,0
5762,750,4,1,0,100,1,0
7230,368.098159509202,4,1,0,100,1,0
192751,365.853658536585,4,1,0,100,1,0
204458,363.636363636364,4,1,0,100,1,0
210276,361.44578313253,4,1,0,100,1,0
216059,359.281437125748,4,1,0,100,1,0
219651,-80,4,1,0,100,0,0
270669,718.562874251497,4,1,0,100,1,0

[HitObjects]
56,95,60236,5,0,0:0:0:0:
415,27,60420,1,0,0:0:0:0:
57,219,60604,1,0,0:0:0:0:
416,151,60788,1,0,0:0:0:0:
154,358,60972,6,0,P|157:277|200:222,1,110
310,114,61340,1,0,0:0:0:0:
278,322,61524,1,0,0:0:0:0:
126,19,61708,5,0,0:0:0:0:
484,81,61892,1,0,0:0:0:0:
181,246,62076,1,0,0:0:0:0:
343,0,62260,1,0,0:0:0:0:
425,320,62444,2,0,P|428:252|402:184,1,110
179,147,62812,1,0,0:0:0:0:
388,108,62996,1,0,0:0:0:0:
80,320,63180,5,0,0:0:0:0:
151,45,63364,1,0,0:0:0:0:
274,316,63549,1,0,0:0:0:0:
267,42,63733,1,0,0:0:0:0:
36,209,63917,5,0,0:0:0:0:
370,194,64101,1,0,0:0:0:0:
22,113,64285,1,0,0:0:0:0:
390,93,64469,1,0,0:0:0:0:
149,290,64653,2,0,P|142:232|167:178,1,110
468,51,65021,2,0,P|467:138|440:164,1,110
108,61,65389,2,0,P|178:49|234:80,1,110
453,331,65757,2,0,P|390:316|366:274,1,110
377,0,66125,5,0,0:0:0:0:
259,335,66309,1,0,0:0:0:0:
496,91,66493,1,0,0:0:0:0:
137,148,66677,1,0,0:0:0:0:
482,224,66861,5,0,0:0:0:0:
202,74,67045,1,0,0:0:0:0:
481,90,67229,1,0,0:0:0:0:
191,232,67414,1,0,0:0:0:0:
415,20,67598,5,0,0:0:0:0:
359,241,67782,1,0,0:0:0:0:
135,0,67966,5,0,0:0:0:0:
195,248,68150,1,0,0:0:0:0:
293,75,68334,5,0,0:0:0:0:
279,208,68518,1,0,0:0:0:0:
20,96,68702,5,0,0:0:0:0:
57,235,68886,1,0,0:0:0:0:
394,181,69070,6,0,P|323:173|281:207,1,110
244,326,69438,1,0,0:0:0:0:
473,211,69622,2,0,P|470:144|426:100,1,110
232,58,69990,2,0,P|227:129|261:188,1,110
406,303,70358,1,0,0:0:0:0:
93,278,70542,5,0,0:0:0:0:
396,202,70726,1,0,0:0:0:0:
61,146,70910,5,0,0:0:0:0:
298,253,71095,1,0,0:0:0:0:
11,228,71279,5,0,0:0:0:0:
276,109,71463,1,0,0:0:0:0:
186,348,71647,5,0,0:0:0:0:
160,81,71831,1,0,0:0:0:0:
331,361,72015,6,0,P|327:296|380:245,1,110
475,28,72383,2,0,P|466:111|411:146,1,110
98,203,72751,2,0,P|189:176|235:202,1,110
413,263,73119,1,0,0:0:0:0:
165,259,73303,1,0,0:0:0:0:
364,116,73487,5,0,0:0:0:0:
484,317,73671,1,0,0:0:0:0:
251,91,73855,5,0,0:0:0:0:
144,302,74039,1,0,0:0:0:0:
439,76,74223,2,0,P|440:153|400:196,1,110
128,185,74591,5,0,0:0:0:0:
296,174,74776,1,0,0:0:0:0:
96,358,74960,2,0,P|70:302|80:247,1,110
236,86,75328,5,0,0:0:0:0:
202,275,75512,1,0,0:0:0:0:
313,59,75696,2,0,P|299:33|193:20,1,110
343,309,76064,5,0,0:0:0:0:
415,100,76248,1,0,0:0:0:0:
443,335,76432,5,0,0:0:0:0:
192,245,76616,1,0,0:0:0:0:
396,235,76800,1,0,0:0:0:0:
159,358,76984,1,0,0:0:0:0:
397,117,77168,5,0,0:0:0:0:
331,354,77352,1,0,0:0:0:0:
175,92,77536,1,0,0:0:0:0:
241,321,77720,1,0,0:0:0:0:
297,43,77904,6,0,P|300:126|277:167,1,110
77,333,78272,2,0,P|80:278|133:239,1,110
405,265,78641,2,0,L|281:256,1,110
54,105,79009,2,0,P|116:118|134:167,1,110
183,320,79377,5,0,0:0:0:0:
236,79,79561,1,0,0:0:0:0:
305,314,79745,1,0,0:0:0:0:
358,73,79929,1,0,0:0:0:0:
425,334,80113,5,0,0:0:0:0:
169,237,80297,1,0,0:0:0:0:
434,219,80481,1,0,0:0:0:0:
161,333,80665,1,0,0:0:0:0:
461,92,80849,6,0,P|449:187|337:195,1,220
198,92,81401,6,0,L|150:311,1,220
445,311,81953,6,0,P|365:295|415:334,1,220
464,304,82506,1,0,0:0:0:0:
290,354,82690,2,0,P|277:276|298:223,1,110
419,65,83058,2,0,P|411:141|378:178,1,110
106,156,83426,2,0,P|176:150|201:194,1,110
83,305,83794,5,0,0:0:0:0:
106,71,83978,1,0,0:0:0:0:
171,356,84162,2,0,P|184:303|173:249,1,110
300,74,84530,5,0,0:0:0:0:
314,331,84714,1,0,0:0:0:0:
378,56,84898,2,0,P|364:125|328:148,1,110
25,98,85266,6,0,P|92:101|118:138,1,110
90,344,85634,5,0,0:0:0:0:
240,61,85818,1,0,0:0:0:0:
363,308,86003,1,0,0:0:0:0:
56,231,86187,1,0,0:0:0:0:
381,132,86371,5,0,0:0:0:0:
423,384,86555,1,0,0:0:0:0:
25,98,86739,5,0,0:0:0:0:
239,56,89315,6,0,P|239:112|314:178,1,110
381,269,89683,2,0,P|298:238|192:336,1,220
304,346,90236,1,0,0:0:0:0:
482,271,90420,2,0,L|438:118,1,110
149,198,90788,2,0,L|111:331,1,110
359,178,91156,5,0,0:0:0:0:
242,200,91340,1,0,0:0:0:0:
367,94,91524,5,0,0:0:0:0:
250,116,91708,1,0,0:0:0:0:
375,10,91892,5,0,0:0:0:0:
258,32,92076,1,0,0:0:0:0:
442,231,92260,5,0,0:0:0:0:
458,63,92444,1,0,0:0:0:0:
311,254,92628,2,0,P|312:324|341:354,1,110
433,318,92996,1,0,0:0:0:0:
224,309,93180,1,0,0:0:0:0:
415,205,93364,2,0,P|425:268|412:317,1,110
241,190,93733,1,0,0:0:0:0:
446,201,93917,1,0,0:0:0:0:
319,88,94101,5,0,0:0:0:0:
330,210,94285,1,0,0:0:0:0:
235,52,94469,5,0,0:0:0:0:
241,190,94653,1,0,0:0:0:0:
150,17,94837,5,0,0:0:0:0:
151,169,95021,1,0,0:0:0:0:
391,32,95205,5,0,0:0:0:0:
325,226,95389,1,0,0:0:0:0:
113,91,95573,2,0,P|133:162|120:216,1,110
32,324,95941,2,0,P|92:311|147:344,1,110
371,365,96309,2,0,P|334:227|374:135,1,220
466,255,96861,1,0,0:0:0:0:
213,212,97045,5,0,0:0:0:0:
341,164,97229,1,0,0:0:0:0:
150,142,97414,5,0,0:0:0:0:
278,94,97598,1,0,0:0:0:0:
87,72,97782,5,0,0:0:0:0:
215,24,97966,1,0,0:0:0:0:
114,249,98150,5,0,0:0:0:0:
101,55,98334,1,0,0:0:0:0:
216,300,98518,2,0,P|227:236|198:184,1,110
51,159,98886,5,0,0:0:0:0:
295,141,99070,1,0,0:0:0:0:
30,126,99254,2,0,P|25:208|52:252,1,110
265,236,99622,2,0,P|262:178|301:137,1,110
379,338,99990,5,0,0:0:0:0:
415,158,100174,1,0,0:0:0:0:
454,283,100358,5,0,0:0:0:0:
336,117,100542,1,0,0:0:0:0:
344,260,100726,5,0,0:0:0:0:
405,67,100910,1,0,0:0:0:0:
454,283,101095,5,0,0:0:0:0:
316,96,101279,5,0,0:0:0:0:
0,0,107352,5,0,0:0:0:0:
174,95,113242,5,0,0:0:0:0:
287,177,113426,1,0,0:0:0:0:
174,95,113610,5,0,0:0:0:0:
287,177,113794,1,0,0:0:0:0:
161,198,113978,5,0,0:0:0:0:
287,91,114162,1,0,0:0:0:0:
161,198,114346,5,0,0:0:0:0:
287,91,114530,1,0,0:0:0:0:
246,249,114714,5,0,0:0:0:0:
221,29,114898,1,0,0:0:0:0:
246,249,115082,5,0,0:0:0:0:
221,29,115266,1,0,0:0:0:0:
364,199,115450,5,0,0:0:0:0:
387,72,115634,1,0,0:0:0:0:
476,185,115818,1,0,0:0:0:0:
408,52,116003,1,0,0:0:0:0:
429,293,116187,6,0,P|426:216|453:186,1,110
294,362,116555,2,0,P|291:288|247:247,1,110
149,320,116923,2,0,P|152:237|190:200,1,110
33,227,117291,2,0,P|30:145|1:98,1,110
238,50,117659,5,0,0:0:0:0:
106,139,117843,1,0,0:0:0:0:
316,137,118027,1,0,0:0:0:0:
142,49,118211,1,0,0:0:0:0:
335,34,118395,2,0,P|327:121|295:152,1,110
197,314,118763,2,0,P|211:251|256:219,1,110
494,336,119131,6,0,L|243:289,1,220
339,206,119683,1,0,0:0:0:0:
162,168,119868,2,0,P|153:234|192:285,1,110
413,244,120236,2,0,P|416:171|369:130,1,110
146,39,120604,5,0,0:0:0:0:
163,199,120788,1,0,0:0:0:0:
360,50,120972,1,0,0:0:0:0:
308,217,121156,1,0,0:0:0:0:
124,19,121340,5,0,0:0:0:0:
145,214,121524,1,0,0:0:0:0:
385,33,121708,1,0,0:0:0:0:
321,236,121892,1,0,0:0:0:0:
35,125,122076,2,0,P|29:216|53:245,1,110
176,331,122444,1,0,0:0:0:0:
176,331,122812,1,0,0:0:0:0:
460,46,123180,6,0,P|395:91|396:156,1,110
403,372,123549,2,0,P|325:339|317:278,1,110
231,62,123917,1,0,0:0:0:0:
231,62,124285,1,0,0:0:0:0:
231,62,124653,5,0,0:0:0:0:
88,160,124837,1,0,0:0:0:0:
316,183,125021,5,0,0:0:0:0:
90,67,125205,1,0,0:0:0:0:
347,77,125389,5,0,0:0:0:0:
156,239,125573,1,0,0:0:0:0:
231,22,125757,5,0,0:0:0:0:
260,295,125941,1,0,0:0:0:0:
366,46,126125,5,0,0:0:0:0:
360,334,126309,1,0,0:0:0:0:
456,89,126493,5,0,0:0:0:0:
194,211,126677,1,0,0:0:0:0:
441,247,126861,1,0,0:0:0:0:
243,33,127045,1,0,0:0:0:0:
338,312,127229,2,0,P|349:235|333:186,1,110
120,163,127598,2,0,P|112:244|145:275,1,110
337,91,127966,5,0,0:0:0:0:
337,91,128150,1,0,0:0:0:0:
131,61,128334,5,0,0:0:0:0:
131,61,128518,1,0,0:0:0:0:
316,6,128702,5,0,0:0:0:0:
153,152,128886,1,0,0:0:0:0:
330,187,129070,1,0,0:0:0:0:
195,3,129254,1,0,0:0:0:0:
234,246,129438,2,0,P|238:177|278:142,1,110
422,296,129806,2,0,P|373:331|317:335,1,110
136,273,130174,1,0,0:0:0:0:
351,241,130358,1,0,0:0:0:0:
141,143,130542,5,0,0:0:0:0:
201,362,130726,1,0,0:0:0:0:
308,141,130910,1,0,0:0:0:0:
287,338,131095,1,0,0:0:0:0:
219,66,131279,6,0,P|218:143|238:191,1,110
382,279,131647,1,0,0:0:0:0:
422,102,131831,1,0,0:0:0:0:
503,369,132015,2,0,P|491:313|513:238,1,110
493,33,132383,5,0,0:0:0:0:
493,33,132567,1,0,0:0:0:0:
429,215,132751,5,0,0:0:0:0:
429,215,132935,1,0,0:0:0:0:
362,31,133119,5,0,0:0:0:0:
498,160,133303,1,0,0:0:0:0:
267,95,133487,2,0,P|251:166|288:220,1,110
477,353,133855,2,0,P|395:349|359:372,1,110
150,282,134223,5,0,0:0:0:0:
371,264,134407,1,0,0:0:0:0:
169,143,134591,5,0,0:0:0:0:
387,182,134775,1,0,0:0:0:0:
223,12,134960,5,0,0:0:0:0:
423,106,135144,1,0,0:0:0:0:
251,189,135328,1,0,0:0:0:0:
354,18,135512,1,0,0:0:0:0:
406,261,135696,2,0,P|385:193|323:163,1,110
110,224,136064,5,0,0:0:0:0:
110,224,136248,1,0,0:0:0:0:
280,339,136432,2,0,P|291:274|348:238,1,110
491,174,136800,5,0,0:0:0:0:
491,174,136984,1,0,0:0:0:0:
360,320,137168,5,0,0:0:0:0:
360,320,137352,1,0,0:0:0:0:
372,152,137536,5,0,0:0:0:0:
472,321,137720,1,0,0:0:0:0:
250,194,137904,2,0,P|246:267|274:295,1,110
449,60,138272,5,0,0:0:0:0:
203,76,138456,1,0,0:0:0:0:
421,155,138641,1,0,0:0:0:0:
264,13,138825,1,0,0:0:0:0:
299,226,139009,5,0,0:0:0:0:
369,12,139193,1,0,0:0:0:0:
413,269,139377,1,0,0:0:0:0:
292,91,139561,1,0,0:0:0:0:
214,331,139745,2,0,P|215:264|259:231,1,110
449,371,140113,2,0,P|432:306|384:275,1,110
93,244,140481,5,0,0:0:0:0:
337,226,140665,1,0,0:0:0:0:
190,88,140849,1,0,0:0:0:0:
172,316,141033,6,0,L|208:269,3,36.6666666666667
307,339,141401,5,0,0:0:0:0:
426,183,141585,2,0,P|423:253|447:294,1,110
453,317,141861,1,0,0:0:0:0:
453,317,141953,1,0,0:0:0:0:
223,27,142137,1,0,0:0:0:0:
167,324,142322,1,0,0:0:0:0:
121,13,142506,1,0,0:0:0:0:
435,76,142690,5,0,0:0:0:0:
50,146,142874,1,0,0:0:0:0:
426,222,143058,5,0,0:0:0:0:
41,292,143242,1,0,0:0:0:0:
308,18,143426,2,0,P|316:89|276:147,1,110
142,209,143794,1,0,0:0:0:0:
218,66,143978,1,0,0:0:0:0:
275,344,144162,5,0,0:0:0:0:
134,118,144346,1,0,0:0:0:0:
95,365,144530,1,0,0:0:0:0:
291,124,144714,1,0,0:0:0:0:
436,364,144898,2,0,P|429:306|394:254,1,110
221,257,145266,1,0,0:0:0:0:
414,175,145450,1,0,0:0:0:0:
86,102,145634,5,0,0:0:0:0:
394,261,145818,1,0,0:0:0:0:
233,7,146003,5,0,0:0:0:0:
248,355,146187,1,0,0:0:0:0:
387,88,146371,5,0,0:0:0:0:
94,274,146555,1,0,0:0:0:0:
394,261,146739,5,0,0:0:0:0:
86,102,146923,1,0,0:0:0:0:
420,175,147107,2,0,P|394:246|350:274,1,110
91,23,147475,2,0,P|143:43|165:111,1,110
28,319,147843,2,0,L|55:206,1,110
337,137,148211,2,0,P|280:164|228:142,1,110
455,60,148579,5,0,0:0:0:0:
398,306,148763,1,0,0:0:0:0:
327,105,148947,5,0,0:0:0:0:
270,351,149131,1,0,0:0:0:0:
199,83,149315,5,0,0:0:0:0:
317,279,149499,1,0,0:0:0:0:
69,204,149683,5,0,0:0:0:0:
276,193,149868,1,0,0:0:0:0:
55,352,150052,2,0,P|56:288|79:244,1,110
390,288,150420,2,0,P|351:336|284:337,1,110
156,64,150788,5,0,0:0:0:0:
194,253,150972,1,0,0:0:0:0:
295,43,151156,5,0,0:0:0:0:
282,235,151340,1,0,0:0:0:0:
433,58,151524,5,0,0:0:0:0:
371,240,151708,1,0,0:0:0:0:
286,20,151892,5,0,0:0:0:0:
303,335,152076,2,0,P|306:273|280:233,1,110
52,139,152444,2,0,P|59:211|101:240,1,110
306,132,152812,1,0,0:0:0:0:
88,322,152996,2,0,P|137:304|168:253,1,110
183,26,153364,2,0,P|139:92|144:147,1,110
421,297,153733,2,0,P|358:249|333:272,1,110
160,326,154101,1,0,0:0:0:0:
357,375,154285,1,0,0:0:0:0:
250,94,154469,5,0,0:0:0:0:
261,369,154653,1,0,0:0:0:0:
475,158,154837,1,0,0:0:0:0:
178,223,155021,1,0,0:0:0:0:
417,30,155205,5,0,0:0:0:0:
348,272,155389,1,0,0:0:0:0:
179,46,155573,2,0,P|164:110|203:160,1,110
464,248,155941,5,0,0:0:0:0:
162,288,156125,1,0,0:0:0:0:
401,110,156309,1,0,0:0:0:0:
371,368,156493,1,0,0:0:0:0:
217,81,156677,5,0,0:0:0:0:
264,343,156861,1,0,0:0:0:0:
313,68,157045,1,0,0:0:0:0:
162,288,157229,1,0,0:0:0:0:
96,15,157414,2,0,P|97:75|129:120,1,110
348,166,157782,5,0,0:0:0:0:
42,210,157966,1,0,0:0:0:0:
411,231,158150,2,0,P|356:253|288:228,1,110
102,80,158518,5,0,0:0:0:0:
401,88,158702,1,0,0:0:0:0:
63,11,158886,2,0,P|22:65|41:137,1,110
469,26,159254,5,0,0:0:0:0:
427,270,159438,1,0,0:0:0:0:
154,13,159622,1,0,0:0:0:0:
155,247,159806,1,0,0:0:0:0:
318,40,159990,6,0,P|331:113|307:147,1,110
62,131,160358,5,0,0:0:0:0:
422,157,160542,1,0,0:0:0:0:
62,131,160726,1,0,0:0:0:0:
422,157,160910,1,0,0:0:0:0:
71,286,161095,5,0,0:0:0:0:
327,65,161279,1,0,0:0:0:0:
71,286,161463,1,0,0:0:0:0:
327,65,161647,1,0,0:0:0:0:
219,318,161831,5,0,0:0:0:0:
178,102,162015,1,0,0:0:0:0:
312,267,162199,5,0,0:0:0:0:
350,49,162383,1,0,0:0:0:0:
421,324,162567,5,0,0:0:0:0:
351,134,162751,1,0,0:0:0:0:
325,367,162935,5,0,0:0:0:0:
451,155,163119,1,0,0:0:0:0:
498,384,163303,6,0,P|480:328|431:319,1,110
254,257,163671,1,0,0:0:0:0:
433,52,163855,6,0,P|433:128|458:162,1,110
507,277,164223,1,0,0:0:0:0:
214,150,164407,6,0,P|204:217|234:262,1,110
356,84,164776,1,0,0:0:0:0:
105,164,164960,6,0,P|107:104|159:61,1,110
367,222,165328,1,0,0:0:0:0:
91,297,165512,5,0,0:0:0:0:
270,80,165696,1,0,0:0:0:0:
287,326,165880,1,0,0:0:0:0:
105,164,166064,1,0,0:0:0:0:
213,362,166248,2,0,P|210:296|275:251,1,110
349,250,166616,1,0,0:0:0:0:
412,344,166800,1,0,0:0:0:0:
462,243,166984,6,0,P|446:196|382:168,2,110
289,347,167536,1,0,0:0:0:0:
307,99,167720,5,0,0:0:0:0:
391,339,167904,1,0,0:0:0:0:
302,87,168088,5,0,0:0:0:0:
288,373,168272,1,0,0:0:0:0:
303,73,168456,5,0,0:0:0:0:
395,352,168641,1,0,0:0:0:0:
299,60,168825,5,0,0:0:0:0:
287,382,169009,1,0,0:0:0:0:
414,78,169193,5,0,0:0:0:0:
512,384,172137,5,0,0:0:0:0:
391,116,174714,5,0,0:0:0:0:
346,309,175082,1,0,0:0:0:0:
404,68,180972,6,0,P|393:141|427:189,1,110
260,105,181340,2,0,P|280:175|331:204,1,110
145,199,181708,2,0,P|193:254|252:259,1,110
443,286,182076,2,0,P|374:299|351:348,1,110
164,350,182444,5,0,0:0:0:0:
277,189,182628,1,0,0:0:0:0:
295,354,182812,1,0,0:0:0:0:
93,261,182996,1,0,0:0:0:0:
159,121,183180,5,0,0:0:0:0:
216,276,183364,1,0,0:0:0:0:
40,171,183549,1,0,0:0:0:0:
261,185,183733,1,0,0:0:0:0:
56,365,183917,6,0,P|44:295|72:263,1,110
193,143,184285,2,0,P|181:213|209:245,1,110
330,365,184653,2,0,P|318:295|346:263,1,110
467,143,185021,2,0,P|455:213|483:245,1,110
435,339,185389,5,0,0:0:0:0:
326,175,185573,1,0,0:0:0:0:
241,329,185757,1,0,0:0:0:0:
184,115,185941,1,0,0:0:0:0:
106,318,186125,5,0,0:0:0:0:
195,140,186309,1,0,0:0:0:0:
248,357,186493,1,0,0:0:0:0:
341,147,186677,1,0,0:0:0:0:
443,354,186861,2,0,P|425:269|456:225,1,110
465,63,187229,5,0,0:0:0:0:
428,186,187414,1,0,0:0:0:0:
322,44,187598,1,0,0:0:0:0:
448,209,187782,1,0,0:0:0:0:
223,179,187966,5,0,0:0:0:0:
361,127,188150,1,0,0:0:0:0:
175,111,188334,2,0,P|140:196|163:228,1,110
355,305,188702,2,0,P|287:275|254:309,1,110
38,342,189070,2,0,P|107:348|142:312,1,110
263,93,189438,1,0,0:0:0:0:
384,194,189714,5,0,0:0:0:0:
384,194,189806,5,0,0:0:0:0:
215,211,189990,1,0,0:0:0:0:
389,94,190174,1,0,0:0:0:0:
375,306,190358,5,0,0:0:0:0:
282,111,190542,1,0,0:0:0:0:
264,351,190726,1,0,0:0:0:0:
139,69,190910,5,0,0:0:0:0:
220,267,191095,1,0,0:0:0:0:
51,27,191279,2,0,P|49:94|86:147,1,110
321,170,191647,1,0,0:0:0:0:
133,222,191831,1,0,0:0:0:0:
364,280,192015,5,0,0:0:0:0:
195,129,192199,1,0,0:0:0:0:
395,75,192383,5,0,0:0:0:0:
224,283,192567,1,0,0:0:0:0:
130,77,192751,6,0,P|113:142|148:204,1,110
406,166,193116,2,0,P|404:243|372:289,1,110
63,294,193482,5,0,0:0:0:0:
299,144,193665,1,0,0:0:0:0:
1,81,193848,1,0,0:0:0:0:
187,283,194031,1,0,0:0:0:0:
214,16,194214,2,0,P|192:102|208:150,1,110
470,217,194580,1,0,0:0:0:0:
166,207,194763,5,0,0:0:0:0:
438,124,194946,1,0,0:0:0:0:
267,352,195128,1,0,0:0:0:0:
271,67,195311,1,0,0:0:0:0:
435,300,195494,1,0,0:0:0:0:
172,101,195677,2,0,P|156:167|180:232,1,110
496,240,196043,2,0,P|427:215|366:249,1,110
52,316,196409,2,0,L|197:313,1,110
18,202,196775,5,0,0:0:0:0:
345,177,196958,1,0,0:0:0:0:
77,110,197141,6,0,P|71:179|174:252,1,165
177,236,197507,6,0,P|186:173|167:52,1,165
173,44,197872,6,0,P|236:43|259:158,1,165
279,170,198238,6,0,P|349:196|414:164,1,110
481,37,198604,6,0,P|469:108|498:166,1,110
428,368,198970,2,0,P|365:348|289:377,1,110
118,307,199336,5,0,0:0:0:0:
416,248,199519,1,0,0:0:0:0:
91,164,199702,1,0,0:0:0:0:
328,301,199885,1,0,0:0:0:0:
236,71,200068,6,0,P|229:130|188:185,1,110
462,162,200433,2,0,P|461:95|484:50,1,110
230,350,200799,6,0,L|226:259,2,73.3333333333333
266,368,201165,6,0,P|307:324|304:239,1,110
111,83,201531,6,0,P|111:167|73:204,1,110
391,232,201897,2,0,L|382:110,1,110
76,292,202263,2,0,P|152:297|181:343,1,110
417,41,202629,2,0,P|338:44|304:99,1,110
196,211,202994,6,0,L|236:144,1,55
209,234,203360,6,0,L|217:156,1,55
231,250,203726,6,0,L|206:176,1,55
258,254,204092,6,0,L|204:198,1,55
65,166,204275,1,0,0:0:0:0:
444,123,204458,6,0,P|428:200|454:248,1,110
88,332,204821,2,0,L|222:347,1,110
321,66,205185,5,0,0:0:0:0:
39,168,205367,1,0,0:0:0:0:
170,7,205548,1,0,0:0:0:0:
229,254,205730,1,0,0:0:0:0:
406,57,205912,6,0,P|392:122|326:142,1,110
34,260,206276,2,0,P|99:260|146:282,1,110
431,345,206639,6,0,L|444:268,2,73.3333333333333
385,358,207003,6,0,P|364:291|400:240,1,110
216,82,207367,6,0,P|227:158|199:204,1,110
29,334,207730,2,0,P|102:318|151:343,1,110
419,223,208094,5,0,0:0:0:0:
76,222,208276,1,0,0:0:0:0:
368,91,208458,1,0,0:0:0:0:
235,354,208639,1,0,0:0:0:0:
178,54,208821,6,0,P|181:159|158:192,1,110
10,365,209185,2,0,P|81:341|116:356,1,110
475,348,209548,2,0,P|400:355|343:309,1,110
480,84,209912,2,0,L|441:215,1,110
84,122,210276,6,0,P|154:134|212:114,1,110
459,1,210637,2,0,P|403:49|406:126,1,110
368,199,210908,1,0,0:0:0:0:
362,227,210998,2,0,P|301:232|284:214,1,55
195,183,211179,2,0,P|131:210|124:231,1,55
61,323,211360,2,0,P|132:348|209:327,1,110
463,242,211721,6,0,L|429:373,1,110
209,109,212083,2,0,P|288:98|350:147,1,110
276,352,212444,6,0,L|296:269,2,73.3333333333333
222,369,212806,6,0,P|212:297|241:250,1,110
449,25,213167,6,0,L|435:143,1,110
342,47,213529,2,0,L|328:165,1,110
209,295,213890,6,0,L|195:177,1,110
102,273,214252,2,0,L|88:155,1,110
361,162,214613,6,0,P|346:253|385:338,1,165
407,319,214974,6,0,P|328:280|241:308,1,165
230,327,215336,6,0,L|246:226,2,73.3333333333333
193,347,215697,6,0,P|173:271|216:215,1,110
396,60,216059,5,0,0:0:0:0:
91,137,216238,1,0,0:0:0:0:
380,161,216418,1,0,0:0:0:0:
89,42,216597,1,0,0:0:0:0:
398,166,216777,5,0,0:0:0:0:
90,244,216957,1,0,0:0:0:0:
403,278,217137,1,0,0:0:0:0:
73,129,217316,1,0,0:0:0:0:
458,78,217496,5,0,0:0:0:0:
199,299,217675,1,0,0:0:0:0:
218,41,217855,1,0,0:0:0:0:
425,314,218035,1,0,0:0:0:0:
87,28,218214,5,0,0:0:0:0:
421,183,218394,1,0,0:0:0:0:
143,384,218573,1,0,0:0:0:0:
316,12,218753,1,0,0:0:0:0:
15,174,218933,5,0,0:0:0:0:
438,134,219112,1,0,0:0:0:0:
64,307,219292,5,0,0:0:0:0:
487,267,219471,1,0,0:0:0:0:
176,29,219651,2,0,P|165:109|219:207,1,137.5
371,361,220011,1,0,0:0:0:0:
321,152,220190,1,0,0:0:0:0:
58,327,220370,5,0,0:0:0:0:
414,232,220549,1,0,0:0:0:0:
73,71,220729,5,0,0:0:0:0:
161,323,220908,1,0,0:0:0:0:
250,46,221088,6,0,P|243:126|182:187,1,137.5
62,212,221448,5,0,0:0:0:0:
306,157,221627,1,0,0:0:0:0:
26,52,221807,5,0,0:0:0:0:
446,83,221987,1,0,0:0:0:0:
62,212,222166,5,0,0:0:0:0:
306,157,222345,1,0,0:0:0:0:
26,52,222525,5,0,0:0:0:0:
446,83,222705,1,0,0:0:0:0:
62,212,222885,5,0,0:0:0:0:
306,157,223064,1,0,0:0:0:0:
139,25,223244,2,0,P|134:96|172:167,1,137.5
482,345,223603,2,0,P|423:256|354:274,1,137.5
82,342,223963,2,0,L|222:332,1,137.5
409,42,224322,2,0,P|401:147|421:192,1,137.5
109,223,224681,5,0,0:0:0:0:
446,189,224861,1,0,0:0:0:0:
194,32,225041,1,0,0:0:0:0:
216,324,225220,1,0,0:0:0:0:
373,24,225400,5,0,0:0:0:0:
333,334,225579,1,0,0:0:0:0:
111,107,225759,5,0,0:0:0:0:
425,185,225939,1,0,0:0:0:0:
39,298,226118,5,0,0:0:0:0:
316,162,226298,1,0,0:0:0:0:
30,52,226478,1,0,0:0:0:0:
191,249,226657,1,0,0:0:0:0:
285,29,226837,5,0,0:0:0:0:
282,323,227017,1,0,0:0:0:0:
463,10,227196,5,0,0:0:0:0:
443,367,227376,1,0,0:0:0:0:
120,134,227556,5,0,0:0:0:0:
491,156,227735,1,0,0:0:0:0:
189,12,227915,1,0,0:0:0:0:
431,229,228094,2,0,P|333:229|293:192,1,137.5
81,0,228454,2,0,P|107:72|75:140,1,137.5
59,303,228813,1,0,0:0:0:0:
246,67,228993,5,0,0:0:0:0:
274,343,229172,1,0,0:0:0:0:
376,57,229352,1,0,0:0:0:0:
153,327,229532,1,0,0:0:0:0:
131,16,229711,5,0,0:0:0:0:
351,284,229891,1,0,0:0:0:0:
263,1,230070,1,0,0:0:0:0:
146,349,230250,1,0,0:0:0:0:
461,2,230430,6,0,P|470:88|410:154,1,137.5
77,232,230789,2,0,P|185:201|215:225,1,137.5
491,349,231148,2,0,L|314:332,1,137.5
152,74,231508,1,0,0:0:0:0:
436,141,231687,1,0,0:0:0:0:
146,316,231867,5,0,0:0:0:0:
224,7,232047,1,0,0:0:0:0:
403,272,232226,5,0,0:0:0:0:
90,224,232406,1,0,0:0:0:0:
398,12,232585,5,0,0:0:0:0:
317,321,232765,1,0,0:0:0:0:
238,87,232945,1,0,0:0:0:0:
467,131,233124,1,0,0:0:0:0:
185,374,233304,2,0,P|195:302|270:277,1,137.5
476,305,233663,5,0,0:0:0:0:
177,178,233843,1,0,0:0:0:0:
450,20,234023,2,0,P|433:93|460:155,1,137.5
290,306,234382,1,0,0:0:0:0:
340,80,234561,1,0,0:0:0:0:
54,281,234741,5,0,0:0:0:0:
362,199,234921,1,0,0:0:0:0:
7,128,235101,1,0,0:0:0:0:
272,240,235280,1,0,0:0:0:0:
15,365,235460,5,0,0:0:0:0:
368,324,235640,1,0,0:0:0:0:
37,280,235819,1,0,0:0:0:0:
362,199,235999,1,0,0:0:0:0:
116,368,236178,6,0,P|124:289|176:238,1,137.5
395,47,236538,2,0,P|379:124|334:170,1,137.5
33,51,236897,2,0,P|115:52|156:121,1,137.5
454,320,237256,2,0,L|306:318,1,137.5
76,116,237615,6,0,P|58:195|87:242,1,137.5
466,133,237975,2,0,L|318:131,1,137.5
24,336,238334,2,0,P|42:253|101:242,1,137.5
371,271,238693,1,0,0:0:0:0:
174,144,238873,1,0,0:0:0:0:
450,46,239053,6,0,B|394:47|394:47|378:72|372:109|402:152|402:152|376:191|349:222|269:215,1,275
96,301,239591,2,0,B|117:277|168:263|168:263|74:275|19:204|19:204|57:197|83:241,1,275
168,25,240130,2,0,B|192:47|247:47|247:47|200:76|151:71|151:71|221:123|201:197,1,275
344,357,240669,2,0,P|330:277|426:353,1,275
186,365,241208,5,0,0:0:0:0:
308,167,241388,1,0,0:0:0:0:
383,309,241567,1,0,0:0:0:0:
156,232,241747,1,0,0:0:0:0:
418,152,241927,2,0,P|398:229|335:263,1,137.5
207,67,242286,5,0,0:0:0:0:
376,57,242466,1,0,0:0:0:0:
140,141,242645,2,0,P|104:74|139:4,1,137.5
412,160,243005,5,0,0:0:0:0:
226,83,243184,1,0,0:0:0:0:
472,27,243364,5,0,0:0:0:0:
374,356,243544,1,0,0:0:0:0:
343,38,243723,5,0,0:0:0:0:
486,369,243903,1,0,0:0:0:0:
215,39,244082,5,0,0:0:0:0:
135,363,244262,1,0,0:0:0:0:
441,196,244442,1,0,0:0:0:0:
48,192,244621,1,0,0:0:0:0:
446,34,244801,5,0,0:0:0:0:
410,335,244981,1,0,0:0:0:0:
231,44,245160,5,0,0:0:0:0:
313,333,245340,1,0,0:0:0:0:
99,106,245520,2,0,P|72:176|98:259,1,137.5
422,185,245879,1,0,0:0:0:0:
183,282,246058,1,0,0:0:0:0:
315,27,246238,5,0,0:0:0:0:
427,314,246418,1,0,0:0:0:0:
179,165,246598,5,0,0:0:0:0:
418,68,246778,1,0,0:0:0:0:
238,353,246957,5,0,0:0:0:0:
256,108,247136,1,0,0:0:0:0:
427,314,247316,1,0,0:0:0:0:
158,280,247496,1,0,0:0:0:0:
460,145,247675,2,0,P|469:230|436:270,1,137.5
111,163,248035,5,0,0:0:0:0:
391,196,248214,1,0,0:0:0:0:
79,89,248394,2,0,P|32:142|51:215,1,137.5
325,75,248753,1,0,0:0:0:0:
192,311,248933,1,0,0:0:0:0:
188,53,249112,5,0,0:0:0:0:
388,287,249292,1,0,0:0:0:0:
127,213,249472,1,0,0:0:0:0:
438,148,249651,1,0,0:0:0:0:
192,311,249831,5,0,0:0:0:0:
320,12,250011,1,0,0:0:0:0:
404,320,250190,1,0,0:0:0:0:
174,38,250370,1,0,0:0:0:0:
499,209,250550,2,0,P|430:231|365:186,1,137.5
113,147,250909,2,0,L|99:305,1,137.5
466,348,251268,2,0,P|393:333|329:371,1,137.5
111,287,251627,2,0,L|98:150,1,137.5
350,47,251987,5,0,0:0:0:0:
271,238,252166,1,0,0:0:0:0:
172,66,252346,1,0,0:0:0:0:
396,132,252526,1,0,0:0:0:0:
145,200,252705,5,0,0:0:0:0:
302,112,252885,1,0,0:0:0:0:
53,90,253064,1,0,0:0:0:0:
125,318,253244,1,0,0:0:0:0:
227,37,253424,5,0,0:0:0:0:
233,290,253603,1,0,0:0:0:0:
352,37,253783,1,0,0:0:0:0:
351,330,253963,2,0,P|321:245|260:231,1,137.5
37,216,254322,2,0,P|135:210|159:166,1,137.5
167,54,254681,1,0,0:0:0:0:
214,329,254861,5,0,0:0:0:0:
374,119,255041,1,0,0:0:0:0:
106,136,255220,1,0,0:0:0:0:
379,260,255400,1,0,0:0:0:0:
236,40,255579,5,0,0:0:0:0:
208,363,255759,1,0,0:0:0:0:
386,35,255939,1,0,0:0:0:0:
445,371,256118,1,0,0:0:0:0:
151,4,256298,6,0,P|158:87|238:120,1,137.5
503,229,256657,2,0,P|402:228|367:288,1,137.5
54,258,257017,2,0,P|130:271|199:233,1,137.5
256,123,257376,1,0,0:0:0:0:
300,303,257556,1,0,0:0:0:0:
106,102,257735,5,0,0:0:0:0:
425,221,257915,1,0,0:0:0:0:
147,333,258094,1,0,0:0:0:0:
380,88,258274,1,0,0:0:0:0:
383,358,258454,2,0,P|372:281|413:227,1,137.5
490,154,258813,5,0,0:0:0:0:
241,186,258993,1,0,0:0:0:0:
398,2,259172,2,0,P|394:90|358:136,1,137.5
48,52,259532,5,0,0:0:0:0:
298,57,259711,1,0,0:0:0:0:
67,207,259891,2,0,P|56:111|93:80,1,137.5
368,234,260250,1,0,0:0:0:0:
133,154,260430,1,0,0:0:0:0:
400,128,260609,5,0,0:0:0:0:
315,345,260789,1,0,0:0:0:0:
245,90,260969,5,0,0:0:0:0:
452,322,261148,1,0,0:0:0:0:
170,261,261328,5,0,0:0:0:0:
389,221,261508,1,0,0:0:0:0:
133,154,261687,1,0,0:0:0:0:
227,357,261867,1,0,0:0:0:0:
342,32,262047,5,0,0:0:0:0:
305,262,262226,1,0,0:0:0:0:
212,68,262406,1,0,0:0:0:0:
431,108,262585,1,0,0:0:0:0:
179,227,262765,5,0,0:0:0:0:
357,161,262945,1,0,0:0:0:0:
139,123,263124,1,0,0:0:0:0:
207,319,263304,1,0,0:0:0:0:
319,57,263484,5,0,0:0:0:0:
322,318,263663,1,0,0:0:0:0:
221,70,263843,5,0,0:0:0:0:
414,293,264023,1,0,0:0:0:0:
420,82,264202,5,0,0:0:0:0:
225,305,264382,1,0,0:0:0:0:
318,23,264561,5,0,0:0:0:0:
322,351,264740,1,0,0:0:0:0:
152,20,264921,2,0,B|114:45|76:41|76:41|123:58|123:58|81:129|139:200,1,275
174,360,265460,2,0,B|182:307|212:298|258:329|258:329|264:271|207:234|207:234|263:235|273:268,1,275
478,186,265999,2,0,B|424:212|325:192|325:192|359:180|369:153|369:153|405:160|431:188,1,275
466,339,266538,5,0,0:0:0:0:
466,339,266627,1,0,0:0:0:0:
466,339,266717,1,0,0:0:0:0:
429,25,266897,1,0,0:0:0:0:
206,260,267076,5,0,0:0:0:0:
470,173,267256,1,0,0:0:0:0:
71,91,267436,1,0,0:0:0:0:
353,238,267615,1,0,0:0:0:0:
84,283,267795,2,0,P|129:217|206:226,1,137.5
344,132,268154,5,0,0:0:0:0:
194,103,268334,1,0,0:0:0:0:
443,306,268514,2,0,P|438:216|470:168,1,137.5
451,17,268873,1,0,0:0:0:0:
343,165,269053,1,0,0:0:0:0:
169,12,269232,5,0,0:0:0:0:
211,257,269412,1,0,0:0:0:0:
259,68,269591,1,0,0:0:0:0:
301,313,269771,1,0,0:0:0:0:
382,53,269951,5,0,0:0:0:0:
196,279,270130,1,0,0:0:0:0:
169,12,270310,5,0,0:0:0:0:
404,321,270490,1,0,0:0:0:0:
0,97,270669,5,0,0:0:0:0:
256,192,270848,12,0,274980,0:0:0:0:
