osu file format v14

[General]
AudioFilename: audio.mp3
AudioLeadIn: 0
PreviewTime: 50761
Countdown: 0
SampleSet: Soft
StackLeniency: 0.7
Mode: 2
LetterboxInBreaks: 0
WidescreenStoryboard: 1

[Editor]
DistanceSpacing: 2.2
BeatDivisor: 4
GridSize: 16
TimelineZoom: 2

[Metadata]
Title:Kamisama Hajimemashita (TV Size)
TitleUnicode:神様はじめました (TV Size)
Artist:Hanae
ArtistUnicode:ハナエ
Creator:rew0825
Version:Salad
Source:神様はじめました
Tags:kiss anime op opening japanese pop j-pop jpop female vocal vocals 真部脩一 shuichi shūichi shuuichi mabe
BeatmapID:3799753
BeatmapSetID:1848847

[Difficulty]
HPDrainRate:3
CircleSize:3
OverallDifficulty:6.8
ApproachRate:6.8
SliderMultiplier:1.7
SliderTickRate:1

[Events]
//Background and Video events
Video,0,"vdo.m4v"
0,0,"bg.jpg",0,0
//Break Periods
//Storyboard Layer 0 (Background)
//Storyboard Layer 1 (Fail)
//Storyboard Layer 2 (Pass)
//Storyboard Layer 3 (Foreground)
//Storyboard Layer 4 (Overlay)
//Storyboard Sound Samples

[TimingPoints]
538,410.958904109589,3,2,25,80,1,0
2387,-100,4,2,25,50,0,0
4031,410.958904109589,4,2,25,50,1,0
4441,-100,4,2,25,60,0,0
5674,410.958904109589,4,2,26,70,1,0
5674,-100,4,2,26,70,0,0
22112,410.958904109589,4,2,26,70,1,0
22112,-100,4,2,25,70,0,0
35264,410.537119397879,4,2,25,70,1,0
50043,-100,4,2,25,80,0,0
51685,432.588320115357,4,2,25,80,1,1
51685,-100,4,2,25,80,0,1
52550,404.858299595142,4,2,25,80,1,1
53359,404.858299595142,4,2,25,80,1,1
54978,420.609884332282,4,2,25,80,1,1
56660,401.33779264214,4,2,25,80,1,1
58265,416.666666666667,4,2,25,80,1,1
59931,410.958904109589,4,2,25,80,1,1
64040,411.240575736806,4,2,25,80,1,1
64451,407.608695652174,4,2,25,80,1,1
64858,408.163265306122,4,2,25,80,1,1
66490,411.805078929307,4,2,25,80,1,1
73078,410.116199589884,4,2,25,80,1,1
77999,-100,4,2,26,80,0,1
78614,410.116199589884,4,2,26,80,1,1
79229,410.116199589884,4,2,25,80,1,0
79229,-100,4,2,25,80,0,0
79434,-100,4,2,25,30,0,0
81279,444.444444444445,4,2,25,60,1,0
82167,400,4,2,25,60,1,0
82967,400,4,2,25,60,1,0
83767,406.779661016949,4,2,25,60,1,0
84580,406.779661016949,4,2,25,60,1,0
84783,-100,4,2,25,30,0,0
85800,-100,4,2,25,20,0,0
87020,-100,4,2,25,10,0,0

[Colours]
Combo1 : 233,142,240
Combo2 : 241,163,75
Combo3 : 238,242,85
Combo4 : 85,236,112

[HitObjects]
271,341,538,6,0,P|329:339|365:246,1,170,6|0,0:0|0:0,0:0:0:0:
279,245,1154,2,0,P|209:244|158:163,1,170,2|2,0:0|0:0,0:0:0:0:
243,166,1770,5,2,0:0:0:0:
256,192,2387,12,0,4031,0:0:0:0:
324,347,4441,6,0,P|379:306|323:248,1,170,2|2,0:0|0:0,0:0:0:0:
151,248,5263,1,2,0:0:0:0:
149,163,5469,1,2,0:0:0:0:
336,163,5674,6,0,P|391:162|437:66,1,170,6|0,3:2|1:2,0:0:0:0:
267,69,6495,2,0,P|188:67|119:124,1,170,2|2,3:2|1:2,0:0:0:0:
307,122,7317,6,0,L|397:122,2,85,2|2|2,0:0|0:0|1:2,0:0:0:0:
136,122,8139,1,2,3:2:0:0:
84,189,8345,1,0,0:0:0:0:
135,256,8550,1,2,1:2:0:0:
219,256,8756,1,2,0:0:0:0:
406,256,8961,6,0,P|458:217|399:155,1,170,2|2,3:2|1:2,0:0:0:0:
230,154,9783,1,2,3:2:0:0:
315,154,9989,1,2,0:0:0:0:
400,154,10194,1,2,1:2:0:0:
212,153,10605,6,0,P|157:151|99:58,1,170,2|2,0:0|1:2,0:0:0:0:
269,61,11427,2,0,P|324:63|382:156,1,170,2|2,3:2|1:2,0:0:0:0:
296,152,12043,1,2,0:0:0:0:
109,152,12249,6,0,P|52:191|112:246,1,170,2|0,3:2|1:2,0:0:0:0:
278,246,13071,2,0,P|346:242|392:155,1,170,2|2,3:2|1:2,0:0:0:0:
221,159,13893,6,0,L|135:159,2,85,2|2|2,0:0|0:0|1:2,0:0:0:0:
391,159,14715,2,0,P|441:129|383:62,1,170,2|2,3:2|1:2,0:0:0:0:
299,61,15331,1,2,0:0:0:0:
111,61,15537,6,0,P|61:91|119:158,1,170,2|2,3:2|1:2,0:0:0:0:
287,158,16358,1,2,3:2:0:0:
202,158,16564,1,2,0:0:0:0:
116,158,16769,1,2,1:2:0:0:
303,158,17180,6,0,P|356:206|297:266,1,170,2|0,3:2|1:2,0:0:0:0:
130,266,18002,1,0,3:2:0:0:
49,240,18208,1,0,0:0:0:0:
56,154,18413,1,0,1:2:0:0:
140,144,18619,1,0,0:0:0:0:
333,145,18824,6,0,P|392:140|417:43,1,170,8|2,3:2|0:0,0:0:0:0:
333,45,19441,1,8,3:2:0:0:
162,45,19852,2,0,L|68:45,2,85,2|8|0,0:0|3:2|0:0,0:0:0:0:
255,45,20468,6,0,P|308:75|240:129,1,170,8|0,3:2|0:0,0:0:0:0:
163,133,21084,1,8,3:2:0:0:
333,133,21495,1,0,0:0:0:0:
417,133,21701,2,0,L|419:220,1,85,10|0,3:2|0:0,0:0:0:0:
231,217,22112,6,0,P|176:216|132:118,1,170,6|0,3:2|1:2,0:0:0:0:
301,122,22933,2,0,P|357:161|290:209,1,170,2|2,3:2|1:2,0:0:0:0:
109,211,23755,6,0,L|16:211,2,85,2|2|2,0:0|0:0|1:2,0:0:0:0:
296,211,24577,1,2,3:2:0:0:
347,133,24783,1,0,0:0:0:0:
296,211,24988,1,2,1:2:0:0:
202,211,25194,1,2,0:0:0:0:
389,211,25399,6,0,P|442:170|385:111,1,170,2|2,3:2|1:2,0:0:0:0:
213,111,26221,1,2,3:2:0:0:
297,111,26427,1,2,0:0:0:0:
382,111,26632,1,2,1:2:0:0:
194,111,27043,6,0,P|140:151|205:214,1,170,2|2,0:0|1:2,0:0:0:0:
363,215,27865,1,2,3:2:0:0:
447,204,28070,1,2,0:0:0:0:
490,130,28276,1,2,1:2:0:0:
438,62,28481,1,2,0:0:0:0:
250,62,28687,6,0,P|179:65|120:151,1,170,2|0,3:2|1:2,0:0:0:0:
291,138,29509,2,0,L|108:138,1,170,2|2,3:2|1:2,0:0:0:0:
308,138,30331,6,0,L|406:140,2,85,2|2|2,0:0|0:0|1:2,0:0:0:0:
137,138,31153,2,0,P|83:179|148:239,1,170,2|2,3:2|1:2,0:0:0:0:
223,240,31769,1,2,0:0:0:0:
409,240,31975,6,0,P|459:198|403:130,1,170,2|2,3:2|1:2,0:0:0:0:
234,130,32796,1,2,3:2:0:0:
319,130,33002,1,2,0:0:0:0:
403,130,33207,1,2,1:2:0:0:
215,130,33618,6,0,P|159:129|114:35,1,170,2|0,3:2|1:2,0:0:0:0:
284,36,34440,1,2,3:2:0:0:
368,32,34646,1,2,0:0:0:0:
411,105,34851,1,2,1:2:0:0:
360,172,35057,1,2,0:0:0:0:
172,172,35264,6,0,P|92:182|65:261,1,170,6|0,3:2|0:0,0:0:0:0:
234,258,36085,2,0,P|290:208|232:161,1,170,10|0,1:2|0:0,0:0:0:0:
138,160,36700,1,2,3:2:0:0:
52,160,36906,5,2,0:0:0:0:
138,160,37111,1,0,3:2:0:0:
308,160,37521,1,10,0:0:0:0:
401,160,37727,2,0,P|455:214|380:259,1,170,2|2,1:2|0:0,0:0:0:0:
305,263,38343,1,2,0:0:0:0:
117,263,38548,6,0,P|63:220|129:168,1,170,2|0,3:2|0:0,0:0:0:0:
292,166,39369,2,0,P|355:160|404:73,1,170,2|2,1:2|0:0,0:0:0:0:
233,72,40190,6,0,P|160:77|111:158,1,170,2|2,0:0|0:0,0:0:0:0:
264,154,41011,1,2,1:2:0:0:
349,160,41216,1,2,0:0:0:0:
344,244,41422,1,2,0:0:0:0:
259,253,41627,1,2,0:0:0:0:
66,253,41832,6,0,P|23:204|94:153,1,170,0|2,3:2|0:0,0:0:0:0:
175,151,42448,2,0,P|112:147|43:69,1,170,2|2,1:2|0:0,0:0:0:0:
128,71,43064,1,2,0:0:0:0:
315,71,43474,6,0,P|396:74|439:144,1,170,0|2,3:2|0:0,0:0:0:0:
353,144,44090,2,0,P|301:176|365:237,1,170,2|2,1:2|0:0,0:0:0:0:
443,239,44706,1,2,0:0:0:0:
119,239,45116,6,0,P|70:193|132:138,1,170,0|2,3:2|0:0,0:0:0:0:
217,138,45732,1,0,1:2:0:0:
302,138,45937,2,0,L|122:138,1,170,2|2,0:0|0:0,0:0:0:0:
319,138,46759,6,0,P|374:180|305:235,1,170,0|2,3:2|0:0,0:0:0:0:
232,238,47374,1,0,1:2:0:0:
146,238,47580,2,0,P|95:194|152:130,1,170,2|2,0:0|0:0,0:0:0:0:
474,130,48401,6,0,P|483:182|390:225,1,170,2|0,3:2|0:0,0:0:0:0:
306,226,49016,2,0,L|477:226,1,170,0|2,1:2|0:0,0:0:0:0:
390,226,49632,1,2,1:2:0:0:
66,226,50043,5,0,3:2:0:0:
15,150,50248,1,0,0:0:0:0:
69,74,50453,1,0,3:2:0:0:
154,74,50659,1,0,0:0:0:0:
340,74,50864,2,0,P|414:76|465:156,1,170,2|2,3:2|1:2,0:0:0:0:
145,159,51685,6,0,P|85:164|34:260,1,170,6|0,3:2|1:2,0:0:0:0:
220,251,52550,1,0,3:2:0:0:
277,187,52752,1,0,0:0:0:0:
224,120,52954,1,0,1:2:0:0:
138,120,53157,1,2,0:0:0:0:
324,120,53359,6,0,P|377:122|429:218,1,170,2|2,3:2|1:2,0:0:0:0:
242,215,54168,1,2,3:2:0:0:
326,215,54371,1,2,0:0:0:0:
411,215,54573,1,2,1:2:0:0:
87,215,54978,6,0,P|35:169|99:118,1,170,2|0,3:2|1:2,0:0:0:0:
190,117,55608,1,0,0:0:0:0:
238,187,55819,1,0,3:2:0:0:
190,117,56029,1,0,0:0:0:0:
96,117,56239,1,0,1:2:0:0:
419,117,56660,6,0,P|470:164|406:219,1,170,2|2,3:2|1:2,0:0:0:0:
222,219,57462,1,2,3:2:0:0:
137,219,57663,1,2,0:0:0:0:
222,219,57864,1,2,1:2:0:0:
306,219,58064,1,2,0:0:0:0:
118,219,58265,6,0,P|70:178|137:115,1,170,2|0,3:2|1:2,0:0:0:0:
218,113,58890,1,0,0:0:0:0:
128,113,59098,2,0,P|73:114|21:23,1,170,0|0,3:2|1:2,0:0:0:0:
106,23,59723,1,2,0:0:0:0:
292,23,59931,6,0,P|357:30|407:123,1,170,2|0,3:2|1:2,0:0:0:0:
220,113,60752,2,0,P|128:124|86:196,1,170,2|0,3:2|1:2,0:0:0:0:
411,183,61574,6,0,P|466:222|395:271,1,170,2|0,3:2|1:2,0:0:0:0:
219,275,62396,1,0,3:2:0:0:
304,275,62602,1,0,0:0:0:0:
348,202,62807,1,0,1:2:0:0:
297,133,63013,1,2,0:0:0:0:
110,133,63218,6,0,P|53:129|20:33,1,170,2|2,3:2|1:2,0:0:0:0:
343,33,64040,1,2,1:2:0:0:
427,38,64245,1,2,1:2:0:0:
422,123,64451,1,2,1:2:0:0:
337,126,64654,1,0,1:2:0:0:
145,126,64858,6,0,P|66:140|30:232,1,170,6|0,3:2|1:2,0:0:0:0:
215,214,65674,1,0,3:2:0:0:
130,214,65878,1,0,0:0:0:0:
44,214,66082,1,0,1:2:0:0:
367,214,66490,6,0,P|420:165|353:114,1,170,2|2,3:2|1:2,0:0:0:0:
173,112,67313,1,2,3:2:0:0:
79,113,67519,1,2,0:0:0:0:
36,196,67725,1,2,1:2:0:0:
87,274,67931,1,2,0:0:0:0:
274,274,68137,6,0,P|332:269|382:171,1,170,2|0,3:2|1:2,0:0:0:0:
298,179,68754,1,0,0:0:0:0:
204,183,68960,2,0,L|385:181,1,170,0|0,3:2|1:2,0:0:0:0:
288,181,69578,1,2,0:0:0:0:
101,181,69784,6,0,P|54:130|121:73,1,170,2|2,3:2|1:2,0:0:0:0:
199,71,70402,1,2,0:0:0:0:
114,70,70608,1,2,3:2:0:0:
63,141,70813,1,2,0:0:0:0:
114,70,71019,1,2,1:2:0:0:
437,70,71431,6,0,P|483:122|418:177,1,170,2|0,3:2|1:2,0:0:0:0:
335,177,72049,1,0,0:0:0:0:
250,177,72255,2,0,L|421:181,1,170,0|0,3:2|1:2,0:0:0:0:
334,180,72872,1,2,0:0:0:0:
147,180,73078,6,0,P|109:135|169:62,1,170,2|0,3:2|1:2,0:0:0:0:
340,61,73898,2,0,P|407:64|460:148,1,170,2|0,3:2|1:2,0:0:0:0:
136,144,74718,6,0,P|77:186|148:226,1,170,2|0,3:2|1:2,0:0:0:0:
220,231,75333,1,0,0:0:0:0:
313,231,75538,2,0,P|380:226|422:125,1,170,0|0,3:2|1:2,0:0:0:0:
340,142,76153,1,2,0:0:0:0:
152,142,76358,6,0,P|102:90|170:37,1,170,2|2,3:2|1:2,0:0:0:0:
331,35,77179,2,0,L|428:35,1,85,2|2,3:2|0:0,0:0:0:0:
410,120,77589,1,2,1:2:0:0:
86,120,77999,6,0,P|28:162|88:213,1,170,10|0,3:2|0:0,0:0:0:0:
255,213,78614,2,0,P|309:171|249:117,1,170,10|0,3:2|0:0,0:0:0:0:
70,116,79229,5,6,3:2:0:0:
256,192,79639,12,0,80869,0:0:0:0:
375,352,81279,6,0,P|491:286|366:204,1,340,2|2,0:0|0:0,0:0:0:0:
196,203,82567,1,2,0:0:0:0:
379,203,82967,6,0,P|379:101|181:46,1,340,2|2,0:0|0:0,0:0:0:0:
351,45,84173,1,2,0:0:0:0:
62,45,84580,5,2,0:0:0:0:
256,192,84986,12,0,87020,0:0:0:0:
