osu file format v14

[General]
AudioFilename: audio.mp3
AudioLeadIn: 0
PreviewTime: 50761
Countdown: 0
SampleSet: Soft
StackLeniency: 0.7
Mode: 2
LetterboxInBreaks: 0
WidescreenStoryboard: 1

[Editor]
DistanceSpacing: 0.9
BeatDivisor: 4
GridSize: 16
TimelineZoom: 2

[Metadata]
Title:Kamisama Hajimemashita (TV Size)
TitleUnicode:神様はじめました (TV Size)
Artist:Hanae
ArtistUnicode:ハナエ
Creator:rew0825
Version:Platter
Source:神様はじめました
Tags:kiss anime op opening japanese pop j-pop jpop female vocal vocals 真部脩一 shuichi shūichi shuuichi mabe
BeatmapID:3798934
BeatmapSetID:1848847

[Difficulty]
HPDrainRate:4
CircleSize:3.5
OverallDifficulty:7.8
ApproachRate:7.8
SliderMultiplier:1.9
SliderTickRate:1

[Events]
//Background and Video events
Video,0,"vdo.m4v"
0,0,"bg.jpg",0,0
//Break Periods
//Storyboard Layer 0 (Background)
//Storyboard Layer 1 (Fail)
//Storyboard Layer 2 (Pass)
//Storyboard Layer 3 (Foreground)
//Storyboard Layer 4 (Overlay)
//Storyboard Sound Samples

[TimingPoints]
538,410.958904109589,3,2,25,80,1,0
2387,-100,4,2,25,50,0,0
4031,410.958904109589,4,2,25,50,1,0
4441,-100,4,2,25,60,0,0
5674,410.958904109589,4,2,26,70,1,0
5674,-100,4,2,26,70,0,0
22112,410.958904109589,4,2,26,70,1,0
22112,-100,4,2,25,70,0,0
35264,410.537119397879,4,2,25,70,1,0
50043,-100,4,2,25,80,0,0
51685,432.588320115357,4,2,25,80,1,1
51685,-100,4,2,25,80,0,1
52550,404.858299595142,4,2,25,80,1,1
53359,404.858299595142,4,2,25,80,1,1
54978,420.609884332282,4,2,25,80,1,1
56660,401.33779264214,4,2,25,80,1,1
58265,416.666666666667,4,2,25,80,1,1
59931,410.958904109589,4,2,25,80,1,1
64040,411.240575736806,4,2,25,80,1,1
64451,407.608695652174,4,2,25,80,1,1
64858,408.163265306122,4,2,25,80,1,1
66490,411.805078929307,4,2,25,80,1,1
73078,410.116199589884,4,2,25,80,1,1
77999,-100,4,2,26,80,0,1
78614,410.116199589884,4,2,26,80,1,1
79229,410.116199589884,4,2,25,80,1,0
79229,-100,4,2,25,80,0,0
79434,-100,4,2,25,30,0,0
81279,444.444444444445,4,2,25,60,1,0
82167,400,4,2,25,60,1,0
82967,400,4,2,25,60,1,0
83767,406.779661016949,4,2,25,60,1,0
84580,406.779661016949,4,2,25,60,1,0
84783,-100,4,2,25,30,0,0
85800,-100,4,2,25,20,0,0
87020,-100,4,2,25,10,0,0

[Colours]
Combo1 : 233,142,240
Combo2 : 241,163,75
Combo3 : 238,242,85
Combo4 : 85,236,112

[HitObjects]
347,340,538,6,0,P|411:295|342:240,1,190,6|0,0:0|0:0,0:0:0:0:
164,239,1154,2,0,P|104:199|170:133,1,190,2|2,0:0|0:0,0:0:0:0:
264,132,1770,6,0,P|319:133|388:28,1,190,2|2,0:0|0:0,0:0:0:0:
256,192,2387,12,0,4031,0:0:0:0:
324,347,4441,6,0,P|336:295|233:238,1,190,2|2,0:0|0:0,0:0:0:0:
137,237,5058,1,2,0:0:0:0:
86,156,5263,1,2,0:0:0:0:
142,79,5469,1,2,0:0:0:0:
418,79,5674,6,0,P|480:124|405:183,1,190,6|0,3:2|1:2,0:0:0:0:
320,186,6290,1,2,3:2:0:0:
139,186,6495,2,0,P|76:139|151:88,1,190,2|2,3:2|1:2,0:0:0:0:
447,84,7317,6,0,L|344:85,2,95,2|2|2,0:0|0:0|1:2,0:0:0:0:
143,84,8139,1,2,3:2:0:0:
48,84,8345,1,0,0:0:0:0:
24,130,8447,1,0,0:0:0:0:
48,175,8550,1,2,1:2:0:0:
143,175,8756,1,2,0:0:0:0:
419,175,8961,6,0,P|484:125|416:78,1,190,2|2,3:2|1:2,0:0:0:0:
322,77,9578,1,2,3:2:0:0:
141,77,9783,1,2,3:2:0:0:
50,77,9989,1,2,0:0:0:0:
141,77,10194,1,2,1:2:0:0:
445,77,10605,6,0,P|448:125|331:176,1,190,2|2,0:0|1:2,0:0:0:0:
31,178,11427,2,0,L|30:275,1,95,2|2,3:2|0:0,0:0:0:0:
125,272,11838,1,2,1:2:0:0:
30,272,12043,1,2,0:0:0:0:
304,272,12249,6,0,P|366:222|299:168,1,190,2|0,3:2|1:2,0:0:0:0:
203,168,12865,1,2,3:2:0:0:
383,168,13071,2,0,P|439:168|495:61,1,190,2|2,3:2|1:2,0:0:0:0:
171,61,13893,6,0,L|170:162,1,95,2|2,0:0|0:0,0:0:0:0:
265,155,14304,2,0,L|357:196,1,95,2|0,1:2|0:0,0:0:0:0:
171,249,14715,2,0,P|112:247|52:142,1,190,2|2,3:2|1:2,0:0:0:0:
147,143,15331,1,2,0:0:0:0:
423,143,15537,6,0,P|488:186|421:240,1,190,2|2,3:2|1:2,0:0:0:0:
117,240,16358,1,2,3:2:0:0:
60,157,16564,1,2,0:0:0:0:
119,76,16769,1,2,1:2:0:0:
213,76,16975,1,2,3:2:0:0:
393,76,17180,6,0,P|419:133|325:178,1,190,2|0,3:2|1:2,0:0:0:0:
229,178,17797,1,0,0:0:0:0:
409,178,18002,2,0,L|410:273,1,95,0|0,3:2|0:0,0:0:0:0:
314,272,18413,1,0,1:2:0:0:
409,272,18619,1,0,0:0:0:0:
132,272,18824,6,0,P|71:227|135:161,1,190,8|2,3:2|0:0,0:0:0:0:
229,160,19441,2,0,L|316:123,1,95,8|0,3:2|0:0,0:0:0:0:
135,122,19852,2,0,L|42:97,2,95,2|8|0,0:0|3:2|0:0,0:0:0:0:
315,122,20468,6,0,P|375:166|305:222,1,190,8|0,3:2|0:0,0:0:0:0:
209,222,21084,1,8,3:2:0:0:
152,297,21290,1,0,0:0:0:0:
209,222,21495,1,0,0:0:0:0:
389,222,21701,2,0,L|390:126,1,95,10|0,3:2|0:0,0:0:0:0:
113,127,22112,6,0,P|48:82|114:29,1,190,6|0,3:2|1:2,0:0:0:0:
209,29,22728,1,2,3:2:0:0:
389,29,22933,2,0,P|452:71|380:124,1,190,2|2,3:2|1:2,0:0:0:0:
79,125,23755,6,0,L|178:125,2,95,2|2|2,0:0|0:0|1:2,0:0:0:0:
383,125,24577,1,2,3:2:0:0:
477,125,24783,1,0,0:0:0:0:
501,169,24885,1,0,0:0:0:0:
473,212,24988,1,2,1:2:0:0:
378,212,25194,1,2,0:0:0:0:
101,212,25399,6,0,P|45:156|121:117,1,190,2|2,3:2|1:2,0:0:0:0:
424,116,26221,1,2,3:2:0:0:
483,189,26427,1,2,0:0:0:0:
421,261,26632,1,2,1:2:0:0:
326,261,26838,1,2,3:2:0:0:
145,261,27043,6,0,L|342:260,1,190,2|2,0:0|1:2,0:0:0:0:
30,260,27865,2,0,L|29:162,1,95,2|2,3:2|0:0,0:0:0:0:
124,165,28276,1,2,1:2:0:0:
29,172,28481,1,2,0:0:0:0:
305,172,28687,6,0,P|363:170|421:62,1,190,2|0,3:2|1:2,0:0:0:0:
326,64,29303,1,2,3:2:0:0:
145,64,29509,2,0,P|87:66|29:174,1,190,2|2,3:2|1:2,0:0:0:0:
333,171,30331,6,0,L|335:268,1,95,2|2,0:0|0:0,0:0:0:0:
239,265,30742,2,0,L|146:228,1,95,2|0,1:2|0:0,0:0:0:0:
333,170,31153,2,0,P|396:170|457:71,1,190,2|2,3:2|1:2,0:0:0:0:
361,70,31769,1,2,0:0:0:0:
86,70,31975,6,0,P|27:113|103:173,1,190,2|2,3:2|1:2,0:0:0:0:
398,176,32796,1,2,3:2:0:0:
460,248,33002,1,2,0:0:0:0:
399,321,33207,1,2,1:2:0:0:
303,321,33413,1,2,3:2:0:0:
122,321,33618,6,0,P|66:275|135:208,1,190,2|0,3:2|1:2,0:0:0:0:
438,207,34440,1,2,3:2:0:0:
335,207,34646,1,2,0:0:0:0:
306,169,34748,1,0,1:2:0:0:
335,130,34851,1,2,1:2:0:0:
439,130,35057,1,2,0:0:0:0:
162,130,35264,6,0,P|107:165|175:236,1,190,6|0,3:2|0:0,0:0:0:0:
267,236,35879,1,10,0:0:0:0:
447,236,36085,2,0,P|472:189|373:132,1,190,10|0,1:2|0:0,0:0:0:0:
197,128,36700,6,0,L|196:227,1,95,2|2,3:2|0:0,0:0:0:0:
291,222,37111,2,0,L|392:223,2,95,0|0|10,3:2|0:0|0:0,0:0:0:0:
109,222,37727,2,0,P|50:200|118:134,1,190,2|2,1:2|0:0,0:0:0:0:
206,130,38343,1,2,0:0:0:0:
482,130,38548,6,0,P|489:180|377:222,1,190,2|0,3:2|0:0,0:0:0:0:
75,223,39369,2,0,P|19:182|90:117,1,190,2|2,1:2|0:0,0:0:0:0:
182,116,39985,1,2,3:2:0:0:
362,116,40190,6,0,P|419:166|346:222,1,190,2|2,0:0|0:0,0:0:0:0:
253,222,40806,1,2,3:2:0:0:
72,222,41011,1,2,1:2:0:0:
18,143,41216,1,2,0:0:0:0:
76,68,41422,1,2,0:0:0:0:
171,68,41627,1,2,0:0:0:0:
445,68,41832,6,0,P|480:111|394:171,1,190,0|2,3:2|0:0,0:0:0:0:
288,170,42448,2,0,P|229:212|301:268,1,190,2|2,1:2|0:0,0:0:0:0:
480,268,43064,2,0,L|481:163,1,95,2|2,0:0|0:0,0:0:0:0:
299,173,43474,6,0,P|232:171|183:71,1,190,0|2,3:2|0:0,0:0:0:0:
278,70,44090,2,0,P|345:72|394:172,1,190,2|2,1:2|0:0,0:0:0:0:
212,172,44706,2,0,L|113:171,1,95,2|2,0:0|0:0,0:0:0:0:
393,171,45116,6,0,P|458:211|386:262,1,190,0|2,3:2|0:0,0:0:0:0:
295,264,45732,1,0,1:2:0:0:
475,264,45937,2,0,P|494:207|394:159,1,190,2|2,0:0|0:0,0:0:0:0:
301,157,46553,1,2,0:0:0:0:
24,157,46759,6,0,P|17:107|130:63,1,190,0|2,3:2|0:0,0:0:0:0:
221,60,47374,1,0,1:2:0:0:
40,60,47580,2,0,P|37:124|146:153,1,190,2|2,0:0|0:0,0:0:0:0:
45,156,48195,1,2,0:0:0:0:
321,156,48401,6,0,P|381:197|305:249,1,190,2|0,3:2|0:0,0:0:0:0:
206,251,49016,2,0,P|146:210|222:158,1,190,0|2,1:2|0:0,0:0:0:0:
397,155,49632,2,0,L|492:155,1,95,2|2,1:2|1:2,0:0:0:0:
216,155,50043,6,0,L|215:249,1,95,0|0,3:2|0:0,0:0:0:0:
386,249,50453,2,0,L|387:343,1,95,0|0,3:2|0:0,0:0:0:0:
215,343,50864,2,0,P|152:342|99:237,1,190,2|2,3:2|1:2,0:0:0:0:
194,239,51480,1,2,0:0:0:0:
468,239,51685,6,0,P|493:192|399:131,1,190,6|0,3:2|1:2,0:0:0:0:
304,130,52333,1,0,0:0:0:0:
133,130,52550,2,0,L|136:227,1,95,0|0,3:2|0:0,0:0:0:0:
304,224,52954,2,0,L|408:224,1,95,0|2,1:2|0:0,0:0:0:0:
122,224,53359,6,0,P|57:173|127:133,1,190,2|2,3:2|1:2,0:0:0:0:
429,132,54168,2,0,L|328:133,1,95,2|2,3:2|0:0,0:0:0:0:
162,132,54573,2,0,L|50:131,1,95,2|0,1:2|0:0,0:0:0:0:
343,131,54978,6,0,P|410:176|330:213,1,190,2|0,3:2|1:2,0:0:0:0:
247,220,55608,1,0,0:0:0:0:
427,220,55819,1,0,3:2:0:0:
482,143,56029,1,0,0:0:0:0:
421,69,56239,1,0,1:2:0:0:
326,69,56450,1,0,0:0:0:0:
49,69,56660,6,0,L|250:100,1,190,2|2,3:2|1:2,0:0:0:0:
240,193,57262,1,2,0:0:0:0:
68,193,57462,2,0,L|166:194,1,95,2|2,3:2|0:0,0:0:0:0:
334,192,57864,2,0,L|435:193,1,95,2|2,1:2|0:0,0:0:0:0:
152,192,58265,6,0,P|89:138|160:97,1,190,2|0,3:2|1:2,0:0:0:0:
252,96,58890,1,0,0:0:0:0:
71,96,59098,1,0,3:2:0:0:
15,173,59306,1,0,0:0:0:0:
65,253,59515,1,0,1:2:0:0:
163,243,59723,1,2,0:0:0:0:
437,243,59931,6,0,P|488:194|418:124,1,190,2|0,3:2|1:2,0:0:0:0:
114,123,60752,2,0,P|62:126|21:243,1,190,2|0,3:2|1:2,0:0:0:0:
115,240,61369,1,2,0:0:0:0:
390,240,61574,6,0,P|442:188|366:130,1,190,2|0,3:2|1:2,0:0:0:0:
273,129,62191,1,0,0:0:0:0:
453,129,62396,2,0,L|455:24,1,95,0|0,3:2|0:0,0:0:0:0:
359,34,62807,1,0,1:2:0:0:
454,34,63013,1,2,0:0:0:0:
179,34,63218,6,0,P|110:40|73:146,1,190,2|2,3:2|1:2,0:0:0:0:
376,142,64040,2,0,L|265:142,1,95,2|2,1:2|1:2,0:0:0:0:
109,142,64451,1,2,1:2:0:0:
77,177,64552,1,0,1:2:0:0:
110,210,64654,1,0,1:2:0:0:
386,210,64858,6,0,P|446:244|372:295,1,190,6|0,3:2|1:2,0:0:0:0:
70,296,65674,2,0,L|68:200,1,95,0|0,3:2|0:0,0:0:0:0:
163,201,66082,1,0,1:2:0:0:
68,201,66286,1,0,0:0:0:0:
344,201,66490,6,0,P|412:201|454:95,1,190,2|2,3:2|1:2,0:0:0:0:
360,100,67107,1,2,0:0:0:0:
188,100,67313,2,0,L|190:207,1,95,2|2,3:2|0:0,0:0:0:0:
361,194,67725,2,0,L|463:194,1,95,2|2,1:2|0:0,0:0:0:0:
179,194,68137,6,0,P|114:196|61:88,1,190,2|0,3:2|1:2,0:0:0:0:
153,97,68754,1,0,0:0:0:0:
333,97,68960,1,0,3:2:0:0:
427,97,69166,1,0,0:0:0:0:
482,173,69372,1,0,1:2:0:0:
422,247,69578,1,2,0:0:0:0:
147,247,69784,6,0,P|91:246|45:133,1,190,2|2,3:2|1:2,0:0:0:0:
139,136,70402,1,2,0:0:0:0:
309,136,70608,2,0,L|215:137,1,95,2|2,3:2|0:0,0:0:0:0:
42,137,71019,2,0,L|41:233,1,95,2|0,1:2|0:0,0:0:0:0:
317,231,71431,6,0,P|383:229|437:127,1,190,2|0,3:2|1:2,0:0:0:0:
341,129,72049,1,0,0:0:0:0:
160,129,72255,1,0,3:2:0:0:
255,129,72461,1,0,0:0:0:0:
320,197,72667,1,0,1:2:0:0:
301,290,72872,1,2,0:0:0:0:
26,290,73078,6,0,P|16:231|119:173,1,190,2|0,3:2|1:2,0:0:0:0:
419,171,73898,2,0,P|479:123|408:69,1,190,2|0,3:2|1:2,0:0:0:0:
314,68,74513,1,2,0:0:0:0:
37,68,74718,6,0,P|23:128|132:169,1,190,2|0,3:2|1:2,0:0:0:0:
217,174,75333,1,0,0:0:0:0:
36,174,75538,2,0,L|35:281,1,95,0|0,3:2|0:0,0:0:0:0:
130,268,75948,1,0,1:2:0:0:
35,268,76153,1,2,0:0:0:0:
311,268,76358,6,0,P|375:266|425:156,1,190,2|2,3:2|1:2,0:0:0:0:
122,163,77179,2,0,L|221:161,1,95,2|2,3:2|0:0,0:0:0:0:
388,161,77589,2,0,L|389:62,1,95,2|0,1:2|0:0,0:0:0:0:
112,66,77999,6,0,P|53:104|128:167,1,190,10|0,3:2|0:0,0:0:0:0:
299,170,78614,2,0,P|365:175|410:293,1,190,10|0,3:2|0:0,0:0:0:0:
138,276,79229,5,6,3:2:0:0:
256,192,79434,12,0,80869,0:0:0:0:
427,366,81279,6,0,P|464:310|417:205,1,190,2|2,0:0|0:0,0:0:0:0:
247,205,82167,2,0,L|420:121,1,190,2|2,0:0|0:0,0:0:0:0:
104,205,82967,6,0,P|65:146|119:47,1,190,2|2,0:0|0:0,0:0:0:0:
283,48,83767,2,0,L|112:130,1,190,2|2,0:0|0:0,0:0:0:0:
404,48,84580,5,2,0:0:0:0:
256,192,84783,12,0,87020,0:0:0:0:
