osu file format v14

[General]
AudioFilename: audio.mp3
AudioLeadIn: 0
PreviewTime: 50761
Countdown: 0
SampleSet: Soft
StackLeniency: 0.7
Mode: 2
LetterboxInBreaks: 0
WidescreenStoryboard: 0

[Editor]
DistanceSpacing: 2.4
BeatDivisor: 4
GridSize: 16
TimelineZoom: 2

[Metadata]
Title:Kamisama Hajimemashita (TV Size)
TitleUnicode:神様はじめました (TV Size)
Artist:Hanae
ArtistUnicode:ハナエ
Creator:rew0825
Version:Kiss
Source:神様はじめました
Tags:kiss anime op opening japanese pop j-pop jpop female vocal vocals 真部脩一 shuichi shūichi shuuichi mabe
BeatmapID:3797915
BeatmapSetID:1848847

[Difficulty]
HPDrainRate:5
CircleSize:4
OverallDifficulty:8.8
ApproachRate:8.8
SliderMultiplier:2.2
SliderTickRate:1

[Events]
//Background and Video events
Video,0,"vdo.m4v"
0,0,"bg.jpg",0,0
//Break Periods
//Storyboard Layer 0 (Background)
//Storyboard Layer 1 (Fail)
//Storyboard Layer 2 (Pass)
//Storyboard Layer 3 (Foreground)
//Storyboard Layer 4 (Overlay)
//Storyboard Sound Samples

[TimingPoints]
538,410.958904109589,3,2,25,80,1,0
2387,-100,4,2,25,50,0,0
4031,410.958904109589,4,2,25,50,1,0
4441,-100,4,2,25,60,0,0
5674,410.958904109589,4,2,26,70,1,0
5674,-100,4,2,26,70,0,0
22112,410.958904109589,4,2,26,70,1,0
22112,-100,4,2,25,70,0,0
35264,410.537119397879,4,2,25,70,1,0
50043,-100,4,2,25,80,0,0
51685,432.588320115357,4,2,25,80,1,1
51685,-100,4,2,25,80,0,1
52550,404.858299595142,4,2,25,80,1,1
53359,404.858299595142,4,2,25,80,1,1
54978,420.609884332282,4,2,25,80,1,1
56660,401.33779264214,4,2,25,80,1,1
58265,416.666666666667,4,2,25,80,1,1
59931,410.958904109589,4,2,25,80,1,1
64040,411.240575736806,4,2,25,80,1,1
64451,407.608695652174,4,2,25,80,1,1
64858,408.163265306122,4,2,25,80,1,1
66490,411.805078929307,4,2,25,80,1,1
73078,410.116199589884,4,2,25,80,1,1
77999,-100,4,2,26,80,0,1
78614,410.116199589884,4,2,26,80,1,1
79229,410.116199589884,4,2,25,80,1,0
79229,-100,4,2,25,80,0,0
79434,-100,4,2,25,30,0,0
81279,444.444444444445,4,2,25,60,1,0
82167,400,4,2,25,60,1,0
82967,400,4,2,25,60,1,0
83767,406.779661016949,4,2,25,60,1,0
84580,406.779661016949,4,2,25,60,1,0
84783,-100,4,2,25,30,0,0
85800,-100,4,2,25,20,0,0
87020,-100,4,2,25,10,0,0

[Colours]
Combo1 : 233,142,240
Combo2 : 241,163,75
Combo3 : 238,242,85
Combo4 : 85,236,112

[HitObjects]
175,327,538,5,6,0:0:0:0:
361,327,743,2,0,L|363:218,1,110,2|0,0:0|0:0,0:0:0:0:
175,217,1154,2,0,P|119:217|49:89,1,220,2|2,0:0|0:0,0:0:0:0:
237,87,1770,6,0,P|345:95|392:187,1,220,2|2,0:0|0:0,0:0:0:0:
256,192,2387,12,0,4031,0:0:0:0:
325,282,4441,6,0,L|460:282,2,110,2|2|2,0:0|0:0|0:0,0:0:0:0:
138,282,5058,2,0,L|3:282,2,110,2|2|2,0:0|0:0|0:0,0:0:0:0:
426,282,5674,6,0,P|494:222|411:167,1,220,6|0,3:2|1:2,0:0:0:0:
235,173,6290,1,2,3:2:0:0:
411,166,6495,2,0,P|416:111|287:53,1,220,2|2,3:2|1:2,0:0:0:0:
463,53,7112,1,2,3:2:0:0:
198,53,7317,6,0,L|88:53,1,110,2|2,0:0|0:0,0:0:0:0:
275,53,7728,2,0,P|330:96|272:142,1,165,2|0,1:2|0:0,0:0:0:0:
156,142,8139,2,0,P|144:188|157:252,1,110,2|0,3:2|0:0,0:0:0:0:
211,248,8447,1,0,0:0:0:0:
329,248,8550,2,0,L|439:248,1,110,2|2,1:2|0:0,0:0:0:0:
174,248,8961,6,0,P|101:289|182:352,1,220,2|2,3:2|1:2,0:0:0:0:
357,354,9578,1,2,3:2:0:0:
182,354,9783,2,0,L|57:353,2,110,2|2|2,3:2|0:0|1:2,0:0:0:0:
360,354,10400,1,2,3:2:0:0:
96,354,10605,6,0,P|38:302|128:237,1,220,2|2,0:0|1:2,0:0:0:0:
303,236,11221,1,2,0:0:0:0:
128,236,11427,2,0,L|239:236,1,110,2|2,3:2|0:0,0:0:0:0:
426,236,11838,2,0,L|316:236,1,110,2|2,1:2|0:0,0:0:0:0:
51,236,12249,6,0,P|44:182|175:122,1,220,2|0,3:2|1:2,0:0:0:0:
348,120,12865,1,2,3:2:0:0:
171,120,13071,2,0,P|230:120|295:249,1,220,2|2,3:2|1:2,0:0:0:0:
118,247,13687,1,2,3:2:0:0:
381,247,13893,6,0,L|383:137,1,110,2|2,0:0|0:0,0:0:0:0:
195,137,14304,2,0,L|193:249,1,110,2|0,1:2|0:0,0:0:0:0:
380,245,14715,2,0,L|381:361,1,110,2|0,3:2|0:0,0:0:0:0:
193,354,15126,2,0,L|70:354,1,110,2|2,1:2|0:0,0:0:0:0:
347,354,15537,6,0,P|417:310|337:245,1,220,2|2,3:2|1:2,0:0:0:0:
159,245,16153,1,2,3:2:0:0:
335,245,16358,2,0,L|338:132,1,110,2|2,3:2|0:0,0:0:0:0:
150,135,16769,2,0,L|40:135,1,110,2|2,1:2|3:2,0:0:0:0:
304,135,17180,6,0,L|419:135,2,110,2|0|0,3:2|0:0|1:2,0:0:0:0:
127,135,17797,1,0,0:0:0:0:
303,135,18002,2,0,L|419:134,1,110,0|0,3:2|0:0,0:0:0:0:
225,134,18413,2,0,L|94:133,1,110,0|0,1:2|0:0,0:0:0:0:
379,133,18824,6,0,L|491:133,2,110,8|0|2,3:2|0:0|0:0,0:0:0:0:
191,133,19441,2,0,L|190:246,1,110,8|0,3:2|0:0,0:0:0:0:
366,242,19852,1,2,0:0:0:0:
191,243,20057,2,0,L|79:242,1,110,8|0,3:2|0:0,0:0:0:0:
136,242,20365,1,0,0:0:0:0:
299,242,20468,6,0,L|414:243,2,110,8|0|0,3:2|0:0|0:0,0:0:0:0:
110,242,21084,2,0,P|103:184|111:131,1,110,8|0,3:2|0:0,0:0:0:0:
231,133,21495,1,0,0:0:0:0:
417,133,21701,2,0,L|418:19,1,110,10|0,3:2|0:0,0:0:0:0:
131,23,22112,6,0,P|55:73|133:135,1,220,6|0,3:2|1:2,0:0:0:0:
307,135,22728,1,2,3:2:0:0:
131,135,22933,2,0,P|190:173|336:183,1,220,2|2,3:2|1:2,0:0:0:0:
158,182,23550,1,2,3:2:0:0:
421,182,23755,6,0,L|422:296,1,110,2|2,0:0|0:0,0:0:0:0:
234,291,24166,2,0,L|119:291,1,110,2|0,1:2|0:0,0:0:0:0:
311,291,24577,2,0,P|328:224|308:187,1,110,2|0,3:2|0:0,0:0:0:0:
255,190,24885,1,0,0:0:0:0:
139,190,24988,2,0,L|28:189,1,110,2|2,1:2|0:0,0:0:0:0:
298,189,25399,6,0,P|362:189|418:320,1,220,2|2,3:2|1:2,0:0:0:0:
243,315,26016,1,2,3:2:0:0:
420,315,26221,2,0,L|420:203,1,110,2|2,3:2|0:0,0:0:0:0:
232,205,26632,2,0,L|348:204,1,110,2|2,1:2|3:2,0:0:0:0:
77,204,27043,6,0,P|12:168|106:99,1,220,2|2,0:0|1:2,0:0:0:0:
265,88,27659,1,2,0:0:0:0:
88,88,27865,2,0,L|87:206,1,110,2|2,3:2|0:0,0:0:0:0:
263,197,28276,2,0,L|128:197,1,110,2|2,1:2|0:0,0:0:0:0:
417,197,28687,6,0,P|482:149|394:83,1,220,2|0,3:2|1:2,0:0:0:0:
222,80,29303,1,2,3:2:0:0:
397,80,29509,2,0,P|394:135|255:184,1,220,2|2,3:2|1:2,0:0:0:0:
436,186,30125,1,2,3:2:0:0:
172,186,30331,6,0,L|171:302,1,110,2|2,0:0|0:0,0:0:0:0:
358,295,30742,2,0,L|359:186,1,110,2|0,1:2|0:0,0:0:0:0:
171,185,31153,2,0,L|56:185,1,110,2|0,3:2|0:0,0:0:0:0:
248,185,31564,2,0,L|384:184,1,110,2|2,1:2|0:0,0:0:0:0:
93,184,31975,6,0,P|31:144|129:70,1,220,2|2,3:2|1:2,0:0:0:0:
284,59,32591,1,2,3:2:0:0:
108,59,32796,2,0,L|108:180,1,110,2|2,3:2|0:0,0:0:0:0:
295,169,33207,2,0,L|409:169,1,110,2|2,1:2|3:2,0:0:0:0:
140,169,33618,6,0,P|111:213|221:277,1,220,2|0,3:2|1:2,0:0:0:0:
398,276,34235,1,0,0:0:0:0:
221,276,34440,2,0,L|110:276,1,110,2|2,3:2|0:0,0:0:0:0:
166,276,34748,1,0,1:2:0:0:
331,276,34851,2,0,L|446:276,1,110,2|2,1:2|0:0,0:0:0:0:
151,276,35264,6,0,P|141:215|265:168,1,220,6|0,3:2|0:0,0:0:0:0:
89,168,35879,2,0,L|87:112,1,55,10|8,0:0|0:0,0:0:0:0:
254,113,36085,2,0,P|330:165|251:222,1,220,10|0,1:2|0:0,0:0:0:0:
77,222,36700,1,2,3:2:0:0:
341,222,36906,2,0,L|459:222,2,110,2|0|0,0:0|3:2|0:0,0:0:0:0:
165,222,37521,2,0,L|164:168,1,55,10|8,0:0|0:0,0:0:0:0:
331,167,37727,2,0,P|350:221|230:266,1,220,2|2,1:2|0:0,0:0:0:0:
406,214,38343,1,2,0:0:0:0:
120,214,38548,6,0,P|41:196|60:82,1,220,2|0,3:2|0:0,0:0:0:0:
388,82,39369,2,0,L|270:82,1,110,2|2,1:2|0:0,0:0:0:0:
283,192,39779,1,2,0:0:0:0:
448,191,39985,1,2,3:2:0:0:
184,191,40190,6,0,L|302:191,1,110,2|2,0:0|3:2,0:0:0:0:
283,301,40600,1,2,0:0:0:0:
118,300,40806,1,2,3:2:0:0:
381,300,41011,2,0,L|383:180,1,110,2|2,1:2|0:0,0:0:0:0:
195,191,41422,2,0,L|69:192,1,110,2|2,0:0|0:0,0:0:0:0:
349,191,41832,5,0,3:2:0:0:
459,191,42037,2,0,B|483:139|483:139|461:79,1,110,2|2,0:0|0:0,0:0:0:0:
274,63,42448,2,0,P|203:66|162:194,1,220,2|2,1:2|0:0,0:0:0:0:
348,190,43064,2,0,L|485:190,1,110,2|2,0:0|0:0,0:0:0:0:
193,190,43474,6,0,L|71:191,2,110,0|2|2,3:2|0:0|0:0,0:0:0:0:
384,307,44090,2,0,P|457:255|377:190,1,220,2|2,1:2|0:0,0:0:0:0:
193,189,44706,2,0,L|49:191,1,110,2|2,0:0|0:0,0:0:0:0:
347,190,45116,6,0,P|409:148|330:64,1,220,0|2,3:2|0:0,0:0:0:0:
156,63,45732,1,0,1:2:0:0:
332,63,45937,2,0,L|449:63,1,110,2|2,0:0|0:0,0:0:0:0:
265,63,46348,2,0,L|149:63,1,110,2|2,0:0|0:0,0:0:0:0:
419,63,46759,6,0,P|438:119|310:182,1,220,0|2,3:2|0:0,0:0:0:0:
146,189,47374,1,0,1:2:0:0:
322,189,47580,2,0,L|323:306,1,110,2|2,0:0|0:0,0:0:0:0:
146,298,47990,2,0,L|26:296,1,110,2|2,0:0|0:0,0:0:0:0:
300,296,48401,6,0,L|424:296,2,110,2|0|0,3:2|0:0|0:0,0:0:0:0:
112,296,49016,2,0,P|167:234|298:209,1,220,0|2,1:2|0:0,0:0:0:0:
109,208,49632,2,0,L|107:96,1,110,2|2,1:2|1:2,0:0:0:0:
168,98,49940,1,0,1:2:0:0:
332,98,50043,6,0,L|456:98,1,110,0|0,3:2|0:0,0:0:0:0:
176,98,50453,2,0,L|52:98,1,110,0|0,3:2|0:0,0:0:0:0:
330,98,50864,2,0,P|387:150|325:179,1,165,2|0,3:2|0:0,0:0:0:0:
166,181,51274,2,0,L|57:180,1,110,2|2,1:2|0:0,0:0:0:0:
355,114,51685,6,0,L|472:113,1,110,6|2,3:2|0:0,0:0:0:0:
277,113,52117,2,0,L|275:226,1,110,0|0,1:2|0:0,0:0:0:0:
462,222,52550,2,0,L|348:221,1,110,0|0,3:2|0:0,0:0:0:0:
175,221,52954,1,0,1:2:0:0:
351,221,53157,1,2,0:0:0:0:
87,221,53359,6,0,P|48:168|167:115,1,220,2|2,3:2|1:2,0:0:0:0:
326,100,53966,1,2,0:0:0:0:
62,100,54168,1,2,3:2:0:0:
237,100,54371,1,2,0:0:0:0:
62,100,54573,2,0,L|61:215,1,110,2|0,1:2|0:0,0:0:0:0:
326,209,54978,6,0,L|438:209,2,110,2|0|0,3:2|0:0|1:2,0:0:0:0:
148,209,55608,1,0,0:0:0:0:
324,209,55819,2,0,L|204:206,2,110,0|0|0,3:2|0:0|1:2,0:0:0:0:
500,209,56450,1,0,0:0:0:0:
224,209,56660,6,0,P|215:158|346:100,1,220,2|2,3:2|1:2,0:0:0:0:
166,98,57262,1,2,0:0:0:0:
430,98,57462,2,0,L|432:223,1,110,2|2,3:2|0:0,0:0:0:0:
255,207,57864,1,2,1:2:0:0:
430,207,58064,1,2,0:0:0:0:
170,207,58265,6,0,L|49:209,2,110,2|0|0,3:2|0:0|1:2,0:0:0:0:
346,207,58890,1,0,0:0:0:0:
170,207,59098,2,0,L|310:206,2,110,0|0|0,3:2|0:0|1:2,0:0:0:0:
347,207,59723,1,2,0:0:0:0:
79,207,59931,6,0,P|76:164|212:95,1,220,2|0,3:2|1:2,0:0:0:0:
33,94,60547,1,2,0:0:0:0:
296,94,60752,2,0,P|359:130|270:203,1,220,2|0,3:2|1:2,0:0:0:0:
103,208,61369,1,2,0:0:0:0:
366,208,61574,6,0,L|486:208,2,110,2|0|0,3:2|0:0|1:2,0:0:0:0:
188,208,62191,1,0,0:0:0:0:
363,208,62396,2,0,L|246:208,2,110,0|0|0,3:2|0:0|1:2,0:0:0:0:
185,208,63013,1,2,0:0:0:0:
448,208,63218,6,0,P|478:143|368:80,1,220,2|2,3:2|1:2,0:0:0:0:
194,78,63835,1,2,0:0:0:0:
458,80,64040,1,2,1:2:0:0:
293,80,64245,1,2,1:2:0:0:
458,80,64451,1,2,1:2:0:0:
494,126,64552,1,0,1:2:0:0:
456,171,64654,1,0,1:2:0:0:
169,171,64858,6,0,L|396:236,1,220,6|0,3:2|1:2,0:0:0:0:
204,231,65470,1,0,0:0:0:0:
380,231,65674,2,0,L|381:120,1,110,0|0,3:2|0:0,0:0:0:0:
193,121,66082,2,0,L|74:122,1,110,0|0,1:2|0:0,0:0:0:0:
347,121,66490,6,0,P|421:169|338:225,1,220,2|2,3:2|1:2,0:0:0:0:
165,232,67107,1,2,0:0:0:0:
430,232,67313,2,0,L|431:115,1,110,2|2,3:2|0:0,0:0:0:0:
254,122,67725,1,2,1:2:0:0:
430,122,67931,1,2,0:0:0:0:
165,122,68137,6,0,L|52:123,2,110,2|0|0,3:2|0:0|1:2,0:0:0:0:
341,122,68754,1,0,0:0:0:0:
164,122,68960,2,0,L|287:122,2,110,0|0|0,3:2|0:0|1:2,0:0:0:0:
340,122,69578,1,2,0:0:0:0:
76,122,69784,6,0,P|28:195|125:237,1,220,2|2,3:2|1:2,0:0:0:0:
300,249,70402,1,2,0:0:0:0:
25,249,70608,1,2,3:2:0:0:
190,249,70813,1,2,0:0:0:0:
25,249,71019,2,0,L|23:140,1,110,2|0,1:2|0:0,0:0:0:0:
287,139,71431,6,0,L|401:140,2,110,2|0|0,3:2|0:0|1:2,0:0:0:0:
109,139,72049,1,0,0:0:0:0:
287,139,72255,2,0,L|173:140,2,110,0|0|0,3:2|0:0|1:2,0:0:0:0:
465,139,72872,1,2,0:0:0:0:
201,139,73078,6,0,P|131:177|220:244,1,220,2|0,3:2|1:2,0:0:0:0:
384,250,73693,1,2,0:0:0:0:
120,250,73898,2,0,P|151:174|275:137,1,220,2|0,3:2|1:2,0:0:0:0:
100,117,74513,1,2,0:0:0:0:
364,117,74718,6,0,L|240:118,2,110,2|0|0,3:2|0:0|1:2,0:0:0:0:
187,117,75333,1,0,0:0:0:0:
364,117,75538,2,0,L|479:118,2,110,0|0|0,3:2|0:0|1:2,0:0:0:0:
187,117,76153,1,2,0:0:0:0:
451,117,76358,6,0,P|471:178|343:229,1,220,2|2,3:2|1:2,0:0:0:0:
178,237,76974,1,2,0:0:0:0:
442,237,77179,1,2,3:2:0:0:
277,237,77384,1,2,0:0:0:0:
442,237,77589,2,0,L|443:119,1,110,2|0,1:2|0:0,0:0:0:0:
178,127,77999,6,0,P|83:141|64:254,1,220,10|0,3:2|0:0,0:0:0:0:
326,249,78614,2,0,P|421:235|440:122,1,220,10|0,3:2|0:0,0:0:0:0:
155,126,79229,5,6,3:2:0:0:
256,192,79434,12,0,80869,0:0:0:0:
365,315,81279,6,0,L|165:221,2,220,2|2|2,0:0|0:0|0:0,0:0:0:0:
85,315,82567,1,2,0:0:0:0:
364,315,82967,6,0,P|430:298|476:162,1,220,2|2,0:0|0:0,0:0:0:0:
185,166,83767,2,0,P|117:147|72:13,1,220,2|2,0:0|0:0,0:0:0:0:
386,16,84580,1,2,0:0:0:0:
256,192,84783,12,0,87020,0:0:0:0:
