osu file format v14

[General]
AudioFilename: audio.mp3
AudioLeadIn: 0
PreviewTime: 50761
Countdown: 0
SampleSet: Soft
StackLeniency: 0.7
Mode: 2
LetterboxInBreaks: 0
WidescreenStoryboard: 1

[Editor]
DistanceSpacing: 2.4
BeatDivisor: 4
GridSize: 16
TimelineZoom: 2

[Metadata]
Title:Kamisama Hajimemashita (TV Size)
TitleUnicode:神様はじめました (TV Size)
Artist:Hanae
ArtistUnicode:ハナエ
Creator:rew0825
Version:Cup
Source:神様はじめました
Tags:kiss anime op opening japanese pop j-pop jpop female vocal vocals 真部脩一 shuichi shūichi shuuichi mabe
BeatmapID:3799784
BeatmapSetID:1848847

[Difficulty]
HPDrainRate:2
CircleSize:2.5
OverallDifficulty:5.8
ApproachRate:5.8
SliderMultiplier:1.5
SliderTickRate:1

[Events]
//Background and Video events
Video,0,"vdo.m4v"
0,0,"bg.jpg",0,0
//Break Periods
//Storyboard Layer 0 (Background)
//Storyboard Layer 1 (Fail)
//Storyboard Layer 2 (Pass)
//Storyboard Layer 3 (Foreground)
//Storyboard Layer 4 (Overlay)
//Storyboard Sound Samples

[TimingPoints]
538,410.958904109589,3,2,25,80,1,0
2387,-100,4,2,25,50,0,0
4031,410.958904109589,4,2,25,50,1,0
4441,-100,4,2,25,60,0,0
5674,410.958904109589,4,2,26,70,1,0
5674,-100,4,2,26,70,0,0
22112,410.958904109589,4,2,26,70,1,0
22112,-100,4,2,25,70,0,0
35264,410.537119397879,4,2,25,70,1,0
50043,-100,4,2,25,80,0,0
51685,432.588320115357,4,2,25,80,1,1
51685,-100,4,2,25,80,0,1
52550,404.858299595142,4,2,25,80,1,1
53359,404.858299595142,4,2,25,80,1,1
54978,420.609884332282,4,2,25,80,1,1
56660,401.33779264214,4,2,25,80,1,1
58265,416.666666666667,4,2,25,80,1,1
59931,410.958904109589,4,2,25,80,1,1
64040,411.240575736806,4,2,25,80,1,1
64451,407.608695652174,4,2,25,80,1,1
64858,408.163265306122,4,2,25,80,1,1
66490,411.805078929307,4,2,25,80,1,1
73078,410.116199589884,4,2,25,80,1,1
77999,-100,4,2,26,80,0,1
78614,410.116199589884,4,2,26,80,1,1
79229,410.116199589884,4,2,25,80,1,0
79229,-100,4,2,25,80,0,0
79434,-100,4,2,25,30,0,0
81279,444.444444444445,4,2,25,60,1,0
82167,400,4,2,25,60,1,0
82967,400,4,2,25,60,1,0
83767,406.779661016949,4,2,25,60,1,0
84580,406.779661016949,4,2,25,60,1,0
84783,-100,4,2,25,30,0,0
85800,-100,4,2,25,20,0,0
87020,-100,4,2,25,10,0,0

[Colours]
Combo1 : 233,142,240
Combo2 : 241,163,75
Combo3 : 238,242,85
Combo4 : 85,236,112

[HitObjects]
378,305,538,6,0,P|448:254|369:176,1,225,6|2,0:0|0:0,0:0:0:0:
145,175,1770,5,2,0:0:0:0:
256,192,2387,12,0,4031,0:0:0:0:
316,205,4441,6,0,L|486:202,2,150,2|2|2,0:0|0:0|0:0,0:0:0:0:
165,205,5674,6,0,P|68:145|183:77,1,300,6|2,3:2|3:2,0:0:0:0:
333,77,6906,1,2,1:2:0:0:
183,77,7317,5,2,0:0:0:0:
108,77,7523,1,2,0:0:0:0:
183,77,7728,1,2,1:2:0:0:
333,77,8139,2,0,P|378:111|324:169,1,150,2|2,3:2|1:2,0:0:0:0:
254,169,8756,1,2,0:0:0:0:
178,169,8961,6,0,P|106:178|63:242,1,150,2|2,3:2|1:2,0:0:0:0:
213,237,9783,2,0,L|356:287,1,150,2|2,3:2|1:2,0:0:0:0:
204,286,10605,6,0,P|163:238|210:173,1,150,2|2,0:0|1:2,0:0:0:0:
355,174,11427,2,0,L|199:140,1,150,2|2,3:2|1:2,0:0:0:0:
358,142,12249,6,0,P|458:184|352:275,1,300,2|2,3:2|3:2,0:0:0:0:
204,276,13482,1,2,1:2:0:0:
354,276,13893,5,2,0:0:0:0:
428,276,14098,1,2,0:0:0:0:
354,276,14304,1,2,1:2:0:0:
204,276,14715,2,0,P|167:230|220:160,1,150,2|2,3:2|1:2,0:0:0:0:
360,161,15537,6,0,P|398:210|355:282,1,150,2|2,3:2|1:2,0:0:0:0:
209,279,16358,2,0,P|140:271|90:204,1,150,2|2,3:2|1:2,0:0:0:0:
242,211,17180,6,0,P|322:209|382:153,1,150,2|0,3:2|1:2,0:0:0:0:
223,166,18002,1,0,3:2:0:0:
148,166,18208,1,0,0:0:0:0:
223,166,18413,1,0,1:2:0:0:
373,166,18824,6,0,P|416:198|364:261,1,150,8|2,3:2|0:0,0:0:0:0:
293,261,19441,1,8,3:2:0:0:
142,261,19852,1,2,0:0:0:0:
67,261,20057,1,8,3:2:0:0:
217,261,20468,6,0,P|262:258|320:178,1,150,8|0,3:2|0:0,0:0:0:0:
244,178,21084,1,8,3:2:0:0:
93,178,21495,1,0,0:0:0:0:
167,178,21701,1,10,3:2:0:0:
317,178,22112,6,0,P|413:145|307:49,1,300,6|2,3:2|3:2,0:0:0:0:
162,45,23344,1,2,1:2:0:0:
312,45,23755,5,2,0:0:0:0:
387,45,23961,1,2,0:0:0:0:
312,45,24166,1,2,1:2:0:0:
161,45,24577,2,0,P|114:93|163:142,1,150,2|2,3:2|1:2,0:0:0:0:
236,141,25194,1,2,0:0:0:0:
311,141,25399,6,0,P|357:180|301:235,1,150,2|2,3:2|1:2,0:0:0:0:
158,234,26221,2,0,P|100:239|46:308,1,150,2|2,3:2|1:2,0:0:0:0:
196,308,27043,6,0,L|367:308,1,150,2|2,0:0|1:2,0:0:0:0:
195,308,27865,2,0,P|166:254|204:180,1,150,2|2,3:2|1:2,0:0:0:0:
278,180,28481,1,2,0:0:0:0:
203,180,28687,6,0,P|148:176|96:80,1,150,2|0,3:2|1:2,0:0:0:0:
245,105,29509,2,0,P|331:106|403:73,1,150,2|2,3:2|1:2,0:0:0:0:
238,82,30331,5,2,0:0:0:0:
163,82,30536,1,2,0:0:0:0:
238,82,30742,1,2,1:2:0:0:
389,82,31153,2,0,P|429:124|389:199,1,150,2|2,3:2|1:2,0:0:0:0:
242,197,31975,6,0,P|195:200|134:286,1,150,2|2,3:2|1:2,0:0:0:0:
284,275,32796,2,0,L|117:275,1,150,2|2,3:2|1:2,0:0:0:0:
284,275,33618,6,0,P|325:221|279:166,1,150,2|0,3:2|1:2,0:0:0:0:
129,164,34440,1,2,3:2:0:0:
54,164,34646,1,2,0:0:0:0:
129,164,34851,1,2,1:2:0:0:
279,164,35264,6,0,P|408:161|442:11,1,300,6|10,3:2|1:2,0:0:0:0:
219,15,36700,1,2,3:2:0:0:
143,15,36906,5,2,0:0:0:0:
219,15,37111,1,0,3:2:0:0:
369,15,37521,1,10,0:0:0:0:
444,15,37727,2,0,P|445:67|349:100,1,150,2|2,1:2|0:0,0:0:0:0:
215,106,38548,6,0,P|123:142|230:246,1,300,2|2,3:2|1:2,0:0:0:0:
372,250,39779,1,2,0:0:0:0:
221,250,40190,6,0,P|159:235|131:151,1,150,2|2,0:0|0:0,0:0:0:0:
279,160,41011,1,2,1:2:0:0:
354,160,41216,1,2,0:0:0:0:
279,160,41422,1,2,0:0:0:0:
128,160,41832,6,0,P|87:103|150:51,1,150,0|2,3:2|0:0,0:0:0:0:
208,51,42448,2,0,P|206:123|82:183,1,225,2|2,1:2|0:0,0:0:0:0:
230,177,43474,6,0,P|288:184|330:274,1,150,0|2,3:2|0:0,0:0:0:0:
256,257,44090,2,0,P|172:246|175:126,1,225,2|2,1:2|0:0,0:0:0:0:
323,127,45116,6,0,P|370:175|310:223,1,150,0|2,3:2|0:0,0:0:0:0:
247,224,45732,2,0,P|261:137|379:93,1,225,0|2,1:2|0:0,0:0:0:0:
229,97,46759,6,0,P|186:130|226:202,1,150,0|2,3:2|0:0,0:0:0:0:
300,201,47374,2,0,P|240:118|125:112,1,225,0|2,1:2|0:0,0:0:0:0:
276,116,48401,6,0,P|205:113|161:50,1,150,2|0,3:2|0:0,0:0:0:0:
236,53,49016,2,0,P|335:54|386:162,1,225,0|2,1:2|1:2,0:0:0:0:
239,134,50043,6,0,P|162:138|124:196,1,150,0|0,3:2|3:2,0:0:0:0:
199,194,50659,1,0,0:0:0:0:
273,194,50864,2,0,P|360:191|418:167,1,150,2|2,3:2|1:2,0:0:0:0:
267,159,51685,6,0,L|88:158,1,150,6|0,3:2|1:2,0:0:0:0:
267,158,52550,1,0,3:2:0:0:
342,158,52752,1,0,0:0:0:0:
267,158,52954,1,0,1:2:0:0:
116,158,53359,6,0,P|83:100|134:34,1,150,2|2,3:2|1:2,0:0:0:0:
275,37,54168,2,0,L|126:59,1,150,2|2,3:2|1:2,0:0:0:0:
276,58,54978,6,0,P|345:68|398:142,1,150,2|0,3:2|1:2,0:0:0:0:
243,127,55819,1,0,3:2:0:0:
168,127,56029,1,0,0:0:0:0:
243,127,56239,1,0,1:2:0:0:
393,127,56660,6,0,P|432:166|375:231,1,150,2|2,3:2|1:2,0:0:0:0:
233,231,57462,2,0,P|175:226|110:144,1,150,2|2,3:2|1:2,0:0:0:0:
189,162,58064,1,2,0:0:0:0:
264,162,58265,6,0,P|323:158|384:78,1,150,2|0,3:2|1:2,0:0:0:0:
230,93,59098,2,0,P|182:137|244:186,1,150,0|0,3:2|1:2,0:0:0:0:
305,188,59723,1,2,0:0:0:0:
230,188,59931,6,0,P|151:200|98:271,1,150,2|0,3:2|1:2,0:0:0:0:
255,249,60752,2,0,P|334:237|387:166,1,150,2|0,3:2|1:2,0:0:0:0:
229,187,61574,6,0,P|193:134|241:64,1,150,2|0,3:2|1:2,0:0:0:0:
383,66,62396,1,0,3:2:0:0:
458,66,62602,1,0,0:0:0:0:
383,66,62807,1,0,1:2:0:0:
232,66,63218,6,0,P|155:72|106:135,1,150,2|2,3:2|1:2,0:0:0:0:
259,123,64040,1,2,1:2:0:0:
184,123,64245,1,2,1:2:0:0:
108,123,64451,1,2,1:2:0:0:
259,123,64858,6,0,P|332:131|396:174,1,150,6|0,3:2|1:2,0:0:0:0:
244,172,65674,2,0,P|180:181|110:236,1,150,0|0,3:2|1:2,0:0:0:0:
263,231,66490,6,0,P|301:169|255:107,1,150,2|2,3:2|1:2,0:0:0:0:
112,110,67313,1,2,3:2:0:0:
37,110,67519,1,2,0:0:0:0:
112,110,67725,1,2,1:2:0:0:
262,110,68137,6,0,L|444:111,1,150,2|0,3:2|1:2,0:0:0:0:
261,110,68960,2,0,L|414:111,1,150,0|0,3:2|1:2,0:0:0:0:
335,110,69578,1,2,0:0:0:0:
261,110,69784,6,0,P|202:132|188:213,1,150,2|2,3:2|1:2,0:0:0:0:
337,221,70608,1,2,3:2:0:0:
412,221,70813,1,2,0:0:0:0:
337,221,71019,1,2,1:2:0:0:
186,221,71431,6,0,L|10:220,1,150,2|0,3:2|1:2,0:0:0:0:
186,220,72255,2,0,L|32:220,1,150,0|0,3:2|1:2,0:0:0:0:
111,220,72872,1,2,0:0:0:0:
185,220,73078,6,0,P|243:214|299:144,1,150,2|0,3:2|1:2,0:0:0:0:
148,146,73898,2,0,P|111:84|164:32,1,150,2|0,3:2|1:2,0:0:0:0:
306,33,74718,6,0,L|145:57,1,150,2|0,3:2|1:2,0:0:0:0:
308,55,75538,2,0,P|345:104|302:176,1,150,0|0,3:2|1:2,0:0:0:0:
231,174,76153,1,2,0:0:0:0:
155,174,76358,6,0,P|115:126|169:62,1,150,2|2,3:2|1:2,0:0:0:0:
309,63,77179,2,0,P|374:68|423:138,1,150,2|2,3:2|1:2,0:0:0:0:
271,132,77999,6,0,P|160:147|105:256,1,225,10|10,3:2|3:2,0:0:0:0:
330,237,79229,5,6,3:2:0:0:
256,192,79639,12,0,80869,0:0:0:0:
124,336,81279,6,0,P|22:274|126:184,1,300,2|2,0:0|0:0,0:0:0:0:
420,162,82967,6,0,P|503:254|381:315,1,300,2|2,0:0|0:0,0:0:0:0:
112,315,84580,5,2,0:0:0:0:
256,192,84986,12,0,87020,0:0:0:0:
