osu file format v14

[General]
AudioFilename: audio.ogg
AudioLeadIn: 0
PreviewTime: 50864
Countdown: 0
SampleSet: Soft
StackLeniency: 0.7
Mode: 0
LetterboxInBreaks: 0
WidescreenStoryboard: 1

[Editor]
DistanceSpacing: 1.2
BeatDivisor: 4
GridSize: 32
TimelineZoom: 4

[Metadata]
Title:Kamisama Hajimemashita (TV Size)
TitleUnicode:神様はじめました (TV Size)
Artist:Hanae
ArtistUnicode:ハナエ
Creator:Venix
Version:Normal
Source:神様はじめました
Tags:kami-sama kiss viz nanami tomoe opening 1 op intiaz enuhq app nyantiaz anime japanese pop jpop j-pop krfawy
BeatmapID:3956982
BeatmapSetID:1916999

[Difficulty]
HPDrainRate:3
CircleSize:3
OverallDifficulty:3
ApproachRate:4.5
SliderMultiplier:1.3
SliderTickRate:1

[Events]
//Background and Video events
Video,0,"vdo.m4v"
0,0,"khh.jpg",0,0
//Break Periods
//Storyboard Layer 0 (Background)
//Storyboard Layer 1 (Fail)
//Storyboard Layer 2 (Pass)
//Storyboard Layer 3 (Foreground)
//Storyboard Layer 4 (Overlay)
//Storyboard Sound Samples

[TimingPoints]
542,418.118466898955,4,2,1,80,1,0
542,-125,3,2,1,80,0,0
2214,392.156862745098,4,2,1,80,1,0
3978,-100,4,2,1,80,0,0
4174,508.474576271186,4,2,1,80,1,0
4428,431.654676258993,4,2,1,60,1,0
4859,410.958904109589,4,2,1,60,1,0
5680,409.976084728391,4,2,1,70,1,0
5680,-125,4,2,1,70,0,0
16749,422.535211267606,4,2,1,70,1,0
16960,-125,4,2,1,70,0,0
17171,415.22491349481,4,2,1,70,1,0
18831,408.163265306122,4,2,1,70,1,0
19239,-125,4,2,1,70,0,0
22096,414.507772020726,4,2,1,70,1,0
22096,-125,4,2,1,70,0,0
25412,410.256410256411,4,2,1,70,1,0
25412,-125,4,2,1,70,0,0
28694,410.95890410959,4,2,1,70,1,0
29515,-125,4,2,1,70,0,0
35269,411.522633744856,4,2,1,55,1,0
35269,-125,4,2,1,55,0,0
36709,-100,4,2,1,55,0,0
36915,409.556313993174,4,2,1,55,1,0
38553,410.677618069815,4,2,1,55,1,0
41838,-111.111111111111,4,2,1,60,0,0
49435,-100,4,2,1,65,0,0
50051,408.163265306122,4,2,1,75,1,0
50051,-100,4,2,1,75,0,0
51683,444.444444444444,4,2,1,75,1,0
51683,-100,4,2,1,80,0,1
52127,419.580419580419,4,2,1,80,1,0
52127,-100,4,2,1,80,0,0
52546,402.684563758389,4,2,1,80,1,0
52546,-100,4,2,1,80,0,0
53351,410.958904109589,4,2,1,80,1,0
53351,-100,4,2,1,80,0,0
54994,-100,4,2,1,80,0,0
56638,-100,4,2,1,80,0,0
58282,-100,4,2,1,80,0,0
59926,-100,4,2,1,80,0,0
64035,402.684563758389,4,2,1,80,1,0
64035,-100,4,2,1,80,0,1
64236,-100,4,2,1,80,0,0
64437,-100,4,2,1,80,0,1
64639,-100,4,2,1,80,0,0
64840,419.58041958042,4,2,1,80,1,0
64840,-100,4,2,1,85,0,1
65259,410.958904109589,4,2,1,85,1,1
66491,410.958904109589,4,2,1,85,1,1
66491,-100,4,2,1,85,0,1
68134,-100,4,2,1,80,0,0
73066,-100,4,2,1,80,0,0
77997,404.040404040404,4,2,1,80,1,0
77997,-100,4,2,1,85,0,0
78603,-100,4,2,1,85,0,0
79209,415.081286751989,4,2,1,85,1,0
79209,-153.846153846154,4,2,1,85,0,0
81284,437.956204379562,4,2,1,50,1,0
81284,-125,4,2,1,50,0,0
82159,-100,4,2,1,50,0,0
82597,382.165605095541,4,2,1,50,1,0
82979,400,4,2,1,50,1,0
82979,-133.333333333333,4,2,1,50,0,0
83779,-100,4,2,1,50,0,0
84579,456.273764258555,4,2,1,50,1,0
84579,-166.666666666667,4,2,1,50,0,0

[Colours]
Combo1 : 118,118,248
Combo2 : 250,124,128
Combo3 : 255,187,119
Combo4 : 220,173,252

[HitObjects]
36,341,542,6,0,P|56:299|64:231,1,104,12|0,0:1|0:0,0:0:0:0:
129,192,1169,2,0,P|153:224|180:289,1,104,6|0,0:0|0:0,0:0:0:0:
260,279,1796,1,6,0:0:0:0:
256,192,2410,12,0,3978,0:0:0:0:
24,226,5680,6,0,P|56:207|132:175,1,104,12|8,0:1|0:0,0:0:0:0:
149,104,6294,1,8,0:1:0:0:
177,111,6499,2,0,P|216:139|274:144,1,104,10|8,0:1|0:0,0:0:0:0:
401,236,7319,2,0,P|413:206|455:132,2,104,2|8|8,0:0|0:0|0:1,0:0:0:0:
271,337,8549,1,8,0:0:0:0:
271,337,8754,1,2,0:0:0:0:
336,288,8959,2,0,P|382:293|434:348,1,104,10|8,0:1|0:0,0:0:0:0:
466,159,9779,2,0,P|452:113|435:39,2,104,10|8|2,0:1|0:0|0:0,0:0:0:0:
340,74,11009,5,8,0:0:0:0:
268,190,11419,1,8,0:1:0:0:
144,141,11829,2,0,P|138:101|148:77,1,52,8|0,0:0|0:0,0:0:0:0:
109,37,12239,1,12,0:1:0:0:
81,225,12854,1,8,0:1:0:0:
81,225,13059,2,0,P|70:262|35:345,1,104,10|8,0:1|0:0,0:0:0:0:
110,374,13674,1,8,0:1:0:0:
165,355,13879,2,0,P|208:337|282:303,2,104,2|8|10,0:0|0:0|0:1,0:0:0:0:
163,210,15109,6,0,P|202:224|231:230,1,52,8|2,0:0|0:0,0:0:0:0:
284,184,15519,2,0,P|271:144|259:66,1,104,10|8,0:1|0:0,0:0:0:0:
325,29,16134,1,8,0:1:0:0:
325,29,16339,2,0,P|358:45|421:8,1,104,10|8,0:1|0:0,0:0:0:0:
464,40,16960,2,0,L|519:69,1,52,8|10,0:1|0:1,0:0:0:0:
0,370,18831,5,4,0:1:0:0:
55,246,19239,2,0,P|37:213|23:182,1,52,2|8,0:0|0:0,0:0:0:0:
59,151,19647,1,0,0:0:0:0:
160,243,20055,2,0,P|150:275|135:369,1,104,8|8,0:0|0:0,0:0:0:0:
289,274,21075,1,8,0:0:0:0:
289,274,21279,2,0,P|306:239|294:219,1,52
251,167,21688,1,8,0:0:0:0:
388,73,22096,6,0,P|439:91|493:99,1,104,12|8,0:1|0:0,0:0:0:0:
475,179,22717,1,8,0:1:0:0:
445,215,22925,2,0,P|433:251|428:329,1,104,10|8,0:1|0:0,0:0:0:0:
298,383,23754,2,0,P|249:362|188:333,2,104,2|8|10,0:0|0:1|0:1,0:0:0:0:
330,252,24997,2,0,P|311:222|304:193,1,52,8|2,0:0|0:0,0:0:0:0:
331,155,25412,2,0,P|345:115|365:46,2,104,10|8|10,0:1|0:0|0:1,0:0:0:0:
233,54,26642,2,0,P|221:23|216:-2,2,52,8|2|2,0:0|0:0|0:0,0:0:0:0:
167,202,27463,5,8,0:0:0:0:
45,153,27873,1,8,0:1:0:0:
18,286,28283,2,0,P|38:329|42:354,1,52,8|0,0:0|0:0,0:0:0:0:
3,376,28694,1,12,0:1:0:0:
183,380,29310,1,8,0:1:0:0:
183,380,29515,2,0,P|189:331|216:263,1,104,10|8,0:1|0:0,0:0:0:0:
273,231,30132,1,8,0:1:0:0:
321,269,30337,2,0,P|369:266|420:226,2,104,2|8|10,0:0|0:1|0:1,0:0:0:0:
178,200,31570,6,0,P|167:164|144:138,1,52,8|2,0:0|0:0,0:0:0:0:
205,83,31981,2,0,P|256:100|320:110,1,104,10|8,0:1|0:0,0:0:0:0:
377,155,32598,1,8,0:1:0:0:
377,155,32803,2,0,P|361:188|398:251,1,104,8|8,0:1|0:0,0:0:0:0:
427,267,33420,2,0,L|486:236,1,52,8|10,0:1|0:1,0:0:0:0:
274,272,34447,1,8,0:1:0:0:
208,380,34858,1,8,0:0:0:0:
87,313,35269,6,0,P|60:226|36:163,1,156,8|2,0:1|0:0,0:0:0:0:
59,113,36092,1,8,0:0:0:0:
225,24,36709,2,0,P|211:68|200:97,1,65,8|2,0:1|0:0,0:0:0:0:
313,246,37529,1,8,0:1:0:0:
313,246,37734,1,8,0:0:0:0:
401,151,38143,2,0,P|386:106|380:89,1,65
405,40,38553,5,8,0:1:0:0:
474,280,39374,2,0,P|443:298|399:383,1,130,8|0,0:0|0:0,0:0:0:0:
340,366,39990,1,8,0:1:0:0:
340,366,40195,2,0,P|274:334|209:315,1,130,2|0,0:0|0:0,0:0:0:0:
170,287,40811,2,0,P|132:307|112:315,1,65,8|8,0:1|0:0,0:0:0:0:
0,71,41838,2,0,P|38:52|65:65,1,58.4999982147217,8|0,0:1|0:0,0:0:0:0:
84,117,42249,1,0,0:0:0:0:
84,117,42454,2,0,P|73:156|66:246,1,116.999996429443,8|0,0:0|0:0,0:0:0:0:
249,322,43481,6,0,P|232:281|219:260,1,58.4999982147217,8|0,0:1|0:0,0:0:0:0:
241,219,43891,1,0,0:0:0:0:
241,219,44097,1,8,0:0:0:0:
438,26,44918,1,2,0:0:0:0:
429,65,45123,2,0,P|393:86|298:85,1,116.999996429443,8|0,0:1|0:0,0:0:0:0:
247,55,45739,1,8,0:0:0:0:
247,55,45945,2,0,P|256:104|269:192,1,116.999996429443
220,310,46766,5,10,0:1:0:0:
97,264,47177,2,0,P|63:277|31:292,1,58.4999982147217,0|8,0:0|0:0,0:0:0:0:
2,241,47587,2,0,P|30:164|43:110,2,116.999996429443,0|0|8,0:0|0:0|0:1,0:0:0:0:
147,372,49025,1,8,0:0:0:0:
256,277,49435,2,0,P|245:246|236:214,2,65,0|8|8,0:0|0:0|0:0,0:0:0:0:
304,321,50051,1,10,0:1:0:0:
430,355,50459,1,8,0:1:0:0:
32,268,51683,5,12,0:1:0:0:
32,268,51905,2,0,P|71:241|90:219,1,65,0|8,0:0|0:0,0:0:0:0:
168,218,52336,1,0,0:0:0:0:
184,281,52546,2,0,P|207:337|286:392,1,130,8|8,0:1|0:0,0:0:0:0:
324,334,53150,1,0,0:0:0:0:
324,334,53351,2,0,P|331:287|419:274,1,130,10|8,0:1|0:0,0:0:0:0:
499,177,54172,2,0,P|489:139|483:106,2,65,8|2|8,0:1|0:0|0:0,0:0:0:0:
371,141,54994,6,0,P|391:74|406:1,1,130,10|10,0:1|0:0,0:0:0:0:
335,13,55611,1,0,0:0:0:0:
290,66,55816,2,0,P|244:68|222:-18,1,130,10|8,0:1|0:0,0:0:0:0:
109,125,56638,6,0,P|129:180|133:259,1,130,8|8,0:1|0:0,0:0:0:0:
177,329,57255,1,0,0:0:0:0:
177,329,57460,2,0,P|213:302|238:293,1,65,8|2,0:1|0:0,0:0:0:0:
312,333,57871,2,0,P|342:349|379:359,1,65,8|0,0:0|0:0,0:0:0:0:
432,286,58282,5,10,0:1:0:0:
342,182,58693,2,0,P|311:200|258:217,1,65,8|0,0:0|0:0,0:0:0:0:
209,176,59104,2,0,P|210:127|128:69,1,130,10|10,0:1|0:0,0:0:0:0:
82,36,59720,1,0,0:0:0:0:
59,83,59926,2,0,P|43:154|16:219,1,130,10|8,0:1|0:0,0:0:0:0:
44,291,60542,1,0,0:0:0:0:
44,291,60748,2,0,P|87:319|144:263,1,130,10|8,0:1|0:0,0:0:0:0:
186,245,61364,2,0,L|240:297,1,65,0|12,0:0|0:1,0:0:0:0:
412,261,61981,6,0,P|395:226|387:192,1,65,8|0,0:0|0:0,0:0:0:0:
335,158,62392,2,0,P|367:106|402:36,1,130,8|8,0:1|0:0,0:0:0:0:
328,5,63008,1,0,0:0:0:0:
285,40,63214,2,0,P|243:31|221:13,1,65,12|0,0:1|0:0,0:0:0:0:
150,54,63624,2,0,P|159:97|180:129,1,65,8|0,0:0|0:0,0:0:0:0:
174,197,64035,1,8,0:0:0:0:
55,253,64437,1,8,0:0:0:0:
180,352,64840,6,0,P|272:340|328:325,1,130,12|8,0:1|0:0,0:0:0:0:
369,268,65464,1,0,0:0:0:0:
441,203,65669,2,0,P|376:180|296:154,1,130,8|8,0:1|0:0,0:0:0:0:
159,201,66491,2,0,P|132:160|105:138,1,65,8|0,0:1|0:0,0:0:0:0:
116,68,66901,1,8,0:0:0:0:
158,15,67107,1,0,0:0:0:0:
158,15,67312,2,0,P|207:39|295:-4,1,130,10|10,0:1|0:0,0:0:0:0:
339,39,67929,1,0,0:0:0:0:
363,99,68134,6,0,P|422:116|445:126,2,65,8|0|8,0:1|0:0|0:0,0:0:0:0:
266,188,68956,2,0,P|263:223|286:262,1,65,8|2,0:1|0:0,0:0:0:0:
325,279,69367,1,8,0:0:0:0:
212,349,69778,2,0,P|171:339|86:386,1,130,8|8,0:1|0:0,0:0:0:0:
26,329,70395,1,0,0:0:0:0:
10,272,70600,2,0,P|25:203|40:118,1,130,8|8,0:1|0:0,0:0:0:0:
88,77,71217,2,0,P|71:31|64:10,1,65,0|8,0:0|0:1,0:0:0:0:
195,110,71833,2,0,P|244:137|250:163,1,65,8|0,0:0|0:0,0:0:0:0:
296,122,72244,1,8,0:1:0:0:
489,144,72655,2,0,P|498:108|516:79,1,65,8|0,0:0|0:0,0:0:0:0:
480,10,73066,6,0,P|438:33|389:124,1,130,8|8,0:1|0:0,0:0:0:0:
358,181,73682,1,0,0:0:0:0:
383,229,73888,2,0,P|394:263|405:368,1,130,8|8,0:1|0:0,0:0:0:0:
490,343,74504,2,0,P|508:308|533:283,1,65,0|8,0:0|0:1,0:0:0:0:
474,137,75121,2,0,P|444:88|445:67,1,65,8|0,0:0|0:0,0:0:0:0:
387,47,75532,2,0,P|351:62|252:89,1,130,8|8,0:1|0:0,0:0:0:0:
201,80,76148,1,0,0:0:0:0:
130,41,76354,6,0,P|89:37|45:117,1,130,8|8,0:1|0:0,0:0:0:0:
99,219,77175,2,0,P|109:258|119:292,1,65,8|2,0:1|0:0,0:0:0:0:
88,340,77586,1,8,0:0:0:0:
221,325,77997,6,0,P|241:275|332:141,1,195,14|14,0:0|0:0,0:0:0:0:
444,16,79209,6,0,P|444:65|497:365,1,337.999984527589,14|0,0:0|0:0,0:0:0:0:
373,360,81284,6,0,P|328:354|293:298,2,104,2|0|0,0:0|0:0|0:0,0:0:0:0:
461,292,82597,1,0,0:0:0:0:
437,184,82979,2,0,P|445:130|455:76,2,97.50000371933,2|0|0,0:0|0:0|0:0,0:0:0:0:
332,157,84179,1,0,0:0:0:0:
277,253,84579,2,0,P|207:290|159:313,1,116.999996429443,2|0,0:0|0:0,0:0:0:0:
