osu file format v14

[General]
AudioFilename: audio.ogg
AudioLeadIn: 0
PreviewTime: 50864
Countdown: 0
SampleSet: Soft
StackLeniency: 0.7
Mode: 0
LetterboxInBreaks: 0
WidescreenStoryboard: 1

[Editor]
DistanceSpacing: 2.2
BeatDivisor: 4
GridSize: 4
TimelineZoom: 1

[Metadata]
Title:Kamisama Hajimemashita (TV Size)
TitleUnicode:神様はじめました (TV Size)
Artist:Hanae
ArtistUnicode:ハナエ
Creator:Venix
Version:Goddess
Source:神様はじめました
Tags:kami-sama kiss viz nanami tomoe opening 1 op intiaz enuhq app nyantiaz anime japanese pop jpop j-pop krfawy
BeatmapID:3955794
BeatmapSetID:1916999

[Difficulty]
HPDrainRate:6.6
CircleSize:4
OverallDifficulty:8
ApproachRate:8.2
SliderMultiplier:1.8
SliderTickRate:1

[Events]
//Background and Video events
Video,0,"vdo.m4v"
0,0,"khh.jpg",0,0
//Break Periods
//Storyboard Layer 0 (Background)
//Storyboard Layer 1 (Fail)
//Storyboard Layer 2 (Pass)
//Storyboard Layer 3 (Foreground)
//Storyboard Layer 4 (Overlay)
//Storyboard Sound Samples

[TimingPoints]
542,418.118466898955,4,2,1,80,1,0
542,-100,3,2,1,80,0,0
1169,-125,3,2,1,80,0,0
2214,392.156862745098,4,2,1,80,1,0
4174,508.474576271186,4,2,1,80,1,0
4428,431.654676258993,4,2,1,60,1,0
4859,410.958904109589,4,2,1,60,1,0
5680,409.976084728391,4,2,1,70,1,0
5680,-125,4,2,1,70,0,0
16749,422.535211267606,4,2,1,70,1,0
17171,415.22491349481,4,2,1,70,1,0
17171,-142.857142857143,4,2,1,70,0,0
18416,-125,4,2,1,70,0,0
18831,408.163265306122,4,2,1,70,1,0
18831,-117.647058823529,4,2,1,70,0,0
20463,-142.857142857143,4,2,1,70,0,0
22096,414.507772020726,4,2,1,70,1,0
22717,-125,4,2,1,70,0,0
25412,410.256410256411,4,2,1,70,1,0
25412,-125,4,2,1,70,0,0
28694,410.95890410959,4,2,1,70,1,0
28694,-125,4,2,1,70,0,0
35269,411.522633744856,4,2,1,55,1,0
35269,-133.333333333333,4,2,1,55,0,0
36915,409.556313993174,4,2,1,55,1,0
36915,-133.333333333333,4,2,1,55,0,0
38553,410.677618069815,4,2,1,55,1,0
38553,-133.333333333333,4,2,1,55,0,0
41838,-133.333333333333,4,2,1,60,0,0
48409,-133.333333333333,4,2,1,60,0,0
49025,-153.846153846153,4,2,1,60,0,0
49435,-153.846153846153,4,2,1,65,0,0
50051,408.163265306122,4,2,1,75,1,0
50051,-153.846153846153,4,2,1,75,0,0
51683,444.444444444444,4,2,1,75,1,0
51683,-83.3333333333333,4,2,1,80,0,1
52127,419.580419580419,4,2,1,80,1,0
52127,-83.3333333333333,4,2,1,80,0,0
52546,402.684563758389,4,2,1,80,1,0
52546,-100,4,2,1,80,0,0
53351,410.958904109589,4,2,1,80,1,0
53351,-83.3333333333333,4,2,1,80,0,0
54994,-83.3333333333333,4,2,1,80,0,0
56638,-76.9230769230769,4,2,1,80,0,0
58282,-76.9230769230769,4,2,1,80,0,0
59926,-76.9230769230769,4,2,1,80,0,0
64035,402.684563758389,4,2,1,80,1,0
64035,-76.9230769230769,4,2,1,80,0,1
64236,-76.9230769230769,4,2,1,80,0,0
64437,-100,4,2,1,80,0,1
64639,-100,4,2,1,80,0,0
64840,419.58041958042,4,2,1,80,1,0
64840,-66.6666666666667,4,2,1,85,0,1
65259,410.958904109589,4,2,1,85,1,1
66080,-83.3333333333333,4,2,1,85,0,1
66491,410.958904109589,4,2,1,85,1,1
66491,-76.9230769230769,4,2,1,85,0,1
68134,-90.9090909090909,4,2,1,80,0,0
73066,-83.3333333333333,4,2,1,80,0,0
74710,-76.9230769230769,4,2,1,80,0,0
77586,-100,4,2,1,80,0,0
77997,404.040404040404,4,2,1,80,1,0
77997,-100,4,2,1,85,0,0
78603,-100,4,2,1,85,0,0
79209,415.081286751989,4,2,1,85,1,0
79209,-200,4,2,1,85,0,0
81284,437.956204379562,4,2,1,50,1,0
81284,-250,4,2,1,50,0,0
82159,-250,4,2,1,50,0,0
82597,382.165605095541,4,2,1,50,1,0
82979,400,4,2,1,50,1,0
82979,-100,4,2,1,50,0,0
83779,-100,4,2,1,50,0,0
84179,-200,4,2,1,50,0,0
84579,456.273764258555,4,2,1,50,1,0
84579,-250,4,2,1,50,0,0

[Colours]
Combo1 : 118,118,248
Combo2 : 250,124,128
Combo3 : 255,187,119
Combo4 : 220,173,252

[HitObjects]
47,302,542,6,0,P|60:250|33:187,2,90,12|0|0,0:1|0:0|0:0,0:0:0:0:
89,365,1064,1,2,0:0:0:0:
96,361,1169,2,0,P|136:340|239:310,1,144,6|0,0:0|0:0,0:0:0:0:
336,305,1691,1,0,0:0:0:0:
394,319,1796,1,6,0:0:0:0:
256,192,1900,12,0,4174,0:0:0:0:
4,272,4428,5,0,0:0:0:0:
41,252,4643,1,0,0:0:0:0:
116,264,4859,1,0,0:0:0:0:
196,315,5064,1,0,0:0:0:0:
297,315,5269,1,0,0:0:0:0:
220,294,5475,1,0,0:0:0:0:
414,122,5680,6,0,P|359:150|357:216,1,108,12|0,0:1|0:0,0:0:0:0:
358,203,6089,1,8,0:0:0:0:
214,136,6294,2,0,P|186:102|181:84,1,36,8|0,0:1|0:0,0:0:0:0:
132,163,6499,2,0,P|144:207|162:328,1,144,10|8,0:1|0:0,0:0:0:0:
44,221,7114,1,8,0:1:0:0:
23,151,7319,2,0,P|31:112|32:75,1,72,2|0,0:0|0:0,0:0:0:0:
63,220,7729,2,0,P|31:252|0:362,1,144,8|8,0:0|0:1,0:0:0:0:
163,108,8549,1,8,0:0:0:0:
132,34,8754,1,2,0:0:0:0:
291,152,8959,6,0,P|341:115|349:61,1,108,10|0,0:1|0:0,0:0:0:0:
345,64,9369,1,8,0:0:0:0:
458,12,9574,1,8,0:1:0:0:
274,13,9779,1,10,0:1:0:0:
338,56,9984,2,0,P|372:67|407:73,1,72,2|8,0:0|0:0,0:0:0:0:
448,190,10394,2,0,P|469:219|474:234,1,36,8|0,0:1|0:0,0:0:0:0:
451,269,10599,1,2,0:0:0:0:
43,260,11009,5,8,0:0:0:0:
68,190,11214,1,0,0:0:0:0:
121,276,11419,1,8,0:1:0:0:
137,352,11624,1,2,0:0:0:0:
209,228,11829,1,8,0:0:0:0:
237,138,12034,1,0,0:0:0:0:
371,351,12239,2,0,P|309:338|226:313,1,144,12|8,0:1|0:0,0:0:0:0:
367,333,12854,6,0,P|403:314|422:307,1,36,8|0,0:1|0:0,0:0:0:0:
455,226,13059,2,0,P|421:185|427:94,1,144,10|8,0:1|0:0,0:0:0:0:
359,239,13674,1,8,0:1:0:0:
257,108,13879,2,0,P|291:128|334:143,1,72,2|0,0:0|0:0,0:0:0:0:
214,208,14289,2,0,P|154:229|65:261,1,144,8|10,0:0|0:1,0:0:0:0:
64,250,15109,5,8,0:0:0:0:
152,278,15314,1,2,0:0:0:0:
170,111,15519,2,0,P|187:156|232:264,1,144,10|8,0:1|0:0,0:0:0:0:
264,115,16134,1,8,0:1:0:0:
323,254,16339,2,0,P|298:336|292:361,1,108,10|0,0:1|0:0,0:0:0:0:
292,357,16749,1,8,0:0:0:0:
340,304,16960,1,8,0:1:0:0:
480,359,17171,6,0,P|437:347|417:339,1,62.9999980773926,10|0,0:1|0:0,0:0:0:0:
356,312,17586,2,0,P|399:300|419:292,1,62.9999980773926,8|0,0:0|0:0,0:0:0:0:
469,221,18001,1,8,0:1:0:0:
486,115,18209,1,2,0:0:0:0:
400,33,18416,2,0,P|392:54|403:80,1,36,8|0,0:0|0:0,0:0:0:0:
402,70,18624,1,0,0:0:0:0:
301,186,18831,6,0,P|259:159|180:116,1,114.750002188683,4|0,0:1|0:0,0:0:0:0:
202,127,19239,1,2,0:0:0:0:
17,210,19443,2,0,P|48:221|74:224,1,38.2500007295609,8|0,0:0|0:0,0:0:0:0:
77,147,19647,2,0,P|57:104|33:44,1,76.5000014591217,0|2,0:0|0:0,0:0:0:0:
146,187,20055,1,8,0:0:0:0:
112,298,20259,1,2,0:0:0:0:
103,315,20361,1,8,0:0:0:0:
101,352,20463,6,0,P|73:317|70:295,1,62.9999980773926,8|0,0:1|0:0,0:0:0:0:
161,217,20871,2,0,P|146:255|140:290,1,62.9999980773926,0|8,0:0|0:0,0:0:0:0:
211,344,21279,1,0,0:0:0:0:
310,308,21484,1,0,0:0:0:0:
462,368,21688,2,0,P|501:355|508:296,1,94.499997116089,8|0,0:0|0:0,0:0:0:0:
507,303,22096,5,12,0:1:0:0:
359,157,22510,5,8,0:0:0:0:
305,99,22717,2,0,P|323:88|343:77,1,36,8|0,0:1|0:0,0:0:0:0:
346,168,22925,2,0,P|331:214|308:317,1,144,10|8,0:1|0:0,0:0:0:0:
196,182,23546,1,8,0:1:0:0:
146,269,23754,2,0,P|187:262|234:250,1,72,2|0,0:0|0:0,0:0:0:0:
108,307,24168,2,0,P|72:298|37:292,1,72,8|0,0:1|0:0,0:0:0:0:
173,352,24583,2,0,P|220:364|298:383,1,108,10|0,0:1|0:0,0:0:0:0:
277,378,24997,1,8,0:0:0:0:
403,341,25204,1,2,0:0:0:0:
400,152,25412,6,0,P|354:168|341:252,1,108,10|0,0:1|0:0,0:0:0:0:
340,226,25822,1,8,0:0:0:0:
449,250,26027,1,8,0:1:0:0:
348,234,26232,2,0,P|305:251|253:263,1,72,10|0,0:1|0:0,0:0:0:0:
173,163,26642,1,8,0:0:0:0:
193,87,26847,1,2,0:0:0:0:
245,192,27053,1,2,0:0:0:0:
240,199,27463,5,8,0:0:0:0:
203,82,27668,1,0,0:0:0:0:
173,163,27873,1,8,0:1:0:0:
111,52,28078,1,2,0:0:0:0:
39,117,28283,1,8,0:0:0:0:
0,5,28488,1,0,0:0:0:0:
78,181,28694,2,0,P|55:247|34:320,1,144,12|8,0:1|0:0,0:0:0:0:
174,175,29310,2,0,P|167:132|161:117,1,36,8|0,0:1|0:0,0:0:0:0:
227,224,29515,6,0,P|272:236|384:267,1,144,10|8,0:1|0:0,0:0:0:0:
439,161,30132,1,8,0:1:0:0:
378,267,30337,2,0,P|318:285|279:299,1,72,2|0,0:0|0:0,0:0:0:0:
348,164,30748,2,0,P|361:115|386:10,1,144,8|10,0:1|0:1,0:0:0:0:
403,325,31570,5,8,0:0:0:0:
366,188,31776,1,2,0:0:0:0:
414,248,31981,2,0,P|393:284|362:370,1,108,10|0,0:1|0:0,0:0:0:0:
368,345,32392,1,8,0:0:0:0:
245,228,32598,2,0,P|235:188|220:173,1,36,8|0,0:1|0:0,0:0:0:0:
167,266,32803,2,0,P|200:298|225:342,1,72,10|0,0:1|0:0,0:0:0:0:
61,384,33214,1,8,0:0:0:0:
132,347,33420,1,8,0:1:0:0:
19,299,33625,1,10,0:1:0:0:
134,38,34036,2,0,P|121:89|117:114,1,72,8|0,0:0|0:0,0:0:0:0:
51,147,34447,5,8,0:1:0:0:
29,50,34652,1,2,0:0:0:0:
29,50,34755,1,8,0:0:0:0:
29,50,34858,1,8,0:0:0:0:
13,123,35063,1,0,0:0:0:0:
186,201,35269,6,0,P|228:185|325:161,1,135.000005149842,8|0,0:1|0:0,0:0:0:0:
428,100,35886,2,0,P|397:84|386:84,1,33.7500012874604,2|2,0:0|0:0,0:0:0:0:
375,44,36092,1,8,0:0:0:0:
447,239,36709,1,8,0:1:0:0:
390,355,36915,2,0,P|376:307|369:259,1,67.5000025749208,2|8,0:0|0:1,0:0:0:0:
454,92,37529,2,0,P|447:124|441:139,1,33.7500012874604,8|2,0:1|0:0,0:0:0:0:
409,159,37734,1,8,0:0:0:0:
447,378,38143,1,0,0:0:0:0:
483,294,38348,1,0,0:0:0:0:
327,195,38553,6,0,P|346:236|413:307,1,135.000005149842,8|0,0:1|0:0,0:0:0:0:
295,374,39169,1,0,0:0:0:0:
207,334,39374,2,0,P|246:315|272:303,1,67.5000025749208,8|0,0:0|0:0,0:0:0:0:
127,324,39785,2,0,P|137:281|145:254,1,67.5000025749208,0|8,0:0|0:1,0:0:0:0:
72,185,40195,1,2,0:0:0:0:
27,247,40401,2,0,P|36:305|50:388,1,135.000005149842,8|8,0:1|0:1,0:0:0:0:
52,312,41017,5,8,0:0:0:0:
60,229,41222,1,0,0:0:0:0:
66,123,41427,1,0,0:0:0:0:
70,43,41633,1,0,0:0:0:0:
61,131,41838,2,0,P|82:164|104:213,1,67.5000025749208,8|0,0:1|0:0,0:0:0:0:
156,241,42249,1,0,0:0:0:0:
152,115,42454,2,0,P|162:85|181:0,1,101.250003862381,8|0,0:0|0:0,0:0:0:0:
168,22,42865,5,0,0:0:0:0:
181,99,43070,1,0,0:0:0:0:
242,156,43275,1,0,0:0:0:0:
323,192,43481,2,0,P|362:180|395:170,1,67.5000025749208,8|0,0:1|0:0,0:0:0:0:
412,101,43891,1,0,0:0:0:0:
349,209,44097,2,0,P|294:208|219:191,1,101.250003862381,8|0,0:0|0:0,0:0:0:0:
248,199,44507,1,0,0:0:0:0:
175,261,44713,1,0,0:0:0:0:
56,287,44918,1,2,0:0:0:0:
56,287,45021,1,2,0:0:0:0:
56,287,45123,6,0,P|91:327|173:299,1,135.000005149842,8|0,0:1|0:0,0:0:0:0:
177,153,45739,1,8,0:0:0:0:
97,147,45945,2,0,P|81:189|71:222,1,67.5000025749208
172,126,46355,1,0,0:0:0:0:
147,54,46561,1,0,0:0:0:0:
263,0,46766,2,0,P|271:52|285:125,1,101.250003862381,10|0,0:1|0:0,0:0:0:0:
279,99,47177,1,0,0:0:0:0:
359,207,47382,2,0,P|376:177|380:162,1,33.7500012874604,8|0,0:0|0:0,0:0:0:0:
362,140,47587,5,0,0:0:0:0:
243,173,47793,1,0,0:0:0:0:
155,203,47998,1,0,0:0:0:0:
82,235,48203,1,0,0:0:0:0:
267,204,48409,2,0,P|310:221|465:270,1,202.500007724762,8|8,0:1|0:0,0:0:0:0:
68,349,49435,1,0,0:0:0:0:
1,313,49641,1,8,0:0:0:0:
99,302,49846,1,8,0:0:0:0:
99,302,49949,1,8,0:0:0:0:
99,302,50051,5,10,0:1:0:0:
29,197,50255,1,2,0:0:0:0:
178,274,50459,1,8,0:1:0:0:
148,25,50663,1,0,0:0:0:0:
243,349,50867,1,8,0:1:0:0:
243,349,51275,2,0,P|254:309|267:264,1,87.749995983124,8|0,0:0|0:0,0:0:0:0:
211,202,51683,5,12,0:1:0:0:
323,357,51905,2,0,B|370:337|389:297|389:297|376:254,1,107.999996704102,0|8,0:0|0:0,0:0:0:0:
97,326,52336,1,0,0:0:0:0:
24,299,52546,1,8,0:1:0:0:
243,310,52747,1,2,0:0:0:0:
429,359,52948,1,8,0:0:0:0:
174,356,53150,5,0,0:0:0:0:
400,286,53351,2,0,B|345:258|325:210|325:210|266:180,1,161.999995056153,10|0,0:1|0:0,0:0:0:0:
267,193,53761,1,8,0:0:0:0:
481,132,53967,1,0,0:0:0:0:
404,104,54172,5,8,0:1:0:0:
183,220,54378,2,0,P|127:244|75:272,1,107.999996704102,2|8,0:0|0:0,0:0:0:0:
8,173,54789,6,0,P|38:185|69:192,1,53.9999983520508
195,235,54994,2,0,P|250:245|252:353,1,161.999995056153,10|0,0:1|0:0,0:0:0:0:
248,344,55405,5,10,0:0:0:0:
251,273,55611,1,0,0:0:0:0:
311,183,55816,1,10,0:1:0:0:
426,108,56022,1,2,0:0:0:0:
458,102,56227,6,0,L|438:162,1,53.9999983520508,8|0,0:0|0:0,0:0:0:0:
387,77,56433,1,0,0:0:0:0:
11,50,56638,2,0,B|33:119|101:136|101:136|138:91,1,175.499991966248,8|0,0:1|0:0,0:0:0:0:
230,91,57049,5,8,0:0:0:0:
195,18,57255,1,0,0:0:0:0:
358,80,57460,1,8,0:1:0:0:
308,303,57666,1,2,0:0:0:0:
220,9,57871,5,8,0:0:0:0:
186,210,58077,1,0,0:0:0:0:
488,349,58282,6,0,B|428:320|357:316|357:316|299:345,1,175.499991966248,10|0,0:1|0:0,0:0:0:0:
321,333,58693,1,8,0:0:0:0:
387,223,58898,1,0,0:0:0:0:
350,136,59104,1,10,0:1:0:0:
357,58,59309,1,2,0:0:0:0:
387,25,59515,1,10,0:0:0:0:
396,30,59720,5,0,0:0:0:0:
9,236,59926,2,0,B|59:208|137:197|137:197|97:172,1,175.499991966248,10|0,0:1|0:0,0:0:0:0:
102,175,60337,1,8,0:0:0:0:
318,310,60542,6,0,P|275:317|254:304,1,58.4999973220826,2|0,0:0|0:0,0:0:0:0:
11,208,60748,2,0,P|102:225|114:334,1,175.499991966248,10|0,0:1|0:0,0:0:0:0:
87,370,61159,5,8,0:0:0:0:
151,56,61364,1,0,0:0:0:0:
125,369,61570,6,0,B|126:268|183:276|184:195,1,175.499991966248,12|0,0:1|0:0,0:0:0:0:
126,158,61981,5,8,0:0:0:0:
378,134,62186,1,0,0:0:0:0:
477,124,62392,1,8,0:1:0:0:
183,206,62597,5,2,0:0:0:0:
0,136,62803,1,8,0:0:0:0:
273,35,63008,6,0,P|267:70|261:93,1,58.4999973220826,2|0,0:0|0:0,0:0:0:0:
331,341,63214,2,0,P|426:332|467:254,1,175.499991966248,12|0,0:1|0:0,0:0:0:0:
439,237,63624,5,8,0:0:0:0:
188,325,63830,1,0,0:0:0:0:
463,45,64035,6,0,P|453:81|409:113,1,58.4999973220826,8|0,0:0|0:0,0:0:0:0:
363,79,64236,1,8,0:0:0:0:
90,360,64437,1,8,0:0:0:0:
38,306,64538,1,0,0:0:0:0:
36,231,64639,1,8,0:0:0:0:
291,19,64840,6,0,B|316:85|316:85|299:142|333:225,1,202.500007724762,12|0,0:1|0:0,0:0:0:0:
305,287,65259,1,8,0:0:0:0:
388,45,65464,1,0,0:0:0:0:
462,298,65669,5,8,0:1:0:0:
467,376,65875,1,0,0:0:0:0:
316,141,66080,2,0,B|356:110|364:83|364:83|345:11,1,107.999996704102,8|0,0:0|0:0,0:0:0:0:
433,379,66389,5,2,0:0:0:0:
468,284,66491,2,0,B|486:244|486:244|476:176|505:108,1,175.499991966248,8|0,0:1|0:0,0:0:0:0:
472,10,66901,2,0,P|445:55|434:93,1,58.4999973220826,8|0,0:0|0:0,0:0:0:0:
233,146,67107,2,0,P|185:117|193:63,1,116.999994644165,0|10,0:0|0:1,0:0:0:0:
259,19,67415,1,2,0:0:0:0:
272,34,67518,1,2,0:0:0:0:
312,353,67723,1,10,0:0:0:0:
312,353,67929,1,0,0:0:0:0:
105,130,68134,6,0,B|145:155|145:155|194:123|277:140,1,148.50000453186,8|0,0:1|0:0,0:0:0:0:
308,181,68545,1,8,0:0:0:0:
463,128,68751,1,0,0:0:0:0:
255,128,68956,6,0,P|284:143|312:155,1,49.5000015106202,8|0,0:1|0:0,0:0:0:0:
422,252,69162,2,0,P|464:225|512:212,1,99.0000030212403,2|8,0:0|0:0,0:0:0:0:
105,130,69573,5,0,0:0:0:0:
276,27,69778,2,0,P|240:52|225:53,1,49.5000015106202,8|0,0:1|0:0,0:0:0:0:
189,28,69984,1,2,0:0:0:0:
115,367,70189,2,0,P|90:316|55:270,1,99.0000030212403,8|0,0:0|0:0,0:0:0:0:
379,101,70600,1,8,0:1:0:0:
341,221,70806,6,0,P|297:224|283:218,1,49.5000015106202,8|0,0:1|0:0,0:0:0:0:
77,94,71011,2,0,B|64:47|99:17|99:17|126:58,1,99.0000030212403,8|0,0:0|0:0,0:0:0:0:
29,266,71319,5,2,0:0:0:0:
81,213,71422,2,0,B|83:158|47:97|47:97|8:88,1,148.50000453186,8|0,0:1|0:0,0:0:0:0:
101,201,71833,1,8,0:0:0:0:
173,225,72038,1,0,0:0:0:0:
269,215,72244,1,8,0:1:0:0:
349,155,72449,1,2,0:0:0:0:
384,48,72655,1,8,0:0:0:0:
374,42,72860,5,0,0:0:0:0:
369,379,73066,2,0,B|384:337|375:287|375:287|414:217,1,161.999995056153,8|0,0:1|0:0,0:0:0:0:
408,226,73477,1,8,0:0:0:0:
150,319,73682,1,0,0:0:0:0:
387,158,73888,2,0,B|367:194|367:194|368:253|407:306,1,161.999995056153,8|0,0:1|0:0,0:0:0:0:
407,306,74299,1,8,0:0:0:0:
440,54,74504,1,0,0:0:0:0:
369,379,74710,6,0,B|381:281|428:315|451:207,1,175.499991966248,8|0,0:1|0:0,0:0:0:0:
439,217,75121,1,8,0:0:0:0:
151,253,75326,1,0,0:0:0:0:
54,265,75532,1,8,0:1:0:0:
440,97,75737,5,2,0:0:0:0:
485,326,75943,1,8,0:0:0:0:
279,76,76148,6,0,P|284:31|295:7,1,58.4999973220826,2|0,0:0|0:0,0:0:0:0:
125,184,76354,2,0,P|183:214|187:331,1,175.499991966248,8|0,0:1|0:0,0:0:0:0:
82,348,76764,1,8,0:0:0:0:
366,280,76970,1,0,0:0:0:0:
415,187,77175,5,8,0:1:0:0:
32,144,77381,1,2,0:0:0:0:
356,305,77586,2,0,B|402:336|442:333|442:333|476:287,1,135,8|0,0:0|0:0,0:0:0:0:
181,246,77997,2,0,B|64:263|106:303|-15:329,1,180,14|0,0:0|0:0,0:0:0:0:
13,304,78502,1,2,0:0:0:0:
18,291,78603,2,0,P|73:313|198:392,1,180,14|0,0:0|0:0,0:0:0:0:
512,0,79209,6,0,P|455:8|377:268,1,360,14|0,0:0|0:0,0:0:0:0:
14,115,81284,2,0,P|26:69|28:33,1,72,2|0,0:0|0:0,0:0:0:0:
42,122,82159,2,0,P|58:164|68:201,1,72
85,289,82979,1,2,0:0:0:0:
58,308,83379,1,0,0:0:0:0:
19,282,83779,1,0,0:0:0:0:
112,250,84179,2,0,P|145:269|165:277,1,45
258,346,84579,2,0,P|317:329|378:320,1,108,2|0,0:0|0:0,0:0:0:0:
