osu file format v14

[General]
AudioFilename: audio.mp3
AudioLeadIn: 0
PreviewTime: 193259
Countdown: 0
SampleSet: Soft
StackLeniency: 0.3
Mode: 0
LetterboxInBreaks: 0
WidescreenStoryboard: 1

[Editor]
Bookmarks: 1221,7335,19564,31794,44023,56252,80711,92940,105170,117399,141857,154087,166316,180074,193832,219819,232813
DistanceSpacing: 1.4
BeatDivisor: 4
GridSize: 8
TimelineZoom: 3.499998

[Metadata]
Title:Inochi no Karakuri
TitleUnicode:イノチノカラクリ
Artist:Hanabusa Sumireko (CV: Arakawa Miho)
ArtistUnicode:英 純恋子 (CV: 荒川美穂)
Creator:Talulah
Version:Insane
Source:悪魔のリドル
Tags:Atalanta Shizuku- Akuma No Riddle Story of Devil Anime Full Version ED Ending Japanese Rock
BeatmapID:2395972
BeatmapSetID:1061614

[Difficulty]
HPDrainRate:5
CircleSize:3.6
OverallDifficulty:8
ApproachRate:9
SliderMultiplier:2
SliderTickRate:1

[Events]
//Background and Video events
0,0,"Queen.jpg",0,0
//Break Periods
2,143968,146417
2,180274,188455
//Storyboard Layer 0 (Background)
//Storyboard Layer 1 (Fail)
//Storyboard Layer 2 (Pass)
//Storyboard Layer 3 (Foreground)
//Storyboard Layer 4 (Overlay)
//Storyboard Sound Samples

[TimingPoints]
1221,382.165605095541,4,2,1,70,1,0
1221,-125,4,2,1,70,0,0
1985,-125,4,2,1,70,0,0
2367,-250,4,2,1,70,0,0
2749,-125,4,2,1,70,0,0
2845,-125,4,2,1,70,0,0
3896,-250,4,2,1,70,0,0
4278,-125,4,2,1,70,0,0
4947,-125,4,2,1,70,0,0
5042,-125,4,2,2,70,0,0
5170,-125,4,2,3,70,0,0
5233,-125,4,2,4,70,0,0
5361,-125,4,2,5,70,0,0
5424,-125,4,2,5,70,0,0
5520,-125,4,2,4,70,0,0
5615,-125,4,2,3,70,0,0
5711,-125,4,2,2,70,0,0
5806,-83.3333333333333,4,2,1,70,0,0
6762,-83.3333333333333,4,2,2,70,0,0
6953,-83.3333333333333,4,2,3,70,0,0
7144,-83.3333333333333,4,2,4,70,0,0
7335,-71.4285714285714,4,2,1,70,0,0
19087,-71.4285714285714,4,2,2,80,0,0
19182,-71.4285714285714,4,2,3,80,0,0
19278,-71.4285714285714,4,2,4,80,0,0
19373,-71.4285714285714,4,2,1,80,0,0
19469,-71.4285714285714,4,2,5,80,0,0
19564,-83.3333333333333,4,2,1,60,0,0
24915,-71.4285714285714,4,2,1,80,0,0
25679,-83.3333333333333,4,2,1,60,0,0
30456,-83.3333333333333,4,2,2,65,0,0
30552,-83.3333333333333,4,2,3,65,0,0
30647,-83.3333333333333,4,2,4,65,0,0
30743,-83.3333333333333,4,2,5,65,0,0
30838,-83.3333333333333,4,2,1,60,0,0
31507,-83.3333333333333,4,2,2,60,0,0
31603,-83.3333333333333,4,2,3,60,0,0
31698,-83.3333333333333,4,2,4,60,0,0
31794,-83.3333333333333,4,2,1,60,0,0
41921,-83.3333333333333,4,2,2,60,0,0
42017,-83.3333333333333,4,2,3,60,0,0
42112,-83.3333333333333,4,2,4,60,0,0
42208,-83.3333333333333,4,2,5,60,0,0
42303,-83.3333333333333,4,2,4,60,0,0
42399,-83.3333333333333,4,2,5,60,0,0
42494,-83.3333333333333,4,2,1,65,0,0
43450,-83.3333333333333,4,2,4,65,0,0
43641,-83.3333333333333,4,2,1,65,0,0
43832,-83.3333333333333,4,2,2,65,0,0
43928,-83.3333333333333,4,2,3,65,0,0
44023,-83.3333333333333,4,2,1,60,0,0
53195,-71.4285714285714,4,2,1,70,0,0
54150,-71.4285714285714,4,2,2,70,0,0
54342,-71.4285714285714,4,2,3,70,0,0
54533,-71.4285714285714,4,2,4,70,0,0
54724,-100,4,2,1,70,0,0
55488,-83.3333333333333,4,2,1,70,0,0
55870,-250.000000000001,4,2,1,70,0,0
56252,-71.4285714285714,4,2,1,90,0,1
66380,-71.4285714285714,4,2,2,90,0,1
66571,-71.4285714285714,4,2,3,90,0,1
66666,-71.4285714285714,4,2,4,90,0,1
66762,-71.4285714285714,4,2,5,90,0,1
66953,-71.4285714285714,4,2,1,90,0,1
77176,-71.4285714285714,4,2,2,90,0,1
77271,-71.4285714285714,4,2,3,90,0,1
77367,-71.4285714285714,4,2,4,90,0,1
77463,-71.4285714285714,4,2,5,90,0,1
77654,-66.6666666666667,4,2,1,90,0,1
79182,-66.6666666666667,4,2,1,90,0,0
80711,-71.4285714285714,4,2,1,70,0,0
92558,-71.4285714285714,4,2,2,70,0,0
92654,-71.4285714285714,4,2,3,70,0,0
92749,-71.4285714285714,4,2,4,70,0,0
92845,-71.4285714285714,4,2,5,70,0,0
92940,-83.3333333333333,4,2,1,60,0,0
103163,-83.3333333333333,4,2,2,65,0,0
103259,-83.3333333333333,4,2,3,65,0,0
103354,-83.3333333333333,4,2,4,65,0,0
103450,-83.3333333333333,4,2,5,65,0,0
103641,-83.3333333333333,4,2,1,65,0,0
104596,-83.3333333333333,4,2,4,65,0,0
104692,-83.3333333333333,4,2,3,65,0,0
104787,-83.3333333333333,4,2,1,65,0,0
104883,-83.3333333333333,4,2,3,65,0,0
104978,-83.3333333333333,4,2,2,65,0,0
105074,-83.3333333333333,4,2,4,65,0,0
105170,-83.3333333333333,4,2,1,60,0,0
114342,-71.4285714285714,4,2,1,70,0,0
115488,-71.4285714285714,4,2,2,70,0,0
115584,-71.4285714285714,4,2,3,70,0,0
115679,-71.4285714285714,4,2,4,70,0,0
115775,-71.4285714285714,4,2,5,70,0,0
115870,-100,4,2,1,70,0,0
116635,-83.3333333333333,4,2,1,70,0,0
117017,-250,4,2,1,70,0,0
117399,-71.4285714285714,4,2,1,90,0,1
127526,-71.4285714285714,4,2,2,90,0,1
127717,-71.4285714285714,4,2,3,90,0,1
127813,-71.4285714285714,4,2,4,90,0,1
127908,-71.4285714285714,4,2,5,90,0,1
128099,-71.4285714285714,4,2,1,90,0,1
138322,-71.4285714285714,4,2,2,90,0,1
138418,-71.4285714285714,4,2,3,90,0,1
138513,-71.4285714285714,4,2,4,90,0,1
138609,-71.4285714285714,4,2,5,90,0,1
138800,-66.6666666666667,4,2,1,90,0,1
140329,-100,4,2,1,90,0,0
141475,-250,4,2,1,60,0,0
141857,-166.666666666667,4,2,1,60,0,0
147208,-125,4,2,1,60,0,0
147590,-166.666666666667,4,2,2,60,0,0
147654,-166.666666666667,4,2,3,60,0,0
147717,-166.666666666667,4,2,4,60,0,0
147845,-166.666666666667,4,2,5,60,0,0
147972,-125,4,2,1,60,0,0
151794,-125,4,2,2,60,0,0
151921,-125,4,2,3,60,0,0
152049,-125,4,2,4,60,0,0
152176,-125,4,2,5,60,0,0
152431,-125,4,2,3,60,0,0
152494,-125,4,2,4,60,0,0
152558,-125,4,2,1,60,0,0
154087,-71.4285714285714,4,2,1,80,0,0
164214,-71.4285714285714,4,2,2,80,0,0
164405,-71.4285714285714,4,2,3,80,0,0
164596,-71.4285714285714,4,2,4,80,0,0
164787,-71.4285714285714,4,2,1,80,0,0
176443,-71.4285714285714,4,2,2,80,0,0
176635,-71.4285714285714,4,2,3,80,0,0
176826,-71.4285714285714,4,2,4,80,0,0
177017,-71.4285714285714,4,2,1,80,0,0
177781,-100,4,2,1,80,0,0
178227,-100,4,2,2,80,0,0
178291,-100,4,2,3,80,0,0
178354,-100,4,2,4,80,0,0
178418,-100,4,2,5,80,0,0
178482,-100,4,2,4,80,0,0
178545,-100,4,2,1,80,0,0
179310,-100,4,2,2,80,0,0
179437,-100,4,2,3,70,0,0
179564,-100,4,2,4,60,0,0
179692,-100,4,2,5,50,0,0
180074,-100,4,2,1,50,0,0
189055,-100,4,2,1,70,0,0
189246,-71.4285714285714,4,2,1,70,0,0
190201,-71.4285714285714,4,2,2,70,0,0
190297,-71.4285714285714,4,2,3,70,0,0
190392,-71.4285714285714,4,2,4,70,0,0
190488,-71.4285714285714,4,2,5,70,0,0
190584,-71.4285714285714,4,2,1,70,0,0
190775,-100,4,2,1,70,0,0
191412,-100,4,2,2,70,0,0
191539,-100,4,2,3,70,0,0
191666,-100,4,2,4,70,0,0
192049,-100,4,2,3,70,0,0
192176,-100,4,2,4,70,0,0
192303,-100,4,2,1,70,0,0
193068,-83.3333333333333,4,2,1,70,0,0
193450,-250,4,2,1,70,0,0
193832,-83.3333333333333,4,2,1,90,0,1
195361,-83.3333333333333,4,2,2,90,0,1
195456,-83.3333333333333,4,2,3,90,0,1
195552,-83.3333333333333,4,2,4,90,0,1
195647,-83.3333333333333,4,2,3,90,0,1
195743,-83.3333333333333,4,2,4,90,0,1
195838,-83.3333333333333,4,2,5,90,0,1
195934,-83.3333333333333,4,2,1,90,0,1
196507,-66.6666666666667,4,2,1,90,0,0
196889,-71.4285714285714,4,2,1,90,0,1
203959,-71.4285714285714,4,2,2,90,0,1
204150,-71.4285714285714,4,2,3,90,0,1
204246,-71.4285714285714,4,2,4,90,0,1
204342,-71.4285714285714,4,2,5,90,0,1
204533,-71.4285714285714,4,2,1,90,0,1
214756,-71.4285714285714,4,2,2,90,0,1
214851,-71.4285714285714,4,2,3,90,0,1
214947,-71.4285714285714,4,2,4,90,0,1
215042,-71.4285714285714,4,2,5,90,0,1
215233,-66.6666666666667,4,2,1,90,0,0
218036,-100,4,2,1,60,0,0
218291,-500,4,2,1,60,0,0
219246,-100,4,2,1,60,0,0
219437,-250,4,2,1,80,0,0
219819,-71.4285714285714,4,2,1,80,0,0
232049,-71.4285714285714,4,2,2,80,0,0
232112,-71.4285714285714,4,2,3,80,0,0
232176,-71.4285714285714,4,2,4,80,0,0
232240,-71.4285714285714,4,2,5,80,0,0
232367,-100,4,2,5,80,0,0
232813,-100,4,2,1,80,0,0

[Colours]
Combo1 : 225,225,0
Combo2 : 192,192,192
Combo3 : 255,128,128
Combo4 : 255,0,128
Combo5 : 255,0,0

[HitObjects]
0,256,1221,6,0,B|54:219|108:229|108:229|123:300|191:311,1,240,6|2,1:2|0:2,0:0:0:0:
280,256,1985,2,0,B|256:192|280:144|280:144|324:148,1,160,6|2,1:2|1:2,0:0:0:0:
512,96,2749,6,0,B|443:124|414:96|414:96|414:48|414:48|347:35|331:18,1,240,6|2,1:2|0:2,0:0:0:0:
216,80,3513,2,0,B|163:64|131:32|131:32|96:32|72:49,1,160,6|2,1:2|1:2,0:0:0:0:
0,240,4278,54,0,B|56:264|88:248|88:248|96:200|96:200|136:176|192:197,1,240,6|2,1:2|0:2,0:0:0:0:
256,264,4947,22,0,L|251:283,2,20,2|8|10,1:2|1:2|0:2,0:0:0:0:
320,336,5106,54,0,L|323:372,4,26.6666666666667,10|8|10|8|8,0:2|0:2|0:2|0:2|0:2,0:0:0:0:
408,384,5424,1,10,0:2:0:0:
440,352,5520,1,10,0:2:0:0:
456,312,5615,1,10,0:2:0:0:
456,264,5711,1,10,0:2:0:0:
432,232,5806,22,0,P|409:176|404:116,1,119.999996337891,14|0,1:2|1:2,0:0:0:0:
495,40,6093,2,0,P|448:76|390:90,1,119.999996337891,10|0,1:2|1:2,0:0:0:0:
312,32,6380,1,10,1:2:0:0:
168,136,6571,53,10,1:2:0:0:
184,144,6666,1,10,0:2:0:0:
200,152,6762,1,8,0:2:0:0:
216,160,6857,1,8,0:2:0:0:
232,168,6953,2,0,L|291:157,1,59.9999981689454,8|8,0:2|0:2,0:0:0:0:
232,352,7144,2,0,L|172:341,1,59.9999981689454,8|8,0:2|0:2,0:0:0:0:
96,224,7335,38,0,B|151:233|151:233|172:253|172:253|226:263,1,139.999995727539,6|8,1:2|0:2,0:0:0:0:
296,296,7622,1,2,0:2:0:0:
312,288,7717,1,0,1:2:0:0:
448,384,7908,2,0,P|431:316|431:246,1,139.999995727539,10|2,0:2|1:2,0:0:0:0:
479,183,8195,1,2,0:2:0:0:
495,183,8291,2,0,P|505:149|510:114,1,69.9999978637696,8|2,0:2|1:2,0:0:0:0:
448,40,8482,2,0,L|379:55,1,69.9999978637696,2|2,0:2|1:2,0:0:0:0:
312,128,8673,2,0,L|243:112,1,69.9999978637696,10|2,0:2|0:2,0:0:0:0:
160,32,8864,22,0,P|91:33|45:83,1,139.999995727539,2|10,1:2|0:2,0:0:0:0:
88,152,9150,1,2,0:2:0:0:
112,160,9246,1,0,1:2:0:0:
32,296,9437,2,0,P|97:271|165:257,1,139.999995727539,10|2,0:2|1:2,0:0:0:0:
224,312,9724,1,2,0:2:0:0:
232,336,9819,2,0,P|300:347|367:369,1,139.999995727539,8|2,0:2|0:2,0:0:0:0:
512,224,10201,1,10,0:2:0:0:
504,200,10297,1,2,0:2:0:0:
479,192,10392,38,0,P|427:236|432:303,1,139.999995727539,2|8,1:2|0:2,0:0:0:0:
488,360,10679,1,2,0:2:0:0:
512,360,10775,1,0,1:2:0:0:
320,304,10966,2,0,P|329:270|334:235,1,69.9999978637696,10|0,0:2|0:2,0:0:0:0:
392,160,11157,2,0,P|382:126|377:91,1,69.9999978637696,2|2,1:2|0:2,0:0:0:0:
304,32,11348,2,0,P|236:51|167:62,1,139.999995727539,8|2,0:2|0:2,0:0:0:0:
15,159,11730,2,0,P|50:166|83:177,1,69.9999978637696,10|2,0:2|0:2,0:0:0:0:
152,256,11921,22,0,B|136:288|136:288|136:322,2,69.9999978637696,2|2|10,1:2|1:2|1:2,0:0:0:0:
240,216,12208,2,0,B|224:184|224:184|224:149,2,69.9999978637696,2|2|2,1:2|1:2|1:2,0:0:0:0:
328,248,12494,2,0,B|363:250|363:250|393:267,1,69.9999978637696,10|2,1:2|1:2,0:0:0:0:
480,384,12685,2,0,B|456:344|456:344|483:254,1,139.999995727539,14|2,1:2|1:2,0:0:0:0:
424,176,12972,2,0,L|416:104,1,69.9999978637696,14|0,1:2|1:2,0:0:0:0:
352,32,13163,1,2,1:2:0:0:
328,24,13259,1,10,1:2:0:0:
304,16,13354,1,8,1:2:0:0:
279,8,13450,38,0,P|216:37|147:48,1,139.999995727539,6|8,1:2|0:2,0:0:0:0:
72,72,13736,1,2,0:2:0:0:
48,64,13832,1,0,1:2:0:0:
0,200,14023,2,0,P|67:217|132:242,1,139.999995727539,10|2,0:2|1:2,0:0:0:0:
192,296,14310,1,2,0:2:0:0:
176,311,14405,2,0,P|169:345|167:380,1,69.9999978637696,8|2,0:2|1:2,0:0:0:0:
280,352,14596,2,0,P|278:317|271:282,1,69.9999978637696,2|2,0:2|1:2,0:0:0:0:
208,192,14787,1,10,0:2:0:0:
367,271,14978,22,0,P|433:286|479:237,1,139.999995727539,2|10,1:2|0:2,0:0:0:0:
448,168,15265,1,2,0:2:0:0:
432,160,15361,1,0,1:2:0:0:
368,32,15552,2,0,P|304:61|235:72,1,139.999995727539,10|2,0:2|1:2,0:0:0:0:
176,24,15838,1,2,0:2:0:0:
160,16,15934,2,0,P|125:9|90:7,1,69.9999978637696,8|2,0:2|1:2,0:0:0:0:
32,104,16125,2,0,P|66:97|101:95,1,69.9999978637696,2|2,0:2|1:2,0:0:0:0:
160,168,16316,1,10,0:2:0:0:
8,263,16507,38,0,P|-12:328|27:382,1,139.999995727539,2|8,1:2|0:2,0:0:0:0:
104,376,16794,1,2,0:2:0:0:
112,352,16889,1,0,1:2:0:0:
231,231,17080,2,0,P|243:264|251:298,1,69.9999978637696,10|0,0:2|0:2,0:0:0:0:
288,376,17271,2,0,P|293:306|317:241,1,139.999995727539,6|8,1:2|0:2,0:0:0:0:
392,216,17558,1,2,1:2:0:0:
408,208,17654,2,0,P|441:218|476:223,1,69.9999978637696,2|2,1:2|1:2,0:0:0:0:
512,112,17845,2,0,P|478:122|443:127,1,69.9999978637696,10|10,1:2|1:2,0:0:0:0:
319,79,18036,21,6,1:2:0:0:
305,48,18131,1,2,1:2:0:0:
280,24,18227,1,2,1:2:0:0:
248,11,18322,1,14,1:2:0:0:
213,11,18418,1,2,1:2:0:0:
181,24,18513,1,2,1:2:0:0:
155,48,18609,2,0,P|167:80|171:115,1,69.9999978637696,10|2,1:2|1:2,0:0:0:0:
66,170,18800,37,14,1:2:0:0:
26,203,18895,1,10,1:2:0:0:
14,253,18991,1,10,1:2:0:0:
33,301,19086,1,10,1:2:0:0:
75,330,19182,2,0,P|109:319|143:317,3,69.9999978637696,2|10|10|10,1:2|1:2|1:2|1:2,0:0:0:0:
208,368,19564,53,6,1:2:0:0:
352,296,19756,1,10,0:2:0:0:
223,207,19947,2,0,P|216:148|219:88,1,119.999996337891,2|10,1:2|0:2,0:0:0:0:
272,32,20233,1,2,0:2:0:0:
288,40,20329,1,0,0:0:0:0:
448,56,20520,1,10,0:2:0:0:
352,184,20711,1,2,0:2:0:0:
368,16,20902,1,10,0:2:0:0:
479,200,21093,6,0,P|453:253|440:312,1,119.999996337891,2|8,1:2|0:2,0:0:0:0:
384,368,21380,1,2,0:2:0:0:
368,376,21475,2,0,P|340:365|311:356,1,59.9999981689454,2|0,1:2|1:2,0:0:0:0:
216,328,21666,2,0,P|163:356|104:368,2,119.999996337891,10|2|10,0:2|1:2|0:2,0:0:0:0:
232,248,22144,1,0,1:2:0:0:
40,248,22335,1,0,1:2:0:0:
24,263,22431,2,0,P|13:291|8:320,1,59.9999981689454,10|2,0:2|0:2,0:0:0:0:
128,272,22622,54,0,P|136:212|133:152,1,119.999996337891,2|8,1:2|0:2,0:0:0:0:
64,120,22908,1,2,0:2:0:0:
48,128,23004,1,0,1:2:0:0:
168,24,23195,2,0,P|224:42|283:53,1,119.999996337891,10|0,0:2|1:2,0:0:0:0:
416,16,23577,1,10,0:2:0:0:
512,104,23768,1,2,0:2:0:0:
480,224,23959,1,10,0:2:0:0:
360,288,24150,6,0,L|301:274,1,59.9999981689454,2|0,1:2|1:2,0:0:0:0:
264,344,24342,2,0,L|205:357,1,59.9999981689454,10|2,0:2|0:2,0:0:0:0:
144,312,24533,1,0,0:0:0:0:
128,309,24628,1,0,1:2:0:0:
112,306,24724,1,8,0:2:0:0:
96,303,24819,1,0,1:2:0:0:
81,301,24915,38,0,B|69:182|69:182|85:193,1,139.999995727539,12|0,1:2|1:2,0:0:0:0:
232,128,25201,2,0,B|244:9|244:9|228:20,1,139.999995727539,12|0,1:2|1:2,0:0:0:0:
144,120,25488,1,12,1:2:0:0:
312,176,25679,6,0,P|368:155|427:148,1,119.999996337891,4|10,1:2|0:2,0:0:0:0:
512,256,26061,1,2,1:2:0:0:
416,352,26252,1,10,0:2:0:0:
399,359,26348,2,0,P|343:335|285:321,1,119.999996337891,2|0,0:2|0:2,0:0:0:0:
224,368,26635,1,10,0:2:0:0:
88,272,26826,1,2,0:2:0:0:
224,187,27017,2,0,P|229:157|231:127,1,59.9999981689454,10|0,0:2|0:2,0:0:0:0:
112,72,27208,6,0,P|154:112|212:116,1,119.999996337891,2|8,1:2|0:2,0:0:0:0:
256,48,27494,2,0,P|298:7|356:3,1,119.999996337891,2|2,0:2|1:2,0:0:0:0:
416,56,27781,2,0,P|401:114|397:174,2,119.999996337891,10|0|10,0:2|1:2|0:2,0:0:0:0:
480,8,28259,1,0,1:2:0:0:
496,176,28450,1,0,1:2:0:0:
480,200,28545,2,0,P|481:229|489:258,1,59.9999981689454,10|2,0:2|0:2,0:0:0:0:
440,344,28736,53,2,1:2:0:0:
320,224,28928,1,10,0:2:0:0:
256,360,29119,1,2,1:2:0:0:
229,346,29214,1,0,1:2:0:0:
200,337,29310,1,10,0:2:0:0:
170,333,29405,1,2,0:2:0:0:
140,334,29501,1,0,0:0:0:0:
8,272,29692,2,0,L|1:311,2,39.9999987792969,10|0|0,1:2|1:2|1:2,0:0:0:0:
40,328,29883,6,0,L|32:136,1,179.999994506836,10|2,0:2|0:2,0:0:0:0:
80,87,30265,6,0,P|138:78|190:106,1,119.999996337891,12|8,1:2|0:2,0:0:0:0:
312,64,30552,2,0,P|260:92|201:82,1,119.999996337891,8|8,0:2|0:2,0:0:0:0:
245,0,30838,1,4,1:2:0:0:
397,33,31029,6,0,L|402:92,1,59.9999981689454,0|2,0:2|0:2,0:0:0:0:
480,120,31220,1,2,0:2:0:0:
469,148,31315,1,2,0:2:0:0:
460,176,31411,1,10,0:2:0:0:
452,205,31506,1,10,0:2:0:0:
444,233,31603,2,0,P|449:262|453:292,1,59.9999981689454,10|10,0:2|0:2,0:0:0:0:
400,368,31794,21,4,1:2:0:0:
303,264,31985,2,0,P|248:285|189:295,1,119.999996337891,10|2,0:2|1:2,0:0:0:0:
120,256,32271,1,0,1:2:0:0:
128,240,32367,1,10,0:2:0:0:
40,136,32558,1,0,0:0:0:0:
24,240,32749,1,10,0:2:0:0:
144,128,32940,1,2,0:2:0:0:
16,128,33131,1,10,0:2:0:0:
160,24,33322,6,0,P|217:42|275:54,1,119.999996337891,2|8,1:2|0:2,0:0:0:0:
344,16,33609,1,2,0:2:0:0:
368,8,33705,1,0,1:2:0:0:
504,80,33896,2,0,P|484:136|476:196,2,119.999996337891,10|2|8,0:2|1:2|0:2,0:0:0:0:
456,16,34373,1,2,1:2:0:0:
368,120,34564,1,0,1:2:0:0:
360,143,34660,2,0,P|373:169|383:198,1,59.9999981689454,10|2,0:2|0:2,0:0:0:0:
336,280,34851,54,0,P|282:252|223:245,1,119.999996337891,2|8,1:2|0:2,0:0:0:0:
184,176,35138,2,0,P|124:178|69:202,1,119.999996337891,2|2,0:2|1:2,0:0:0:0:
48,280,35424,1,10,0:2:0:0:
200,320,35615,1,0,1:2:0:0:
168,160,35806,2,0,L|177:100,1,59.9999981689454,10|0,0:2|1:2,0:0:0:0:
40,40,35998,2,0,L|49:99,1,59.9999981689454,2|0,0:2|1:2,0:0:0:0:
128,24,36189,1,10,0:2:0:0:
280,96,36380,5,2,1:2:0:0:
304,78,36475,1,2,1:2:0:0:
331,65,36571,1,10,1:2:0:0:
360,57,36666,1,2,1:2:0:0:
389,53,36762,2,0,P|418:58|448:61,1,59.9999981689454,2|2,1:2|1:2,0:0:0:0:
496,160,36953,2,0,P|466:165|436:168,1,59.9999981689454,10|2,1:2|1:2,0:0:0:0:
344,248,37144,6,0,P|367:302|370:362,1,119.999996337891,14|2,1:2|1:2,0:0:0:0:
296,384,37431,2,0,L|178:361,1,119.999996337891,14|2,1:2|1:2,0:0:0:0:
104,376,37717,1,14,1:2:0:0:
208,256,37908,37,4,1:2:0:0:
64,224,38099,2,0,P|57:164|55:104,1,119.999996337891,10|2,0:2|1:2,0:0:0:0:
112,48,38386,1,0,1:2:0:0:
128,56,38482,1,10,0:2:0:0:
240,136,38673,1,0,0:0:0:0:
256,0,38864,1,10,0:2:0:0:
208,136,39055,1,2,0:2:0:0:
352,104,39246,1,10,0:2:0:0:
311,248,39437,6,0,P|281:299|270:358,1,119.999996337891,2|8,1:2|0:2,0:0:0:0:
344,384,39724,1,2,0:2:0:0:
360,368,39819,2,0,P|389:370|419:376,1,59.9999981689454,0|2,1:2|1:2,0:0:0:0:
480,304,40010,2,0,P|462:246|451:187,2,119.999996337891,10|0|8,0:2|1:2|0:2,0:0:0:0:
440,376,40488,1,2,1:2:0:0:
311,248,40679,1,0,1:2:0:0:
326,232,40775,2,0,P|338:204|346:175,1,59.9999981689454,10|2,0:2|0:2,0:0:0:0:
400,96,40966,54,0,L|386:37,1,59.9999981689454,2|0,1:2|0:2,0:0:0:0:
296,48,41157,2,0,L|245:15,1,59.9999981689454,10|0,0:2|0:2,0:0:0:0:
184,96,41348,2,0,L|67:123,1,119.999996337891,2|10,1:2|0:2,0:0:0:0:
24,192,41635,1,2,0:2:0:0:
16,216,41730,1,14,1:2:0:0:
104,368,41921,1,8,0:2:0:0:
131,355,42016,1,8,0:2:0:0:
159,346,42112,1,10,0:2:0:0:
189,340,42207,1,8,0:2:0:0:
219,338,42303,2,0,P|246:349|275:358,1,59.9999981689454,10|8,0:2|0:2,0:0:0:0:
384,224,42494,38,0,P|326:218|285:259,1,119.999996337891,12|0,1:2|1:2,0:0:0:0:
400,320,42781,2,0,P|433:272|418:216,1,119.999996337891,12|0,1:2|1:2,0:0:0:0:
336,120,43068,2,0,P|250:148|161:146,1,179.999994506836,12|8,1:2|0:2,0:0:0:0:
120,80,43450,2,0,P|129:51|135:22,1,59.9999981689454,8|8,0:2|0:2,0:0:0:0:
16,0,43641,1,12,0:2:0:0:
8,16,43736,1,8,0:2:0:0:
0,32,43832,2,0,P|5:61|15:89,1,59.9999981689454,8|8,0:2|0:2,0:0:0:0:
112,216,44023,54,0,P|54:206|5:238,1,119.999996337891,4|10,1:2|0:2,0:0:0:0:
88,352,44405,1,2,1:2:0:0:
104,344,44501,1,0,1:2:0:0:
120,336,44596,2,0,L|178:349,1,59.9999981689454,10|0,0:2|0:2,0:0:0:0:
232,288,44787,2,0,L|290:274,1,59.9999981689454,2|0,1:2|1:2,0:0:0:0:
360,320,44978,1,10,1:2:0:0:
376,328,45074,1,2,1:2:0:0:
488,200,45265,1,0,1:2:0:0:
464,207,45361,2,0,P|454:236|449:266,1,59.9999981689454,10|0,0:2|0:2,0:0:0:0:
368,199,45552,38,0,P|379:141|406:87,1,119.999996337891,2|10,1:2|0:2,0:0:0:0:
256,8,45934,1,2,1:2:0:0:
258,23,46029,1,0,1:2:0:0:
261,39,46125,1,10,0:2:0:0:
184,143,46316,1,0,1:2:0:0:
142,159,46411,1,0,1:2:0:0:
98,149,46507,1,10,0:2:0:0:
67,118,46602,1,0,1:2:0:0:
56,75,46698,2,0,L|61:15,1,59.9999981689454,2|0,1:2|1:2,0:0:0:0:
160,56,46889,2,0,L|165:115,1,59.9999981689454,10|0,0:2|0:2,0:0:0:0:
32,208,47080,21,4,1:2:0:0:
112,303,47271,2,0,P|171:305|229:322,1,119.999996337891,10|2,0:2|1:2,0:0:0:0:
304,344,47558,1,0,1:2:0:0:
311,367,47654,2,0,P|338:377|368:383,1,59.9999981689454,10|0,0:2|0:2,0:0:0:0:
416,320,47845,2,0,P|443:307|468:290,1,59.9999981689454,2|0,1:2|1:2,0:0:0:0:
480,216,48036,1,10,1:2:0:0:
384,128,48227,1,0,0:0:0:0:
352,240,48418,1,10,0:2:0:0:
480,120,48609,38,0,L|487:60,1,59.9999981689454,2|0,1:2|0:0,0:0:0:0:
416,0,48800,1,10,0:2:0:0:
408,16,48896,1,2,0:2:0:0:
398,32,48991,2,0,P|341:48|281:55,1,119.999996337891,2|10,1:2|0:2,0:0:0:0:
152,64,49373,1,2,1:2:0:0:
132,41,49468,1,2,1:2:0:0:
104,29,49564,1,10,0:2:0:0:
75,28,49659,1,2,1:2:0:0:
47,40,49755,1,2,1:2:0:0:
27,61,49850,1,2,1:2:0:0:
15,89,49947,2,0,P|45:90|74:98,1,59.9999981689454,10|0,0:2|0:2,0:0:0:0:
130,213,50138,22,0,P|93:259|76:316,1,119.999996337891,2|10,1:2|0:2,0:0:0:0:
128,376,50424,1,0,0:2:0:0:
152,380,50520,2,0,P|203:350|262:345,1,119.999996337891,2|10,1:2|0:2,0:0:0:0:
336,384,50806,1,0,0:2:0:0:
351,376,50902,2,0,P|365:349|373:320,1,59.9999981689454,2|2,1:2|1:2,0:0:0:0:
424,256,51093,2,0,P|409:229|401:200,1,59.9999981689454,8|2,0:2|1:2,0:0:0:0:
336,152,51284,2,0,P|350:95|312:52,1,119.999996337891,2|10,0:2|0:2,0:0:0:0:
112,72,51666,54,0,P|169:88|218:122,1,119.999996337891,2|10,1:2|0:2,0:0:0:0:
208,200,51953,1,0,0:2:0:0:
200,215,52049,2,0,P|171:223|141:229,1,59.9999981689454,2|2,1:2|1:2,0:0:0:0:
72,184,52240,1,10,0:2:0:0:
146,326,52431,1,2,1:2:0:0:
175,324,52526,1,2,1:2:0:0:
205,327,52622,1,8,0:2:0:0:
234,334,52717,1,2,1:2:0:0:
262,345,52813,1,2,0:2:0:0:
432,304,53004,1,10,0:2:0:0:
436,280,53099,1,0,0:2:0:0:
440,256,53195,6,0,L|464:118,1,139.999995727539,12|0,1:2|1:2,0:0:0:0:
336,64,53482,2,0,L|360:202,1,139.999995727539,12|0,1:2|1:2,0:0:0:0:
280,256,53768,1,12,1:2:0:0:
176,104,53959,6,0,P|186:70|191:36,1,69.9999978637696,0|8,1:2|0:2,0:0:0:0:
72,64,54150,2,0,P|85:96|92:130,1,69.9999978637696,8|8,0:2|0:2,0:0:0:0:
176,192,54342,6,0,P|186:158|191:124,1,69.9999978637696,8|8,0:2|0:2,0:0:0:0:
72,152,54533,2,0,P|85:184|92:218,1,69.9999978637696,8|8,0:2|0:2,0:0:0:0:
24,352,54724,6,0,B|77:305|157:321|157:321|173:369|213:385|213:385|261:329|318:342,1,350,6|0,1:2|0:2,0:0:0:0:
384,384,55488,5,2,0:2:0:0:
456,264,55679,2,0,L|496:272,2,39.9999987792969,2|0|0,1:2|1:2|1:2,0:0:0:0:
440,240,55870,54,0,L|381:253,1,60,10|0,0:2|0:2,0:0:0:0:
304,208,56252,22,0,P|285:141|305:74,1,139.999995727539,6|10,1:2|0:2,0:0:0:0:
232,0,56539,2,0,P|214:66|164:114,1,139.999995727539,2|2,0:2|1:2,0:0:0:0:
104,200,56826,2,0,B|0:176|0:176|21:201,1,139.999995727539,10|0,0:2|1:2,0:0:0:0:
80,360,57208,2,0,P|113:350|148:344,1,69.9999978637696,10|0,0:2|1:2,0:0:0:0:
192,280,57399,2,0,P|225:289|260:295,1,69.9999978637696,2|0,0:2|1:2,0:0:0:0:
304,360,57590,2,0,P|337:350|372:344,1,69.9999978637696,10|0,0:2|0:2,0:0:0:0:
464,368,57781,6,0,B|440:304|440:304|451:233,1,139.999995727539,2|10,1:2|0:2,0:0:0:0:
360,176,58068,2,0,B|348:243|348:243|303:299,1,139.999995727539,2|2,0:2|1:2,0:0:0:0:
208,264,58354,2,0,P|142:288|73:288,1,139.999995727539,10|0,0:2|1:2,0:0:0:0:
32,152,58736,2,0,L|99:170,1,69.9999978637696,10|0,0:2|1:2,0:0:0:0:
128,96,58928,2,0,L|195:77,1,69.9999978637696,2|0,0:2|1:2,0:0:0:0:
248,16,59119,2,0,L|315:34,1,69.9999978637696,10|0,0:2|0:2,0:0:0:0:
392,16,59310,53,2,1:2:0:0:
472,128,59501,1,10,0:2:0:0:
447,136,59596,2,0,P|400:187|396:255,1,139.999995727539,2|0,0:2|1:2,0:0:0:0:
464,288,59883,1,10,0:2:0:0:
320,384,60074,1,2,1:2:0:0:
296,216,60265,2,0,P|303:181|311:147,1,69.9999978637696,10|0,0:2|1:2,0:0:0:0:
208,216,60456,2,0,P|215:250|223:284,1,69.9999978637696,2|0,1:2|1:2,0:0:0:0:
120,224,60647,2,0,P|127:189|135:155,1,69.9999978637696,10|0,0:2|0:2,0:0:0:0:
47,127,60838,6,0,P|24:64|62:8,1,139.999995727539,2|8,1:2|0:2,0:0:0:0:
136,0,61125,1,2,1:2:0:0:
144,16,61220,1,2,1:2:0:0:
304,64,61412,2,0,P|293:97|288:131,1,69.9999978637696,10|0,0:2|1:2,0:0:0:0:
416,144,61603,2,0,P|467:188|471:256,1,139.999995727539,12|0,1:2|1:2,0:0:0:0:
392,272,61889,2,0,P|378:338|322:376,1,139.999995727539,12|0,1:2|1:2,0:0:0:0:
248,344,62176,1,12,1:2:0:0:
96,376,62367,54,0,P|71:311|85:243,1,139.999995727539,6|8,1:2|0:2,0:0:0:0:
152,208,62654,1,2,0:2:0:0:
176,216,62749,1,2,1:2:0:0:
112,104,62940,1,10,0:2:0:0:
88,112,63036,1,0,0:2:0:0:
64,120,63131,1,2,1:2:0:0:
152,0,63322,1,10,0:2:0:0:
212,137,63513,1,2,0:2:0:0:
64,120,63705,1,10,0:2:0:0:
239,39,63896,6,0,P|302:71|371:80,1,139.999995727539,2|10,1:2|0:2,0:0:0:0:
440,120,64182,1,0,0:2:0:0:
432,144,64278,2,0,P|369:175|300:184,1,139.999995727539,2|10,1:2|0:2,0:0:0:0:
232,224,64564,1,2,0:2:0:0:
208,216,64660,1,2,1:2:0:0:
344,384,64851,1,10,0:2:0:0:
378,378,64946,1,2,1:2:0:0:
404,356,65042,1,2,0:2:0:0:
417,324,65137,1,2,1:2:0:0:
411,290,65233,1,10,0:2:0:0:
248,328,65424,54,0,P|179:314|109:311,1,139.999995727539,2|8,1:2|0:2,0:0:0:0:
40,344,65711,1,2,0:2:0:0:
32,368,65806,1,0,1:2:0:0:
104,208,65998,1,10,0:2:0:0:
96,192,66093,1,0,0:2:0:0:
88,176,66189,2,0,B|128:135|128:135|121:52,1,139.999995727539,12|8,1:2|0:2,0:0:0:0:
56,8,66475,1,8,0:2:0:0:
40,24,66571,2,0,L|33:93,1,69.9999978637696,8|8,0:2|0:2,0:0:0:0:
216,136,66762,2,0,L|209:67,1,69.9999978637696,8|8,0:2|0:2,0:0:0:0:
304,16,66953,6,0,P|336:27|370:35,1,69.9999978637696,12|0,1:2|1:2,0:0:0:0:
392,112,67144,1,0,1:2:0:0:
408,120,67240,2,0,P|442:113|475:103,2,69.9999978637696,12|0|0,1:2|0:2|1:2,0:0:0:0:
368,200,67526,1,12,1:2:0:0:
352,216,67622,1,0,1:2:0:0:
336,232,67717,6,0,P|302:223|267:222,1,69.9999978637696,8|8,0:2|0:2,0:0:0:0:
224,288,67908,2,0,P|190:297|159:314,1,69.9999978637696,10|8,0:2|0:2,0:0:0:0:
96,264,68099,2,0,P|62:254|31:237,1,69.9999978637696,10|8,0:2|0:2,0:0:0:0:
0,312,68291,1,10,0:2:0:0:
175,208,68482,38,0,P|186:139|176:70,1,139.999995727539,6|10,1:2|0:2,0:0:0:0:
256,8,68768,2,0,P|280:73|324:128,1,139.999995727539,2|2,0:2|1:2,0:0:0:0:
432,152,69055,1,10,0:2:0:0:
512,296,69246,1,0,1:2:0:0:
488,304,69342,1,2,0:2:0:0:
464,312,69437,2,0,P|432:296|398:288,1,69.9999978637696,10|0,0:2|1:2,0:0:0:0:
352,352,69628,2,0,P|320:367|286:375,1,69.9999978637696,2|0,0:2|1:2,0:0:0:0:
240,312,69819,2,0,P|208:296|174:288,1,69.9999978637696,10|0,0:2|0:2,0:0:0:0:
112,360,70010,6,0,P|135:295|113:230,1,139.999995727539,2|10,1:2|0:2,0:0:0:0:
24,128,70297,2,0,P|35:195|87:240,1,139.999995727539,2|2,0:2|1:2,0:0:0:0:
200,208,70584,1,10,0:2:0:0:
144,72,70775,1,0,1:2:0:0:
160,56,70870,1,2,0:2:0:0:
176,40,70966,2,0,L|244:52,1,69.9999978637696,10|0,0:2|1:2,0:0:0:0:
272,128,71157,2,0,L|337:104,1,69.9999978637696,2|0,0:2|1:2,0:0:0:0:
399,156,71348,2,0,L|444:102,1,69.9999978637696,10|0,0:2|0:2,0:0:0:0:
424,16,71539,53,2,1:2:0:0:
272,128,71730,1,10,0:2:0:0:
296,144,71826,2,0,P|324:207|332:277,1,139.999995727539,2|0,0:2|1:2,0:0:0:0:
256,336,72112,2,0,P|222:326|187:320,1,69.9999978637696,10|0,0:2|0:2,0:0:0:0:
72,336,72303,2,0,P|97:311|119:284,1,69.9999978637696,2|0,1:2|0:2,0:0:0:0:
164,176,72494,2,0,P|172:209|185:242,1,69.9999978637696,10|0,0:2|1:2,0:0:0:0:
296,264,72685,2,0,L|364:250,1,69.9999978637696,2|0,1:2|1:2,0:0:0:0:
432,312,72877,2,0,L|500:325,1,69.9999978637696,10|0,0:2|0:2,0:0:0:0:
512,144,73068,6,0,P|446:166|377:161,1,139.999995727539,2|8,1:2|0:2,0:0:0:0:
320,104,73354,1,2,1:2:0:0:
328,88,73450,1,2,1:2:0:0:
160,40,73641,1,10,0:2:0:0:
168,56,73736,1,0,1:2:0:0:
176,72,73832,2,0,B|144:112|144:112|157:199,1,139.999995727539,12|0,1:2|1:2,0:0:0:0:
64,232,74119,2,0,L|43:371,1,139.999995727539,12|0,1:2|1:2,0:0:0:0:
135,384,74405,2,0,P|167:368|200:357,1,69.9999978637696,12|0,1:2|0:2,0:0:0:0:
272,288,74596,54,0,P|330:325|398:337,1,139.999995727539,6|8,1:2|0:2,0:0:0:0:
464,296,74883,1,2,0:2:0:0:
472,272,74978,1,2,1:2:0:0:
368,184,75170,1,10,0:2:0:0:
496,128,75361,1,2,1:2:0:0:
384,40,75552,2,0,L|376:86,2,46.6666652425131,2|0|0,1:2|1:2|1:2,0:0:0:0:
360,23,75743,2,0,P|298:57|229:66,1,139.999995727539,10|2,0:2|0:2,0:0:0:0:
80,16,76125,6,0,P|97:46|104:80,1,69.9999978637696,12|0,1:2|0:2,0:0:0:0:
56,160,76316,1,2,1:2:0:0:
40,168,76412,1,0,0:2:0:0:
24,176,76507,2,0,P|6:206|0:240,1,69.9999978637696,10|0,0:2|0:2,0:0:0:0:
48,328,76698,1,2,1:2:0:0:
64,335,76794,2,0,P|127:307|197:303,1,139.999995727539,6|0,1:2|0:2,0:0:0:0:
271,335,77080,2,0,P|301:354|333:369,1,69.9999978637696,8|8,0:2|0:2,0:0:0:0:
392,312,77271,2,0,P|423:297|453:278,3,69.9999978637696,8|8|10|8,0:2|0:2|0:2|0:2,0:0:0:0:
336,240,77654,6,0,B|318:192|318:192|342:96,1,150.000005722046,12|0,1:2|1:2,0:0:0:0:
240,24,77940,2,0,B|258:72|258:72|234:168,1,150.000005722046,12|0,1:2|1:2,0:0:0:0:
144,200,78227,1,12,1:2:0:0:
8,336,78418,54,0,P|81:348|152:372,1,150.000005722046,12|0,1:2|1:2,0:0:0:0:
328,328,78705,2,0,P|254:315|183:291,1,150.000005722046,12|0,1:2|1:2,0:0:0:0:
160,208,78991,1,12,1:2:0:0:
256,40,79182,21,12,1:2:0:0:
256,40,80711,6,0,P|199:79|130:84,1,139.999995727539,6|8,1:2|0:2,0:0:0:0:
64,48,80998,1,2,0:2:0:0:
72,32,81093,1,0,1:2:0:0:
0,160,81284,2,0,P|67:175|116:224,1,139.999995727539,10|2,0:2|1:2,0:0:0:0:
96,304,81571,1,2,0:2:0:0:
104,320,81666,2,0,P|136:332|171:336,1,69.9999978637696,8|2,0:2|1:2,0:0:0:0:
240,272,81857,2,0,P|272:259|307:255,1,69.9999978637696,2|2,0:2|1:2,0:0:0:0:
384,312,82049,1,10,0:2:0:0:
496,208,82240,21,2,1:2:0:0:
368,152,82431,1,10,0:2:0:0:
351,143,82526,2,0,P|335:76|351:8,1,139.999995727539,2|2,0:2|1:2,0:0:0:0:
440,0,82813,1,10,0:2:0:0:
248,96,83004,1,2,1:2:0:0:
240,80,83099,1,2,0:2:0:0:
232,64,83195,2,0,P|200:49|166:41,1,69.9999978637696,8|2,0:2|1:2,0:0:0:0:
104,104,83386,2,0,P|69:107|35:117,1,69.9999978637696,2|2,0:2|1:2,0:0:0:0:
0,200,83577,1,10,0:2:0:0:
136,304,83768,38,0,P|139:234|164:169,1,139.999995727539,2|8,1:2|0:2,0:0:0:0:
240,176,84055,1,2,0:2:0:0:
256,184,84150,1,0,1:2:0:0:
359,344,84342,2,0,P|293:321|225:304,1,139.999995727539,10|2,0:2|1:2,0:0:0:0:
152,336,84628,1,2,0:2:0:0:
143,360,84724,2,0,P|78:383|9:376,1,139.999995727539,8|0,0:2|0:0,0:0:0:0:
0,240,85106,2,0,P|9:206|15:171,1,69.9999978637696,10|2,0:2|0:2,0:0:0:0:
56,96,85297,22,0,B|40:56|40:56|43:29,2,69.9999978637696,2|2|10,1:2|1:2|1:2,0:0:0:0:
152,112,85584,2,0,B|168:152|168:152|164:178,2,69.9999978637696,2|2|2,1:2|1:2|1:2,0:0:0:0:
216,40,85870,2,0,L|284:53,1,69.9999978637696,10|2,1:2|1:2,0:0:0:0:
352,144,86061,2,0,L|489:117,1,139.999995727539,14|2,1:2|1:2,0:0:0:0:
496,40,86348,1,14,1:2:0:0:
504,24,86443,1,0,1:2:0:0:
352,144,86635,1,10,1:2:0:0:
368,168,86730,1,8,1:2:0:0:
384,191,86826,38,0,P|353:253|358:322,1,139.999995727539,6|8,1:2|0:2,0:0:0:0:
432,352,87112,1,2,0:2:0:0:
448,344,87208,1,0,1:2:0:0:
264,248,87399,2,0,P|212:294|145:314,1,139.999995727539,10|2,0:2|1:2,0:0:0:0:
72,280,87685,1,2,0:2:0:0:
55,264,87781,2,0,P|64:230|69:195,1,69.9999978637696,8|2,0:2|1:2,0:0:0:0:
144,120,87972,2,0,P|134:86|129:51,1,69.9999978637696,2|2,0:2|1:2,0:0:0:0:
48,0,88163,1,10,0:2:0:0:
232,88,88354,21,2,1:2:0:0:
344,16,88545,1,10,0:2:0:0:
368,24,88641,2,0,P|414:74|412:142,1,139.999995727539,2|2,0:2|1:2,0:0:0:0:
480,216,88928,2,0,P|433:266|435:334,1,139.999995727539,10|2,0:2|1:2,0:0:0:0:
263,384,89310,2,0,P|274:350|279:316,1,69.9999978637696,8|2,0:2|1:2,0:0:0:0:
200,256,89501,2,0,P|189:289|184:323,1,69.9999978637696,2|2,0:2|1:2,0:0:0:0:
104,384,89692,1,10,0:2:0:0:
8,272,89883,38,0,P|29:205|39:136,1,139.999995727539,2|8,1:2|0:2,0:0:0:0:
8,64,90170,1,2,0:2:0:0:
0,48,90265,1,0,1:2:0:0:
152,16,90456,2,0,P|184:28|218:36,1,69.9999978637696,10|0,0:2|0:2,0:0:0:0:
231,136,90647,2,0,P|301:125|370:120,1,139.999995727539,6|8,1:2|0:2,0:0:0:0:
448,112,90934,1,2,1:2:0:0:
463,104,91029,2,0,P|474:70|479:36,1,69.9999978637696,2|2,0:2|1:2,0:0:0:0:
336,24,91220,2,0,P|341:58|351:91,1,69.9999978637696,10|2,0:2|0:2,0:0:0:0:
440,216,91412,21,6,1:2:0:0:
453,238,91507,1,2,1:2:0:0:
460,263,91603,1,2,1:2:0:0:
461,289,91698,1,14,1:2:0:0:
454,314,91794,1,2,1:2:0:0:
441,337,91889,1,2,1:2:0:0:
422,356,91985,2,0,P|388:345|354:338,1,69.9999978637696,10|2,1:2|1:2,0:0:0:0:
232,280,92176,37,14,1:2:0:0:
213,328,92271,1,10,1:2:0:0:
174,362,92367,1,10,1:2:0:0:
123,375,92462,1,10,1:2:0:0:
73,362,92558,2,0,P|72:327|79:292,3,69.9999978637696,2|10|10|10,1:2|1:2|1:2|1:2,0:0:0:0:
153,254,92940,53,4,1:2:0:0:
32,184,93131,2,0,P|60:132|116:118,1,119.999996337891,10|2,0:2|1:2,0:0:0:0:
184,160,93418,1,0,1:2:0:0:
208,168,93513,1,10,0:2:0:0:
288,48,93705,1,0,0:0:0:0:
152,40,93896,1,10,0:2:0:0:
295,144,94087,2,0,P|324:133|353:128,1,59.9999981689454,2|0,0:2|1:2,0:0:0:0:
408,72,94278,2,0,P|436:82|465:87,1,59.9999981689454,10|0,0:2|0:2,0:0:0:0:
495,192,94469,6,0,P|441:214|410:265,1,119.999996337891,2|8,1:2|0:2,0:0:0:0:
456,328,94756,1,2,0:2:0:0:
480,336,94851,1,2,1:2:0:0:
320,240,95042,1,10,0:2:0:0:
288,368,95233,1,2,1:2:0:0:
176,288,95424,1,10,0:2:0:0:
168,271,95520,2,0,P|181:213|184:153,1,119.999996337891,2|0,1:2|1:2,0:0:0:0:
128,95,95806,2,0,P|99:105|70:110,1,59.9999981689454,10|2,0:2|0:2,0:0:0:0:
48,232,95998,54,0,P|107:234|163:255,1,119.999996337891,2|8,1:2|0:2,0:0:0:0:
200,328,96284,1,2,0:2:0:0:
192,344,96380,1,0,1:2:0:0:
328,248,96571,2,0,P|313:189|313:129,1,119.999996337891,10|0,0:2|1:2,0:0:0:0:
504,16,96953,1,10,0:2:0:0:
451,128,97144,1,2,0:2:0:0:
380,26,97335,1,10,0:2:0:0:
296,120,97526,6,0,P|266:112|237:111,1,59.9999981689454,2|2,1:2|1:2,0:0:0:0:
200,40,97717,2,0,P|171:48|144:62,1,59.9999981689454,10|2,1:2|1:2,0:0:0:0:
76,18,97908,2,0,P|55:39|39:64,1,59.9999981689454,2|2,1:2|1:2,0:0:0:0:
24,144,98099,2,0,L|82:157,1,59.9999981689454,10|2,1:2|1:2,0:0:0:0:
152,240,98291,38,0,L|270:222,1,119.999996337891,14|2,1:2|1:2,0:0:0:0:
336,144,98577,2,0,L|454:161,1,119.999996337891,14|2,1:2|1:2,0:0:0:0:
512,239,98864,2,0,P|498:266|490:295,1,59.9999981689454,14|2,1:2|1:2,0:0:0:0:
399,383,99055,6,0,P|381:327|338:285,1,119.999996337891,4|10,1:2|0:2,0:0:0:0:
264,312,99342,1,0,0:2:0:0:
255,336,99437,2,0,P|202:363|142:369,1,119.999996337891,2|10,1:2|0:2,0:0:0:0:
72,328,99724,1,2,0:2:0:0:
80,304,99819,1,0,0:0:0:0:
8,184,100010,1,10,0:2:0:0:
144,168,100201,1,2,0:2:0:0:
0,216,100392,1,10,0:2:0:0:
96,64,100584,6,0,P|153:81|212:92,1,119.999996337891,2|8,1:2|0:2,0:0:0:0:
280,136,100870,1,2,0:2:0:0:
295,120,100966,2,0,P|321:106|350:97,1,59.9999981689454,0|2,1:2|1:2,0:0:0:0:
432,128,101157,2,0,P|430:68|458:16,2,119.999996337891,10|0|10,0:2|1:2|0:2,0:0:0:0:
496,192,101635,1,0,1:2:0:0:
448,312,101826,1,0,1:2:0:0:
432,320,101921,2,0,P|403:310|373:305,1,59.9999981689454,10|2,0:2|0:2,0:0:0:0:
288,360,102112,54,0,L|229:374,1,59.9999981689454,2|0,1:2|0:2,0:0:0:0:
192,304,102303,2,0,L|133:289,1,59.9999981689454,10|0,0:2|0:2,0:0:0:0:
72,336,102494,1,2,1:2:0:0:
80,120,102685,1,10,0:2:0:0:
104,112,102781,1,2,0:2:0:0:
128,120,102877,2,0,P|132:177|92:219,1,119.999996337891,14|8,1:2|0:2,0:0:0:0:
16,240,103163,1,8,0:2:0:0:
8,224,103259,2,0,P|2:194|6:165,1,59.9999981689454,10|8,0:2|0:2,0:0:0:0:
48,96,103450,2,0,P|57:67|75:44,1,59.9999981689454,10|8,0:2|0:2,0:0:0:0:
192,16,103641,54,0,P|241:49|298:68,1,119.999996337891,12|0,1:2|1:2,0:0:0:0:
416,0,103928,2,0,P|359:18|309:52,1,119.999996337891,12|0,1:2|1:2,0:0:0:0:
344,136,104214,1,12,1:2:0:0:
487,207,104405,2,0,P|494:237|496:267,1,59.9999981689454,0|8,0:2|0:2,0:0:0:0:
416,312,104596,2,0,P|406:340|393:367,1,59.9999981689454,8|8,0:2|0:2,0:0:0:0:
296,344,104787,1,12,0:2:0:0:
280,346,104883,1,8,0:2:0:0:
264,349,104978,1,8,0:2:0:0:
248,352,105074,1,8,0:2:0:0:
231,354,105170,38,0,P|177:330|118:320,1,119.999996337891,4|10,1:2|0:2,0:0:0:0:
16,192,105552,1,2,1:2:0:0:
40,200,105647,1,0,1:2:0:0:
64,208,105743,1,10,0:2:0:0:
160,128,105934,2,0,P|165:98|167:68,1,59.9999981689454,2|0,1:2|1:2,0:0:0:0:
120,0,106125,1,10,1:2:0:0:
95,8,106220,2,0,P|72:63|77:122,1,119.999996337891,2|0,1:2|1:2,0:0:0:0:
152,160,106507,1,10,0:2:0:0:
272,40,106698,38,0,P|330:25|390:22,1,119.999996337891,2|10,1:2|0:2,0:0:0:0:
480,120,107080,1,2,1:2:0:0:
472,136,107176,1,0,1:2:0:0:
464,152,107271,1,10,0:2:0:0:
344,208,107463,1,0,1:2:0:0:
363,230,107558,1,0,1:2:0:0:
378,256,107654,1,10,0:2:0:0:
387,285,107749,1,0,1:2:0:0:
392,314,107845,2,0,P|378:340|370:369,1,59.9999981689454,2|0,1:2|1:2,0:0:0:0:
272,320,108036,2,0,P|263:291|250:264,1,59.9999981689454,10|0,0:2|1:2,0:0:0:0:
175,360,108227,22,0,P|116:368|58:357,1,119.999996337891,4|10,1:2|0:2,0:0:0:0:
8,208,108609,2,0,P|33:223|62:231,1,59.9999981689454,2|0,1:2|1:2,0:0:0:0:
127,183,108800,2,0,P|156:183|185:176,1,59.9999981689454,10|0,0:2|0:2,0:0:0:0:
232,112,108991,1,2,1:2:0:0:
104,24,109182,1,10,1:2:0:0:
79,32,109278,2,0,P|42:77|49:135,1,119.999996337891,2|0,1:2|1:2,0:0:0:0:
128,160,109564,1,10,0:2:0:0:
256,32,109756,38,0,P|314:22|372:37,1,119.999996337891,2|10,1:2|0:2,0:0:0:0:
408,168,110138,1,2,1:2:0:0:
384,160,110233,1,0,1:2:0:0:
360,152,110329,1,10,0:2:0:0:
248,232,110520,1,2,1:2:0:0:
250,261,110615,1,2,1:2:0:0:
264,287,110711,1,10,0:2:0:0:
287,306,110806,1,2,1:2:0:0:
316,314,110902,2,0,P|342:301|372:298,1,59.9999981689454,2|2,1:2|1:2,0:0:0:0:
440,256,111093,2,0,P|466:268|496:271,1,59.9999981689454,8|0,0:2|0:2,0:0:0:0:
477,109,111284,22,0,P|419:96|368:125,1,119.999996337891,2|10,1:2|0:2,0:0:0:0:
353,202,111571,1,0,0:2:0:0:
361,218,111666,1,2,1:2:0:0:
272,320,111857,1,10,0:2:0:0:
152,256,112049,1,2,1:2:0:0:
160,232,112144,1,2,1:2:0:0:
168,208,112240,1,10,0:2:0:0:
32,264,112431,2,0,P|50:320|61:379,1,119.999996337891,2|10,0:2|0:2,0:0:0:0:
256,232,112813,54,0,P|266:173|285:116,1,119.999996337891,2|8,1:2|0:2,0:0:0:0:
104,40,113195,1,2,1:2:0:0:
96,64,113291,1,0,1:2:0:0:
88,88,113386,1,10,0:2:0:0:
224,48,113577,1,2,1:2:0:0:
249,32,113672,1,0,1:2:0:0:
278,24,113768,1,10,0:2:0:0:
308,25,113863,1,0,1:2:0:0:
336,34,113959,2,0,P|362:46|392:51,1,59.9999981689454,2|0,0:2|1:2,0:0:0:0:
438,116,114150,2,0,P|467:113|495:102,1,59.9999981689454,10|0,0:2|0:2,0:0:0:0:
389,239,114342,6,0,P|427:296|434:365,1,139.999995727539,12|0,1:2|1:2,0:0:0:0:
357,381,114628,2,0,P|303:337|235:323,1,139.999995727539,12|0,1:2|1:2,0:0:0:0:
168,368,114915,1,12,1:2:0:0:
48,296,115106,6,0,P|81:286|116:281,1,69.9999978637696,0|8,1:2|0:2,0:0:0:0:
190,211,115297,2,0,P|155:206|121:196,1,69.9999978637696,8|8,0:2|0:2,0:0:0:0:
6,139,115488,6,0,P|39:129|74:124,1,69.9999978637696,8|8,0:2|0:2,0:0:0:0:
147,54,115679,2,0,P|112:49|78:39,1,69.9999978637696,8|8,0:2|0:2,0:0:0:0:
232,112,115870,6,0,B|272:32|352:48|352:48|368:104|440:112|440:112|467:89,1,300,6|0,1:2|0:0,0:0:0:0:
512,216,116635,6,0,L|452:205,1,59.9999981689454,2|0,0:2|0:2,0:0:0:0:
368,296,116826,2,0,L|329:306,2,39.9999987792969,2|0|0,1:2|1:2|1:2,0:0:0:0:
360,272,117017,54,0,L|367:212,1,60,10|0,0:2|0:2,0:0:0:0:
288,168,117399,22,0,P|220:184|150:191,1,139.999995727539,6|10,1:2|0:2,0:0:0:0:
87,271,117685,2,0,P|121:280|154:293,1,69.9999978637696,2|0,0:2|1:2,0:0:0:0:
264,368,117877,1,2,1:2:0:0:
256,384,117972,2,0,P|236:319|273:262,1,139.999995727539,10|0,0:2|1:2,0:0:0:0:
432,136,118354,2,0,L|363:122,1,69.9999978637696,10|0,0:2|1:2,0:0:0:0:
320,56,118545,2,0,L|251:69,1,69.9999978637696,2|0,0:2|1:2,0:0:0:0:
192,16,118736,2,0,L|123:2,1,69.9999978637696,10|0,0:2|0:2,0:0:0:0:
32,128,118928,6,0,P|97:147|155:111,1,139.999995727539,2|10,1:2|0:2,0:0:0:0:
240,160,119214,2,0,P|232:194|231:229,1,69.9999978637696,2|0,0:2|1:2,0:0:0:0:
168,304,119405,1,2,1:2:0:0:
151,320,119501,2,0,P|84:308|52:248,1,139.999995727539,10|0,0:2|1:2,0:0:0:0:
224,240,119883,2,0,P|257:251|291:255,1,69.9999978637696,10|0,0:2|1:2,0:0:0:0:
336,320,120074,2,0,P|367:304|395:283,1,69.9999978637696,2|0,0:2|1:2,0:0:0:0:
464,320,120265,2,0,P|475:286|479:252,1,69.9999978637696,10|0,0:2|0:2,0:0:0:0:
440,176,120456,53,2,1:2:0:0:
512,64,120647,1,10,0:2:0:0:
495,56,120743,2,0,P|429:78|359:74,1,139.999995727539,2|0,0:2|1:2,0:0:0:0:
304,16,121029,2,0,P|271:3|236:0,1,69.9999978637696,10|0,0:2|0:2,0:0:0:0:
176,48,121220,2,0,P|143:60|108:63,1,69.9999978637696,2|0,1:2|0:2,0:0:0:0:
48,112,121412,2,0,L|63:180,1,69.9999978637696,10|0,0:2|1:2,0:0:0:0:
128,224,121603,2,0,L|112:292,1,69.9999978637696,2|0,1:2|1:2,0:0:0:0:
48,336,121794,1,10,0:2:0:0:
208,320,121985,6,0,P|269:353|338:361,1,139.999995727539,2|8,1:2|0:2,0:0:0:0:
400,312,122271,1,2,1:2:0:0:
392,288,122367,1,2,1:2:0:0:
320,176,122558,1,10,0:2:0:0:
312,200,122654,1,0,1:2:0:0:
296,216,122749,2,0,P|233:189|213:124,1,139.999995727539,12|0,1:2|1:2,0:0:0:0:
272,24,123036,2,0,P|279:91|233:141,1,139.999995727539,12|0,1:2|1:2,0:0:0:0:
136,104,123322,1,12,1:2:0:0:
24,224,123513,54,0,P|93:226|154:258,1,139.999995727539,6|8,1:2|0:2,0:0:0:0:
168,336,123800,1,2,0:2:0:0:
160,360,123896,1,2,1:2:0:0:
280,232,124087,1,10,0:2:0:0:
344,384,124278,1,2,1:2:0:0:
200,288,124469,1,10,0:2:0:0:
360,184,124660,1,2,0:2:0:0:
320,368,124851,1,10,0:2:0:0:
479,303,125042,6,0,P|458:238|467:169,1,139.999995727539,2|10,1:2|0:2,0:0:0:0:
408,120,125329,1,0,0:2:0:0:
407,104,125424,2,0,P|421:72|429:38,1,69.9999978637696,2|0,1:2|1:2,0:0:0:0:
304,0,125615,2,0,P|318:31|326:65,1,69.9999978637696,10|2,0:2|0:2,0:0:0:0:
256,128,125806,2,0,P|187:114|117:111,1,139.999995727539,2|10,1:2|0:2,0:0:0:0:
32,224,126189,1,2,0:2:0:0:
55,228,126284,1,2,1:2:0:0:
79,232,126380,1,10,0:2:0:0:
167,359,126571,54,0,P|162:292|214:249,1,139.999995727539,2|8,1:2|0:2,0:0:0:0:
272,304,126857,1,2,0:2:0:0:
288,320,126953,2,0,L|356:307,1,69.9999978637696,0|2,1:2|1:2,0:0:0:0:
416,360,127144,2,0,L|484:372,1,69.9999978637696,10|0,0:2|0:2,0:0:0:0:
480,240,127335,2,0,P|496:172|483:104,1,139.999995727539,12|8,1:2|0:2,0:0:0:0:
424,56,127622,1,8,0:2:0:0:
408,55,127717,2,0,P|376:70|342:78,1,69.9999978637696,8|8,0:2|0:2,0:0:0:0:
264,152,127908,2,0,P|232:136|198:128,1,69.9999978637696,8|8,0:2|0:2,0:0:0:0:
128,24,128099,6,0,P|180:65|168:130,1,139.999995727539,12|0,1:2|1:2,0:0:0:0:
72,224,128386,2,0,P|81:158|144:135,1,139.999995727539,12|0,1:2|0:2,0:0:0:0:
200,216,128673,2,0,P|185:247|177:281,1,69.9999978637696,12|0,1:2|0:2,0:0:0:0:
288,368,128864,5,8,0:2:0:0:
306,338,128959,1,8,0:2:0:0:
333,317,129055,1,10,0:2:0:0:
366,307,129150,1,8,0:2:0:0:
401,310,129246,2,0,P|435:316|470:318,1,69.9999978637696,10|8,0:2|0:2,0:0:0:0:
496,192,129437,2,0,P|461:194|426:200,1,69.9999978637696,10|8,0:2|0:2,0:0:0:0:
344,128,129628,37,6,1:2:0:0:
264,32,129819,1,10,0:2:0:0:
239,32,129915,2,0,P|176:60|107:59,1,139.999995727539,2|2,0:2|1:2,0:0:0:0:
8,104,130201,2,0,P|68:137|109:193,1,139.999995727539,10|0,0:2|1:2,0:0:0:0:
39,360,130584,2,0,P|70:343|104:335,1,69.9999978637696,10|0,0:2|1:2,0:0:0:0:
168,288,130775,2,0,P|198:304|232:312,1,69.9999978637696,2|0,0:2|1:2,0:0:0:0:
280,376,130966,2,0,P|310:359|344:351,1,69.9999978637696,10|0,0:2|0:2,0:0:0:0:
424,376,131157,5,2,1:2:0:0:
472,256,131348,1,10,0:2:0:0:
456,232,131443,2,0,P|462:163|511:115,1,139.999995727539,2|2,0:2|1:2,0:0:0:0:
512,16,131730,2,0,P|449:44|383:26,1,139.999995727539,10|0,0:2|1:2,0:0:0:0:
240,0,132112,2,0,P|247:34|249:69,1,69.9999978637696,10|0,0:2|1:2,0:0:0:0:
184,112,132303,2,0,P|172:144|156:176,1,69.9999978637696,2|0,0:2|1:2,0:0:0:0:
80,168,132494,2,0,P|53:190|24:209,1,69.9999978637696,10|0,0:2|0:2,0:0:0:0:
72,312,132685,54,0,P|141:319|201:353,1,139.999995727539,2|10,1:2|0:2,0:0:0:0:
272,384,132972,1,2,0:2:0:0:
279,360,133068,2,0,P|306:338|339:328,1,69.9999978637696,0|0,0:0|1:2,0:0:0:0:
400,376,133259,2,0,P|434:371|468:378,1,69.9999978637696,10|0,0:2|0:2,0:0:0:0:
512,312,133450,2,0,L|499:243,1,69.9999978637696,2|0,1:2|0:2,0:0:0:0:
432,208,133641,2,0,L|444:139,1,69.9999978637696,10|0,0:2|1:2,0:0:0:0:
400,72,133832,2,0,P|368:86|334:95,1,69.9999978637696,2|0,1:2|1:2,0:0:0:0:
272,48,134023,1,10,0:2:0:0:
96,16,134214,6,0,P|38:52|28:119,1,139.999995727539,2|8,1:2|0:2,0:0:0:0:
96,159,134501,1,2,1:2:0:0:
120,151,134596,1,2,1:2:0:0:
136,319,134787,1,10,0:2:0:0:
112,327,134883,1,0,1:2:0:0:
88,334,134978,2,0,P|30:301|38:236,1,139.999995727539,12|0,1:2|1:2,0:0:0:0:
120,151,135265,2,0,P|120:217|60:243,1,139.999995727539,12|0,1:2|1:2,0:0:0:0:
88,334,135552,2,0,P|121:343|152:359,1,69.9999978637696,12|0,1:2|0:2,0:0:0:0:
256,287,135743,54,0,P|325:281|387:249,1,139.999995727539,6|8,1:2|0:2,0:0:0:0:
392,168,136029,1,2,0:2:0:0:
384,152,136125,1,2,1:2:0:0:
504,48,136316,1,10,0:2:0:0:
496,72,136412,1,0,0:2:0:0:
488,96,136507,1,2,1:2:0:0:
352,24,136698,2,0,L|396:9,2,46.6666652425131,2|0|0,1:2|1:2|1:2,0:0:0:0:
336,56,136889,2,0,L|184:32,1,139.999995727539,10|2,0:2|0:2,0:0:0:0:
47,87,137271,6,0,P|79:148|53:211,1,139.999995727539,12|2,1:2|1:2,0:0:0:0:
48,288,137558,1,0,0:2:0:0:
32,295,137654,2,0,P|12:323|1:357,1,69.9999978637696,10|0,0:2|0:2,0:0:0:0:
144,360,137845,1,2,1:2:0:0:
168,352,137940,2,0,P|231:380|300:384,1,139.999995727539,6|0,1:2|0:2,0:0:0:0:
376,352,138227,2,0,P|381:317|390:283,1,69.9999978637696,8|8,0:2|0:2,0:0:0:0:
480,232,138418,1,8,0:2:0:0:
493,199,138513,1,8,0:2:0:0:
496,165,138609,1,10,0:2:0:0:
488,131,138704,1,8,0:2:0:0:
470,100,138800,6,0,P|400:129|326:134,1,150.000005722046,12|0,1:2|1:2,0:0:0:0:
192,72,139087,2,0,P|266:82|333:114,1,150.000005722046,12|0,1:2|1:2,0:0:0:0:
328,224,139373,1,12,1:2:0:0:
144,360,139564,54,0,P|126:291|181:247,1,150.000005722046,12|0,1:2|1:2,0:0:0:0:
312,248,139851,2,0,P|293:316|222:326,1,150.000005722046,12|0,1:2|1:2,0:0:0:0:
240,176,140138,1,12,1:2:0:0:
408,360,140329,21,12,1:2:0:0:
408,360,141475,6,0,P|394:333|394:303,1,60,2|0,0:2|0:2,0:0:0:0:
446,243,141857,53,6,1:2:0:0:
256,192,141953,12,2,143768,0:2:0:0:
440,64,147017,70,0,L|444:44,2,19.9999993896485,0|0|0,1:2|1:2|1:2,0:0:0:0:
432,96,147208,2,0,L|379:104,1,53.3333333333333,8|0,0:2|1:2,0:0:0:0:
320,168,147463,1,8,0:2:0:0:
246,118,147590,2,0,P|242:99|242:79,1,39.9999987792969,8|8,0:2|0:2,0:0:0:0:
216,0,147845,1,8,0:2:0:0:
143,48,147972,22,0,P|129:99|104:146,1,106.666666666667,4|0,1:2|1:2,0:0:0:0:
24,216,148354,1,8,0:2:0:0:
79,296,148482,2,0,P|106:290|132:288,1,53.3333333333333,0|2,1:2|0:2,0:0:0:0:
224,351,148736,2,0,P|265:319|317:310,2,106.666666666667,2|2|10,1:2|1:2|0:2,0:0:0:0:
440,384,149501,38,0,P|406:312|407:232,1,160,2|10,1:2|0:2,0:0:0:0:
352,160,150010,2,0,P|365:137|373:111,1,53.3333333333333,0|0,1:2|0:0,0:0:0:0:
455,56,150265,2,0,P|406:75|353:82,1,106.666666666667,0|0,1:2|1:2,0:0:0:0:
256,128,150647,2,0,P|206:108|153:101,1,106.666666666667,8|2,0:2|1:2,0:0:0:0:
56,40,151029,22,0,P|115:87|99:162,1,160,6|8,1:2|0:2,0:0:0:0:
24,224,151539,1,2,1:2:0:0:
16,320,151666,1,2,1:2:0:0:
103,376,151794,2,0,P|125:359|150:352,2,53.3333333333333,8|10|10,0:2|0:2|0:2,0:0:0:0:
224,256,152176,2,0,P|202:239|177:232,2,53.3333333333333,10|10|10,0:2|0:2|0:2,0:0:0:0:
256,376,152558,37,12,1:2:0:0:
256,376,154087,21,4,1:2:0:0:
384,351,154278,2,0,P|408:286|403:217,1,139.999995727539,8|2,0:2|1:2,0:0:0:0:
336,176,154564,1,0,1:2:0:0:
320,184,154660,1,10,0:2:0:0:
240,72,154851,1,2,1:2:0:0:
384,48,155042,1,10,0:2:0:0:
231,96,155233,2,0,P|165:74|96:71,1,139.999995727539,2|10,0:2|0:2,0:0:0:0:
32,240,155615,21,2,1:2:0:0:
22,264,155710,1,2,0:2:0:0:
22,290,155806,1,10,0:2:0:0:
32,314,155901,1,2,0:2:0:0:
50,333,155997,1,2,1:2:0:0:
74,343,156092,1,2,1:2:0:0:
100,343,156188,1,10,0:2:0:0:
125,334,156283,1,2,0:2:0:0:
144,316,156380,2,0,P|137:281|135:246,3,69.9999978637696,2|2|10|2,1:2|0:2|0:2|1:2,0:0:0:0:
248,312,156762,2,0,P|241:346|239:381,3,69.9999978637696,2|2|10|0,0:2|1:2|0:2|0:2,0:0:0:0:
344,312,157144,38,0,P|401:273|470:269,1,139.999995727539,2|8,1:2|0:2,0:0:0:0:
360,144,157526,1,2,1:2:0:0:
354,161,157622,1,0,1:2:0:0:
348,178,157717,2,0,P|315:191|280:193,1,69.9999978637696,10|0,0:2|0:2,0:0:0:0:
253,117,157908,2,0,P|218:112|187:96,1,69.9999978637696,2|0,1:2|0:2,0:0:0:0:
104,56,158099,2,0,L|110:125,1,69.9999978637696,10|0,0:2|1:2,0:0:0:0:
48,176,158291,2,0,L|41:245,1,69.9999978637696,2|0,0:2|1:2,0:0:0:0:
96,304,158482,1,10,0:2:0:0:
272,368,158673,22,0,P|297:304|272:240,1,139.999995727539,2|8,1:2|0:2,0:0:0:0:
192,232,158959,1,2,1:2:0:0:
184,256,159055,1,2,1:2:0:0:
400,360,159246,1,10,0:2:0:0:
392,344,159342,1,2,1:2:0:0:
384,328,159437,2,0,L|399:188,1,139.999995727539,12|0,1:2|1:2,0:0:0:0:
480,208,159724,2,0,L|464:68,1,139.999995727539,12|0,1:2|1:2,0:0:0:0:
512,8,160010,1,12,1:2:0:0:
312,16,160201,37,6,1:2:0:0:
303,49,160296,1,2,0:2:0:0:
279,75,160392,1,10,0:2:0:0:
247,87,160487,1,2,0:2:0:0:
212,83,160584,2,0,L|143:70,1,69.9999978637696,2|2,1:2|1:2,0:0:0:0:
96,136,160775,2,0,L|27:148,1,69.9999978637696,10|2,0:2|0:2,0:0:0:0:
48,240,160966,21,2,1:2:0:0:
26,266,161061,1,2,0:2:0:0:
24,301,161157,1,10,0:2:0:0:
41,331,161252,1,2,1:2:0:0:
72,345,161348,2,0,P|104:332|139:328,1,69.9999978637696,2|2,0:2|1:2,0:0:0:0:
200,280,161539,2,0,P|232:292|267:296,1,69.9999978637696,10|2,0:2|0:2,0:0:0:0:
312,368,161730,38,0,P|365:324|433:314,1,139.999995727539,2|10,1:2|0:2,0:0:0:0:
512,296,162017,1,2,0:2:0:0:
512,280,162112,2,0,P|458:236|390:226,1,139.999995727539,2|10,1:2|0:2,0:0:0:0:
312,208,162399,1,2,0:2:0:0:
312,192,162494,2,0,P|365:148|433:138,1,139.999995727539,2|10,1:2|0:2,0:0:0:0:
504,168,162781,1,2,1:2:0:0:
512,176,162877,1,2,0:2:0:0:
432,40,163068,1,10,0:2:0:0:
272,24,163259,22,0,P|254:90|196:126,1,139.999995727539,2|8,1:2|0:2,0:0:0:0:
144,72,163545,1,0,0:2:0:0:
136,56,163641,2,0,P|103:44|68:39,1,69.9999978637696,2|2,1:2|1:2,0:0:0:0:
64,120,163832,2,0,P|32:134|4:155,1,69.9999978637696,10|2,0:2|0:2,0:0:0:0:
58,216,164023,2,0,P|46:248|41:283,1,69.9999978637696,12|2,1:2|0:2,0:0:0:0:
124,330,164214,37,10,0:2:0:0:
157,319,164309,1,10,0:2:0:0:
192,317,164405,1,10,0:2:0:0:
226,322,164500,1,10,0:2:0:0:
258,336,164596,1,10,0:2:0:0:
286,357,164691,1,10,0:2:0:0:
309,384,164787,22,0,P|262:335|277:269,1,139.999995727539,12|0,1:2|1:2,0:0:0:0:
384,200,165074,2,0,P|365:264|300:284,1,139.999995727539,12|0,1:2|1:2,0:0:0:0:
247,192,165361,2,0,P|257:158|262:123,1,69.9999978637696,12|2,1:2|1:2,0:0:0:0:
224,32,165552,37,12,1:2:0:0:
189,42,165647,1,0,1:2:0:0:
155,52,165743,1,8,0:2:0:0:
121,62,165838,1,8,0:2:0:0:
213,182,166029,1,8,0:2:0:0:
247,192,166124,1,8,0:2:0:0:
96,360,166316,21,6,1:2:0:0:
51,335,166411,1,2,0:2:0:0:
40,285,166507,1,10,0:2:0:0:
70,244,166602,1,2,0:2:0:0:
121,239,166698,1,2,1:2:0:0:
136,246,166793,1,2,1:2:0:0:
152,254,166889,1,10,0:2:0:0:
167,262,166984,1,2,0:2:0:0:
183,270,167080,38,0,P|181:304|190:338,1,69.9999978637696,2|2,1:2|0:2,0:0:0:0:
288,376,167271,2,0,P|286:341|295:307,1,69.9999978637696,10|2,0:2|1:2,0:0:0:0:
368,248,167463,1,2,0:2:0:0:
392,256,167558,1,2,1:2:0:0:
416,264,167654,2,0,L|485:256,1,69.9999978637696,10|2,0:2|0:2,0:0:0:0:
512,152,167845,21,6,1:2:0:0:
512,120,167940,1,2,0:2:0:0:
496,96,168036,2,0,P|462:87|427:90,1,69.9999978637696,10|2,0:2|0:2,0:0:0:0:
328,48,168227,1,2,1:2:0:0:
304,72,168322,1,2,1:2:0:0:
272,80,168418,2,0,P|238:70|209:50,1,69.9999978637696,10|2,0:2|0:2,0:0:0:0:
112,72,168609,37,2,1:2:0:0:
61,63,168704,1,2,0:2:0:0:
19,92,168800,1,10,0:2:0:0:
9,142,168895,1,2,1:2:0:0:
35,185,168991,2,0,P|66:167|100:160,1,69.9999978637696,2|2,0:2|1:2,0:0:0:0:
144,240,169182,2,0,P|178:240|212:250,1,69.9999978637696,10|2,0:2|0:2,0:0:0:0:
279,375,169373,22,0,P|285:308|338:265,1,139.999995727539,6|10,1:2|0:2,0:0:0:0:
424,304,169660,1,2,0:2:0:0:
424,327,169756,2,0,P|396:347|361:349,1,69.9999978637696,2|2,1:2|1:2,0:0:0:0:
416,208,169947,2,0,P|450:210|478:230,1,69.9999978637696,10|2,0:2|0:2,0:0:0:0:
408,72,170138,38,0,P|342:97|275:114,1,139.999995727539,6|10,1:2|0:2,0:0:0:0:
224,56,170424,1,2,1:2:0:0:
208,40,170520,2,0,L|138:33,1,69.9999978637696,2|2,0:2|1:2,0:0:0:0:
88,112,170711,2,0,L|18:118,1,69.9999978637696,10|2,0:2|0:2,0:0:0:0:
0,264,170902,22,0,P|55:223|124:218,1,139.999995727539,6|8,1:2|0:2,0:0:0:0:
184,168,171189,2,0,P|247:195|285:253,1,139.999995727539,2|0,1:2|1:2,0:0:0:0:
256,328,171475,1,10,0:2:0:0:
440,384,171666,38,0,B|400:336|424:288|424:288|480:272|480:272|464:216|475:154,1,279.999991455078,12|0,1:2|0:0,0:0:0:0:
352,24,172240,1,8,0:2:0:0:
368,216,172431,21,2,1:2:0:0:
464,136,172622,1,10,0:2:0:0:
384,40,172813,1,2,1:2:0:0:
288,120,173004,1,10,0:2:0:0:
368,216,173195,1,2,1:2:0:0:
280,304,173386,2,0,P|212:284|143:273,1,139.999995727539,10|2,0:2|0:2,0:0:0:0:
80,320,173673,1,0,1:2:0:0:
72,344,173768,1,10,0:2:0:0:
208,192,173959,37,2,1:2:0:0:
144,48,174150,2,0,L|97:54,2,46.6666652425131,10|2|2,0:2|0:2|0:2,0:0:0:0:
88,96,174342,2,0,L|18:89,1,69.9999978637696,2|2,1:2|1:2,0:0:0:0:
0,208,174533,1,10,0:2:0:0:
24,200,174628,1,2,0:2:0:0:
48,192,174724,1,2,1:2:0:0:
176,288,174915,21,8,0:2:0:0:
160,311,175010,2,0,P|175:373|239:369,1,139.999995727539,2|0,1:2|1:2,0:0:0:0:
312,336,175297,2,0,P|306:301|304:266,1,69.9999978637696,10|2,0:2|0:2,0:0:0:0:
424,128,175488,38,0,P|362:158|293:151,1,139.999995727539,2|8,1:2|0:2,0:0:0:0:
256,80,175775,2,0,P|193:49|124:57,1,139.999995727539,0|2,0:2|1:2,0:0:0:0:
64,104,176061,1,10,0:2:0:0:
200,192,176252,1,12,1:2:0:0:
64,288,176443,22,0,L|50:356,1,69.9999978637696,8|8,0:2|0:2,0:0:0:0:
160,384,176635,2,0,L|146:315,1,69.9999978637696,0|8,0:0|0:2,0:0:0:0:
256,288,176826,2,0,L|242:356,1,69.9999978637696,10|8,0:2|0:2,0:0:0:0:
320,384,177017,37,12,1:2:0:0:
440,272,177208,2,0,P|420:205|428:136,1,139.999995727539,8|2,1:2|1:2,0:0:0:0:
480,80,177494,1,2,1:2:0:0:
512,88,177589,1,8,1:2:0:0:
344,16,177781,21,8,1:2:0:0:
320,24,177877,1,8,1:2:0:0:
296,32,177972,2,0,L|263:26,2,33.3333333333333,0|0|0,1:2|1:2|1:2,0:0:0:0:
240,104,178163,2,0,L|208:115,2,33.3333333333333,8|8|8,1:2|0:2|0:2,0:0:0:0:
227,194,178354,2,0,L|205:219,2,33.3333333333333,8|8|8,0:2|0:2|0:2,0:0:0:0:
288,256,178545,5,4,1:2:0:0:
288,256,179310,6,0,L|353:269,2,66.6666666666667,8|8|8,0:2|0:2|0:2,0:0:0:0:
208,320,179692,1,8,0:2:0:0:
216,328,180074,53,2,0:2:0:0:
80,184,189055,38,0,L|69:228,2,33.3333333333333,0|0|0,1:2|1:2|1:2,0:0:0:0:
56,144,189246,54,0,L|68:283,1,139.999995727539,12|0,1:2|1:2,0:0:0:0:
128,359,189533,2,0,P|185:322|254:327,1,139.999995727539,8|0,1:2|1:2,0:0:0:0:
336,384,189819,1,8,1:2:0:0:
464,304,190010,1,8,0:2:0:0:
479,272,190105,1,8,0:2:0:0:
481,238,190201,1,8,0:2:0:0:
468,206,190296,1,8,0:2:0:0:
443,181,190392,2,0,P|409:192|376:201,3,69.9999978637696,8|8|0|0,0:2|0:2|1:2|1:2,0:0:0:0:
384,120,190775,54,0,B|344:104|344:104|224:136,1,166.666666666667,4|2,1:2|0:2,0:0:0:0:
224,216,191157,2,0,L|126:194,1,100,2|2,0:2|0:2,0:0:0:0:
56,216,191412,1,10,0:2:0:0:
104,344,191539,54,0,P|115:312|121:279,1,66.6666666666667,10|10,0:2|0:2,0:0:0:0:
48,200,191794,1,10,0:2:0:0:
135,95,191921,2,0,P|141:128|152:160,1,66.6666666666667,2|10,1:2|0:2,0:0:0:0:
256,208,192176,1,10,0:2:0:0:
328,104,192303,6,0,L|393:114,2,66.6666666666667,4|0|0,1:2|1:2|1:2,0:0:0:0:
465,277,192685,2,0,L|400:288,2,66.6666666666667,0|0|0,1:2|1:2|1:2,0:0:0:0:
512,192,193068,54,0,B|441:179|441:179|411:206|411:206|344:195,1,179.999994506836,0|0,1:2|0:0,0:0:0:0:
280,264,193450,6,0,L|220:270,1,60,10|0,0:2|0:2,0:0:0:0:
168,376,193832,22,0,B|229:314|197:242|197:242|133:258|133:258|61:218|115:132,1,359.999989013672,4|0,1:2|0:0,0:0:0:0:
336,16,194596,54,0,P|336:74|291:111,1,119.999996337891,8|2,0:2|1:2,0:0:0:0:
232,32,194883,2,0,P|181:61|127:40,1,119.999996337891,8|0,0:2|1:2,0:0:0:0:
48,0,195170,1,10,0:2:0:0:
0,184,195361,6,0,L|58:198,1,59.9999981689454,10|8,0:2|0:2,0:0:0:0:
104,264,195552,1,10,0:2:0:0:
120,264,195647,2,0,L|178:249,1,59.9999981689454,10|8,0:2|0:2,0:0:0:0:
232,192,195838,1,10,0:2:0:0:
256,200,195934,21,10,0:2:0:0:
328,344,196125,2,0,L|368:352,2,39.9999987792969,2|0|0,1:2|1:2|1:2,0:0:0:0:
320,312,196316,2,0,L|260:321,1,59.9999981689454,10|0,0:2|1:2,0:0:0:0:
178,248,196507,6,0,L|399:284,1,225.000008583069,10|0,0:2|0:2,0:0:0:0:
472,248,196889,21,6,1:2:0:0:
456,88,197080,1,10,0:2:0:0:
439,112,197176,2,0,P|374:135|307:119,1,139.999995727539,2|0,0:2|0:2,0:0:0:0:
264,56,197463,1,10,0:2:0:0:
120,200,197654,1,2,1:2:0:0:
80,8,197845,1,10,0:2:0:0:
200,128,198036,1,2,1:2:0:0:
216,144,198131,1,0,1:2:0:0:
224,167,198227,2,0,P|216:202|214:237,1,69.9999978637696,10|0,0:2|0:2,0:0:0:0:
72,376,198418,54,0,P|62:306|32:243,1,139.999995727539,2|8,1:2|0:2,0:0:0:0:
104,192,198705,2,0,P|114:122|144:59,1,139.999995727539,2|0,1:2|1:2,0:0:0:0:
232,40,198991,1,10,0:2:0:0:
392,80,199182,2,0,L|460:64,2,69.9999978637696,12|0|0,1:2|0:0|1:2,0:0:0:0:
336,136,199469,2,0,P|347:168|352:203,1,69.9999978637696,12|0,1:2|0:0,0:0:0:0:
304,264,199660,1,0,0:2:0:0:
288,272,199756,2,0,P|276:304|271:339,1,69.9999978637696,14|2,1:2|1:2,0:0:0:0:
376,367,199947,6,0,P|405:306|469:284,1,139.999995727539,6|8,1:2|0:2,0:0:0:0:
512,352,200233,1,2,0:2:0:0:
504,376,200329,1,2,1:2:0:0:
440,192,200520,1,10,0:2:0:0:
352,384,200711,1,2,1:2:0:0:
264,192,200902,1,8,0:2:0:0:
248,184,200998,1,2,1:2:0:0:
232,176,201093,2,0,L|162:169,1,69.9999978637696,2|0,0:2|1:2,0:0:0:0:
96,240,201284,2,0,L|26:246,1,69.9999978637696,10|0,0:2|0:2,0:0:0:0:
0,328,201475,53,2,1:2:0:0:
168,304,201666,1,10,0:2:0:0:
72,152,201857,2,0,P|62:118|56:83,1,69.9999978637696,2|0,1:2|1:2,0:0:0:0:
128,8,202049,1,10,0:2:0:0:
135,31,202144,2,0,P|202:48|272:56,1,139.999995727539,2|2,0:2|0:2,0:0:0:0:
344,16,202431,1,10,0:2:0:0:
488,112,202622,1,2,0:2:0:0:
480,136,202717,1,2,1:2:0:0:
472,160,202813,1,10,0:2:0:0:
312,176,203004,6,0,P|326:244|334:313,1,139.999995727539,2|8,1:2|0:2,0:0:0:0:
280,368,203291,1,2,0:2:0:0:
264,352,203386,2,0,P|231:338|197:329,1,69.9999978637696,0|2,0:2|1:2,0:0:0:0:
128,368,203577,1,10,0:2:0:0:
216,224,203768,1,12,1:2:0:0:
48,216,203959,1,8,0:2:0:0:
14,176,204054,1,8,0:2:0:0:
9,124,204150,1,8,0:2:0:0:
35,79,204245,1,8,0:2:0:0:
80,57,204342,2,0,P|114:66|148:75,1,69.9999978637696,8|8,0:2|0:2,0:0:0:0:
286,6,204533,6,0,P|241:56|248:124,1,139.999995727539,12|0,1:2|1:2,0:0:0:0:
392,120,204819,2,0,P|370:55|308:27,1,139.999995727539,12|0,1:2|0:2,0:0:0:0:
320,160,205106,2,0,P|328:193|325:228,1,69.9999978637696,12|0,1:2|0:2,0:0:0:0:
248,312,205297,53,8,0:2:0:0:
212,273,205392,1,8,0:2:0:0:
164,253,205488,1,10,0:2:0:0:
112,252,205583,1,8,0:2:0:0:
64,273,205679,2,0,P|72:337|72:377,1,69.9999978637696,10|8,0:2|0:2,0:0:0:0:
212,273,205870,2,0,P|214:238|220:203,1,69.9999978637696,10|8,0:2|0:2,0:0:0:0:
352,336,206061,54,0,P|411:300|480:299,1,139.999995727539,6|10,1:2|0:2,0:0:0:0:
512,200,206348,2,0,P|442:201|382:167,1,139.999995727539,2|2,0:2|1:2,0:0:0:0:
344,80,206635,1,10,0:2:0:0:
200,0,206826,1,0,1:2:0:0:
208,24,206921,1,2,1:2:0:0:
215,48,207017,2,0,P|192:114|183:183,1,139.999995727539,10|2,0:2|0:2,0:0:0:0:
176,264,207303,1,0,1:2:0:0:
159,271,207399,2,0,P|126:263|91:258,1,69.9999978637696,10|0,0:2|0:2,0:0:0:0:
32,328,207590,5,2,1:2:0:0:
192,368,207781,1,10,0:2:0:0:
207,352,207877,2,0,P|269:320|338:323,1,139.999995727539,2|2,0:2|1:2,0:0:0:0:
400,384,208163,2,0,P|368:322|371:253,1,139.999995727539,10|0,0:2|1:2,0:0:0:0:
504,152,208545,1,10,0:2:0:0:
360,56,208736,1,2,0:2:0:0:
336,64,208832,1,0,1:2:0:0:
312,72,208928,2,0,P|279:59|245:50,1,69.9999978637696,10|0,0:2|0:2,0:0:0:0:
168,104,209119,53,2,1:2:0:0:
224,264,209310,1,10,0:2:0:0:
256,255,209405,2,0,P|288:197|248:143,1,139.999995727539,2|0,0:2|1:2,0:0:0:0:
176,192,209692,2,0,L|107:205,1,69.9999978637696,10|0,0:2|0:2,0:0:0:0:
48,280,209883,2,0,L|116:293,1,69.9999978637696,2|0,1:2|0:2,0:0:0:0:
160,376,210074,2,0,P|190:359|225:355,1,69.9999978637696,10|0,0:2|1:2,0:0:0:0:
312,336,210265,2,0,P|342:352|377:356,1,69.9999978637696,2|0,1:2|1:2,0:0:0:0:
448,304,210456,1,10,0:2:0:0:
456,112,210647,5,2,1:2:0:0:
423,99,210742,1,0,1:2:0:0:
388,102,210838,1,8,0:2:0:0:
359,120,210933,1,0,1:2:0:0:
340,149,211029,2,0,P|346:183|348:218,1,69.9999978637696,2|0,1:2|1:2,0:0:0:0:
256,255,211220,2,0,L|184:239,1,69.9999978637696,10|0,0:2|1:2,0:0:0:0:
72,168,211412,2,0,L|209:140,1,139.999995727539,12|0,1:2|1:2,0:0:0:0:
255,57,211698,2,0,L|388:102,1,139.999995727539,12|0,1:2|1:2,0:0:0:0:
480,88,211985,2,0,P|469:121|464:155,1,69.9999978637696,14|2,1:2|1:2,0:0:0:0:
488,288,212176,54,0,P|432:249|365:264,1,139.999995727539,6|8,1:2|0:2,0:0:0:0:
304,312,212463,1,2,0:2:0:0:
312,336,212558,1,2,1:2:0:0:
136,384,212749,1,10,0:2:0:0:
176,200,212940,1,2,1:2:0:0:
32,280,213131,2,0,L|24:326,2,46.6666652425131,0|0|0,1:2|1:2|1:2,0:0:0:0:
56,264,213322,2,0,P|120:289|189:303,1,139.999995727539,10|2,0:2|0:2,0:0:0:0:
216,96,213705,6,0,P|151:78|99:121,1,139.999995727539,12|2,1:2|1:2,0:0:0:0:
152,192,213991,1,0,0:2:0:0:
176,200,214087,2,0,P|248:184|264:184,1,69.9999978637696,10|0,0:2|0:2,0:0:0:0:
304,112,214278,1,2,1:2:0:0:
312,128,214373,2,0,P|377:153|445:170,1,139.999995727539,6|0,1:2|0:2,0:0:0:0:
504,120,214660,2,0,L|510:50,1,69.9999978637696,8|8,0:2|0:2,0:0:0:0:
408,0,214851,2,0,L|414:69,1,69.9999978637696,8|8,0:2|0:2,0:0:0:0:
312,128,215042,2,0,L|318:58,1,69.9999978637696,10|8,0:2|0:2,0:0:0:0:
200,16,215233,6,0,P|129:27|103:94,1,150.000005722046,12|0,1:2|1:2,0:0:0:0:
208,240,215520,2,0,P|233:172|188:117,1,150.000005722046,12|0,1:2|0:2,0:0:0:0:
72,176,215806,1,12,1:2:0:0:
176,344,215998,54,0,P|249:324|323:313,1,150.000005722046,12|0,1:2|0:2,0:0:0:0:
456,376,216284,2,0,P|381:364|309:345,1,150.000005722046,12|0,1:2|1:2,0:0:0:0:
320,224,216571,1,12,1:2:0:0:
56,360,216762,21,12,1:2:0:0:
56,359,218036,6,0,P|72:331|80:299,1,66.6666666666667,0|0,1:2|1:2,0:0:0:0:
24,240,218291,2,0,L|16:160,1,80,2|0,1:2|0:0,0:0:0:0:
88,48,219246,2,0,L|48:32,2,33.3333333333333,2|0|0,1:2|1:2|1:2,0:0:0:0:
104,72,219437,54,0,L|162:57,1,60,10|0,0:2|0:2,0:0:0:0:
240,88,219819,37,6,1:2:0:0:
384,152,220010,1,8,0:2:0:0:
407,136,220106,2,0,P|413:68|366:19,1,139.999995727539,2|2,0:2|1:2,0:0:0:0:
288,16,220392,1,10,0:2:0:0:
288,176,220584,1,2,1:2:0:0:
272,200,220679,1,2,0:2:0:0:
256,224,220775,2,0,L|187:208,1,69.9999978637696,8|2,0:2|1:2,0:0:0:0:
144,288,220966,2,0,L|75:303,1,69.9999978637696,2|2,0:2|1:2,0:0:0:0:
0,256,221157,1,10,0:2:0:0:
160,384,221348,38,0,P|224:357|293:345,1,139.999995727539,2|10,1:2|0:2,0:0:0:0:
368,376,221635,1,2,0:2:0:0:
384,384,221730,1,0,1:2:0:0:
488,272,221921,2,0,P|458:208|447:139,1,139.999995727539,10|2,0:2|1:2,0:0:0:0:
488,72,222208,1,2,0:2:0:0:
504,72,222303,2,0,P|509:37|511:2,1,69.9999978637696,8|2,0:2|1:2,0:0:0:0:
408,0,222494,2,0,L|340:20,1,69.9999978637696,2|2,0:2|1:2,0:0:0:0:
280,88,222685,2,0,L|212:67,1,69.9999978637696,10|2,0:2|0:2,0:0:0:0:
136,8,222877,22,0,P|70:19|53:83,1,139.999995727539,2|8,1:2|0:2,0:0:0:0:
112,136,223163,1,2,0:2:0:0:
136,128,223259,1,0,1:2:0:0:
176,256,223450,2,0,P|107:242|37:238,1,139.999995727539,10|2,0:2|1:2,0:0:0:0:
16,336,223736,1,2,0:2:0:0:
31,344,223832,2,0,P|64:333|98:328,1,69.9999978637696,8|2,0:2|1:2,0:0:0:0:
192,368,224023,2,0,P|225:378|259:383,1,69.9999978637696,2|2,0:2|1:2,0:0:0:0:
320,312,224214,1,10,0:2:0:0:
480,312,224405,38,0,L|493:380,2,69.9999978637696,2|2|10,1:2|1:2|1:2,0:0:0:0:
416,240,224692,2,0,P|381:240|347:231,2,69.9999978637696,2|2|2,1:2|1:2|1:2,0:0:0:0:
496,192,224978,22,0,P|500:157|503:122,1,69.9999978637696,10|2,1:2|1:2,0:0:0:0:
408,104,225170,2,0,P|394:71|379:40,1,69.9999978637696,14|2,1:2|1:2,0:0:0:0:
288,64,225361,2,0,P|260:42|231:22,1,69.9999978637696,2|14,1:2|1:2,0:0:0:0:
144,96,225552,5,2,1:2:0:0:
145,130,225647,1,2,1:2:0:0:
135,164,225743,1,10,1:2:0:0:
0,272,225934,22,0,P|53:232|115:258,1,139.999995727539,6|8,1:2|0:2,0:0:0:0:
120,336,226220,1,2,0:2:0:0:
272,384,226412,1,2,1:2:0:0:
295,367,226507,2,0,P|272:301|276:231,1,139.999995727539,10|2,0:2|1:2,0:0:0:0:
336,176,226794,2,0,L|404:191,1,69.9999978637696,2|8,0:2|0:2,0:0:0:0:
480,160,226985,1,2,1:2:0:0:
496,144,227080,1,2,0:2:0:0:
392,16,227271,1,10,0:2:0:0:
264,112,227463,22,0,P|210:67|142:61,1,139.999995727539,2|10,1:2|0:2,0:0:0:0:
72,96,227749,1,2,0:2:0:0:
64,120,227845,1,0,1:2:0:0:
168,216,228036,1,10,0:2:0:0:
176,248,228131,1,0,0:0:0:0:
184,280,228227,2,0,L|168:348,1,69.9999978637696,2|2,1:2|0:2,0:0:0:0:
80,384,228418,2,0,L|75:314,1,69.9999978637696,8|2,0:2|1:2,0:0:0:0:
24,240,228609,1,2,0:2:0:0:
160,112,228800,1,10,0:2:0:0:
184,280,228991,38,0,P|248:307|317:313,1,139.999995727539,2|8,1:2|0:2,0:0:0:0:
376,264,229278,1,2,0:2:0:0:
384,240,229373,1,0,1:2:0:0:
512,160,229564,1,10,0:2:0:0:
432,24,229756,2,0,L|362:30,1,69.9999978637696,6|0,1:2|0:0,0:0:0:0:
296,104,229947,1,8,0:2:0:0:
264,89,230042,1,2,1:2:0:0:
231,77,230138,1,2,0:2:0:0:
197,69,230233,1,2,1:2:0:0:
162,64,230329,2,0,P|131:80|97:89,1,69.9999978637696,10|10,0:2|0:2,0:0:0:0:
16,208,230520,21,6,1:2:0:0:
19,241,230615,1,2,1:2:0:0:
42,267,230711,1,2,1:2:0:0:
76,274,230806,1,14,1:2:0:0:
107,261,230902,2,0,P|104:226|94:192,1,69.9999978637696,2|2,1:2|1:2,0:0:0:0:
208,160,231093,2,0,P|197:193|195:228,1,69.9999978637696,10|2,1:2|1:2,0:0:0:0:
272,328,231284,37,14,0:2:0:0:
313,358,231379,1,10,0:2:0:0:
364,358,231475,1,10,0:2:0:0:
405,326,231570,1,14,0:2:0:0:
417,276,231666,2,0,P|407:242|401:207,1,69.9999978637696,10|10,0:2|0:2,0:0:0:0:
328,112,231857,2,0,P|322:146|312:180,1,69.9999978637696,10|10,0:2|0:2,0:0:0:0:
176,328,232049,38,0,L|180:375,3,46.6666652425131,8|8|8|8,0:2|0:2|0:2|0:2,0:0:0:0:
80,352,232367,6,0,B|92:281|92:281|121:253|121:253|136:167,1,200,8|0,0:2|0:2,0:0:0:0:
104,72,232813,53,4,1:2:0:0:
256,192,232908,12,0,238163,0:2:0:0:
