osu file format v14

[General]
AudioFilename: Hanabasami Kyo - Namae no Nai Kaibutsu.mp3
AudioLeadIn: 0
PreviewTime: 194678
Countdown: 0
SampleSet: Soft
StackLeniency: 0.3
Mode: 0
LetterboxInBreaks: 0
WidescreenStoryboard: 0

[Editor]
Bookmarks: 2734,29401,50734,72068,93401,109401,130734,152068,173401,194734,216068,237401,258734,280068,302068,312733
DistanceSpacing: 0.5
BeatDivisor: 4
GridSize: 32
TimelineZoom: 3

[Metadata]
Title:Namae no Nai Kaibutsu
TitleUnicode:名前のない怪物
Artist:Hanabasami Kyo
ArtistUnicode:花鋏キョウ
Creator:frozz
Version:Nameless
Source:PSYCHO-PASS
Tags:サイコパス japanese pop rock vtuber virtual youtuber re:act kyou chelly egoist j-pop jpop j-rock jrock anime full version cover fzl_17 are kyo simp!
BeatmapID:2697374
BeatmapSetID:1300315

[Difficulty]
HPDrainRate:6
CircleSize:4
OverallDifficulty:8.5
ApproachRate:9.2
SliderMultiplier:1.8
SliderTickRate:1

[Events]
//Background and Video events
0,0,"Hanabasami Kyo - Namae no Nai Kaibutsu.jpg",0,0
Video,40,"Hanabasami Kyo - Namae no Nai Kaibutsu.mp4"
//Break Periods
//Storyboard Layer 0 (Background)
//Storyboard Layer 1 (Fail)
//Storyboard Layer 2 (Pass)
//Storyboard Layer 3 (Foreground)
//Storyboard Layer 4 (Overlay)
//Storyboard Sound Samples

[TimingPoints]
2734,333.333333333333,4,2,2,70,1,0
2734,-166.666666666667,4,2,2,70,0,0
3900,-166.666666666667,4,2,2,5,0,0
4067,-166.666666666667,4,2,2,70,0,0
5233,-166.666666666667,4,2,2,5,0,0
5400,-166.666666666667,4,2,2,70,0,0
6567,-166.666666666667,4,2,2,5,0,0
6733,-166.666666666667,4,2,2,70,0,0
7900,-166.666666666667,4,2,2,5,0,0
8067,-66.6666666666667,4,2,2,70,0,0
8400,-66.6666666666667,4,2,2,5,0,0
8567,-66.6666666666667,4,2,2,70,0,0
8900,-66.6666666666667,4,2,2,5,0,0
9067,-769.230769230769,4,2,2,70,0,0
10400,-769.230769230769,4,2,2,5,0,0
10733,-175.438596491228,4,2,2,70,0,0
11983,-175.438596491228,4,2,2,5,0,0
12067,-133.333333333333,4,2,2,70,0,0
12650,-133.333333333333,4,2,2,5,0,0
12733,-133.333333333333,4,2,2,70,0,0
12900,-99.9999999999999,4,2,2,70,0,0
13233,-99.9999999999999,4,2,2,5,0,0
13400,-142.857142857143,4,2,2,70,0,0
14567,-142.857142857143,4,2,2,5,0,0
14733,-142.857142857143,4,2,2,70,0,0
15900,-142.857142857143,4,2,2,5,0,0
16067,-142.857142857143,4,2,2,70,0,0
17233,-142.857142857143,4,2,2,5,0,0
17400,-166.666666666667,4,2,2,70,0,0
18567,-166.666666666667,4,2,2,5,0,0
18733,-66.6666666666667,4,2,2,70,0,0
19067,-66.6666666666667,4,2,2,5,0,0
19233,-66.6666666666667,4,2,2,70,0,0
19567,-66.6666666666667,4,2,2,5,0,0
19733,-769.230769230769,4,2,2,70,0,0
21067,-769.230769230769,4,2,2,5,0,0
21400,-200,4,2,2,70,0,0
22567,-200,4,2,2,5,0,0
22733,-166.666666666667,4,2,2,70,0,0
24067,-166.666666666667,4,2,2,50,0,0
28817,-166.666666666667,4,2,2,5,0,0
28900,-100,4,2,2,60,0,0
29317,-100,4,2,2,5,0,0
29400,-200,4,2,1,50,0,0
46734,-166.666666666667,4,2,1,50,0,0
47983,-166.666666666667,4,2,1,5,0,0
48067,-142.857142857143,4,2,1,50,0,0
49233,-125,4,2,1,50,0,0
50733,-100,4,2,1,60,0,0
53317,-100,4,2,1,5,0,0
53400,-100,4,2,1,60,0,0
53650,-100,4,2,1,5,0,0
53733,-100,4,2,1,60,0,0
69567,-125,4,2,1,60,0,0
70900,-100,4,2,1,60,0,0
71983,-100,4,2,1,5,0,0
72067,-83.3333333333333,4,2,1,85,0,1
81400,-83.3333333333333,4,2,1,85,0,0
81483,-83.3333333333333,4,2,1,5,0,0
81567,-66.6666666666667,4,2,1,85,0,0
81817,-66.6666666666667,4,2,1,5,0,0
81900,-58.8235294117647,4,2,1,85,0,0
82150,-58.8235294117647,4,2,1,5,0,0
82233,-52.6315789473684,4,2,1,85,0,0
82483,-52.6315789473684,4,2,1,5,0,0
82567,-43.4782608695652,4,2,1,85,0,0
82650,-43.4782608695652,4,2,1,5,0,0
82733,-83.3333333333333,4,2,1,85,0,1
88317,-83.3333333333333,4,2,1,5,0,1
88400,-83.3333333333333,4,2,1,85,0,1
93400,-166.666666666667,4,2,2,70,0,0
95733,-166.666666666667,4,2,2,5,0,0
95900,-166.666666666667,4,2,2,70,0,0
98567,-166.666666666667,4,2,2,5,0,0
98733,-200,4,2,1,40,0,0
102733,-166.666666666667,4,2,1,40,0,0
103900,-166.666666666667,4,2,1,5,0,0
104067,-166.666666666667,4,2,1,40,0,0
108317,-166.666666666667,4,2,1,5,0,0
108400,-142.857142857143,4,2,1,40,0,0
109233,-142.857142857143,4,2,1,5,0,0
109400,-200,4,2,1,50,0,0
126733,-166.666666666667,4,2,1,50,0,0
127983,-166.666666666667,4,2,1,5,0,0
128067,-142.857142857143,4,2,1,50,0,0
129233,-125,4,2,1,50,0,0
130733,-100,4,2,1,60,0,0
133317,-100,4,2,1,5,0,0
133400,-100,4,2,1,60,0,0
133650,-100,4,2,1,5,0,0
133733,-100,4,2,1,60,0,0
140733,-76.9230769230769,4,2,1,60,0,0
141400,-100,4,2,1,60,0,0
149567,-125,4,2,1,60,0,0
150900,-100,4,2,1,60,0,0
151983,-100,4,2,1,5,0,0
152067,-80,4,2,1,85,0,1
161400,-80,4,2,1,85,0,0
161483,-80,4,2,1,5,0,0
161567,-66.6666666666667,4,2,1,85,0,0
161817,-66.6666666666667,4,2,1,5,0,0
161900,-55.5555555555556,4,2,1,85,0,0
162150,-55.5555555555556,4,2,1,5,0,0
162233,-47.6190476190476,4,2,1,85,0,0
162483,-47.6190476190476,4,2,1,5,0,0
162567,-33.3333333333333,4,2,1,85,0,0
162650,-33.3333333333333,4,2,1,5,0,0
162733,-80,4,2,1,85,0,1
168317,-80,4,2,1,5,0,1
168400,-80,4,2,1,85,0,1
170983,-80,4,2,1,5,0,1
171067,-80,4,2,1,85,0,1
173400,-222.222222222222,4,2,2,70,0,0
175733,-222.222222222222,4,2,2,5,0,0
175900,-222.222222222222,4,2,2,70,0,0
177900,-222.222222222222,4,2,2,5,0,0
178067,-100,4,2,1,60,0,0
178650,-100,4,2,1,5,0,0
178733,-166.666666666667,4,2,1,50,0,0
184067,-111.111111111111,4,2,1,60,0,0
194067,-90.9090909090909,4,2,1,65,0,0
194400,-71.4285714285714,4,2,1,70,0,0
194733,-200,4,2,2,50,0,0
203900,-200,4,2,2,5,0,0
204067,-142.857142857143,4,2,1,60,0,0
205233,-142.857142857143,4,2,1,5,0,0
205400,-142.857142857143,4,2,1,60,0,0
215067,-117.647058823529,4,2,1,65,0,0
215400,-100,4,2,1,70,0,0
215733,-100,4,2,1,5,0,0
216067,-90.9090909090909,4,2,1,75,0,0
216817,-90.9090909090909,4,2,1,5,0,0
216900,-90.9090909090909,4,2,1,75,0,0
218150,-90.9090909090909,4,2,1,5,0,0
218233,-90.9090909090909,4,2,1,75,0,0
219483,-90.9090909090909,4,2,1,5,0,0
219567,-90.9090909090909,4,2,1,75,0,0
220817,-90.9090909090909,4,2,1,5,0,0
220900,-90.9090909090909,4,2,1,75,0,0
221400,-66.6666666666667,4,2,2,75,0,0
221733,-66.6666666666667,4,2,2,5,0,0
221900,-66.6666666666667,4,2,2,75,0,0
222233,-66.6666666666667,4,2,2,5,0,0
222400,-200,4,2,2,75,0,0
222733,-90.9090909090909,4,2,1,5,0,0
222900,-90.9090909090909,4,2,1,75,0,0
224650,-90.9090909090909,4,2,1,5,0,0
224733,-90.9090909090909,4,2,1,75,0,0
227483,-90.9090909090909,4,2,1,5,0,0
227567,-90.9090909090909,4,2,1,75,0,0
228817,-90.9090909090909,4,2,1,5,0,0
228900,-90.9090909090909,4,2,1,75,0,0
230150,-90.9090909090909,4,2,1,5,0,0
230233,-90.9090909090909,4,2,1,75,0,0
231483,-90.9090909090909,4,2,1,5,0,0
231567,-90.9090909090909,4,2,1,75,0,0
232067,-66.6666666666667,4,2,2,75,0,0
232400,-66.6666666666667,4,2,2,5,0,0
232567,-66.6666666666667,4,2,2,75,0,0
232900,-66.6666666666667,4,2,2,5,0,0
233067,-166.666666666667,4,2,2,75,0,0
233400,-90.9090909090909,4,2,1,5,0,0
233567,-90.9090909090909,4,2,1,75,0,0
235317,-90.9090909090909,4,2,1,5,0,0
235400,-90.9090909090909,4,2,1,75,0,0
235900,-111.111111111111,4,2,1,75,0,0
236150,-111.111111111111,4,2,1,5,0,0
236233,-111.111111111111,4,2,1,75,0,0
236483,-111.111111111111,4,2,1,5,0,0
236567,-66.6666666666667,4,2,1,75,0,0
236817,-66.6666666666667,4,2,1,5,0,0
236900,-55.5555555555556,4,2,1,75,0,0
237150,-55.5555555555556,4,2,1,5,0,0
237233,-47.6190476190476,4,2,1,75,0,0
237317,-47.6190476190476,4,2,1,5,0,0
237400,-200,4,2,1,50,0,0
242567,-200,4,2,1,5,0,0
242733,-200,4,2,1,50,0,0
246733,-153.846153846154,4,2,1,50,0,0
247900,-153.846153846154,4,2,1,5,0,0
248067,-125,4,2,1,60,0,0
256067,-111.111111111111,4,2,1,60,0,0
258400,-111.111111111111,4,2,1,5,0,0
258567,-111.111111111111,4,2,1,50,0,0
258650,-111.111111111111,4,2,1,5,0,0
258733,-76.9230769230769,4,2,1,85,0,1
258983,-76.9230769230769,4,2,1,5,0,1
259067,-76.9230769230769,4,2,1,85,0,1
261650,-76.9230769230769,4,2,1,5,0,1
261733,-76.9230769230769,4,2,1,85,0,1
264317,-76.9230769230769,4,2,1,5,0,1
264400,-76.9230769230769,4,2,1,85,0,1
265650,-76.9230769230769,4,2,1,5,0,1
265733,-76.9230769230769,4,2,1,85,0,1
268067,-76.9230769230769,4,2,1,85,0,0
268150,-76.9230769230769,4,2,1,5,0,0
268233,-58.8235294117647,4,2,1,85,0,0
268483,-58.8235294117647,4,2,1,5,0,0
268567,-50,4,2,1,85,0,0
268817,-50,4,2,1,5,0,0
268900,-43.4782608695652,4,2,1,85,0,0
269150,-43.4782608695652,4,2,1,5,0,0
269233,-37.037037037037,4,2,1,85,0,0
269317,-37.037037037037,4,2,1,5,0,0
269400,-76.9230769230769,4,2,1,85,0,1
269650,-76.9230769230769,4,2,1,5,0,1
269733,-76.9230769230769,4,2,1,85,0,1
272317,-76.9230769230769,4,2,1,5,0,1
272400,-76.9230769230769,4,2,1,85,0,1
274983,-76.9230769230769,4,2,1,5,0,1
275067,-76.9230769230769,4,2,1,85,0,1
276317,-76.9230769230769,4,2,1,5,0,1
276400,-76.9230769230769,4,2,1,85,0,1
277650,-76.9230769230769,4,2,1,5,0,1
277733,-76.9230769230769,4,2,1,85,0,1
280067,-90.9090909090909,4,2,1,75,0,0
280317,-90.9090909090909,4,2,1,5,0,0
280400,-90.9090909090909,4,2,1,75,0,0
286733,-71.4285714285714,4,2,1,75,0,0
286983,-71.4285714285714,4,2,1,5,0,0
287067,-100,4,2,1,75,0,0
287400,-83.3333333333333,4,2,1,75,0,0
287650,-83.3333333333333,4,2,1,5,0,0
287733,-100,4,2,1,75,0,0
288067,-90.9090909090909,4,2,1,75,0,0
288317,-90.9090909090909,4,2,1,5,0,0
288400,-90.9090909090909,4,2,1,75,0,0
288983,-90.9090909090909,4,2,1,5,0,0
289067,-90.9090909090909,4,2,1,75,0,0
289483,-90.9090909090909,4,2,1,5,0,0
289567,-66.6666666666667,4,2,1,75,0,0
289817,-66.6666666666667,4,2,1,5,0,0
289900,-55.5555555555556,4,2,1,75,0,0
290150,-55.5555555555556,4,2,1,5,0,0
290233,-47.6190476190476,4,2,1,75,0,0
290483,-47.6190476190476,4,2,1,5,0,0
290567,-47.6190476190476,4,2,1,75,0,0
290650,-47.6190476190476,4,2,1,5,0,0
290733,-90.9090909090909,4,2,1,75,0,0
292317,-90.9090909090909,4,2,1,5,0,0
292400,-90.9090909090909,4,2,1,75,0,0
292983,-90.9090909090909,4,2,1,5,0,0
293067,-90.9090909090909,4,2,1,75,0,0
293650,-90.9090909090909,4,2,1,5,0,0
293733,-90.9090909090909,4,2,1,75,0,0
298983,-90.9090909090909,4,2,1,5,0,0
299067,-90.9090909090909,4,2,1,75,0,0
302067,-487.80487804878,4,2,2,80,0,0
302733,-487.80487804878,4,2,2,75,0,0
303400,-487.80487804878,4,2,2,70,0,0
304067,-487.80487804878,4,2,2,65,0,0
304733,-487.80487804878,4,2,2,60,0,0
305400,-487.80487804878,4,2,2,55,0,0
306067,-487.80487804878,4,2,2,50,0,0
306733,-487.80487804878,4,2,2,45,0,0
307400,-487.80487804878,4,2,2,40,0,0
308067,-487.80487804878,4,2,2,35,0,0
308733,-487.80487804878,4,2,2,30,0,0
309400,-487.80487804878,4,2,2,25,0,0
310067,-487.80487804878,4,2,2,20,0,0
310733,-487.80487804878,4,2,2,15,0,0
311400,-487.80487804878,4,2,2,10,0,0
312067,-487.80487804878,4,2,2,5,0,0

[Colours]
Combo1 : 116,116,116
Combo2 : 170,85,255
Combo3 : 255,170,85
Combo4 : 85,85,255
Combo5 : 255,255,85
Combo6 : 255,85,85
Combo7 : 180,180,180

[HitObjects]
460,31,2734,86,0,B|393:41|336:-3|336:-3|348:129|272:238,1,377.999988464356,4|0,1:0|0:0,0:0:0:0:
365,322,4067,6,0,B|307:346|255:383|255:383|213:272|147:144,1,377.999988464356,2|0,0:0|0:0,0:0:0:0:
71,0,5400,86,0,B|-32:183|163:189|75:355,1,377.999988464356,2|0,0:0|0:0,0:0:0:0:
192,238,6733,6,0,B|280:195|284:86|248:13|165:-1|89:79|166:145,1,377.999988464356,2|0,0:0|0:0,0:0:0:0:
432,164,8067,70,0,B|461:232|461:232|379:163|286:150,1,270.000010299683,4|0,1:0|0:0,0:0:0:0:
139,310,8567,2,0,B|99:372|99:372|191:317|285:319,1,270.000010299683,4|0,1:0|0:0,0:0:0:0:
382,91,9067,6,0,L|356:1,1,93.5999994287109,4|0,1:0|0:0,0:0:0:0:
195,108,10733,6,0,B|157:175|213:228|298:223|343:160|275:99|315:62|394:58|437:111|404:166,1,384.749995303345,2|0,0:0|0:0,0:0:0:0:
406,166,12067,1,2,0:0:0:0:
300,309,12400,86,0,P|262:293|192:278,1,101.250003862381,4|0,0:3|0:0,0:0:0:0:
196,278,12733,1,0,1:2:0:0:
0,228,12900,2,0,P|89:220|176:190,1,180,4|0,0:3|0:0,0:0:0:0:
411,19,13400,6,0,B|380:-49|298:-38|267:27|272:103|332:148|354:53|407:140|391:223|320:251|265:222|257:182,1,440.999986541748,4|0,1:0|0:0,0:0:0:0:
173,34,14733,86,0,B|111:73|29:83|29:83|116:199|148:343,1,440.999986541748,2|0,0:0|0:0,0:0:0:0:
375,344,16067,6,0,P|299:201|292:366,1,440.999986541748,2|0,0:0|0:0,0:0:0:0:
337,77,17400,86,0,B|433:91|503:10|503:10|445:106|509:194,1,377.999988464356,2|0,0:0|0:0,0:0:0:0:
86,148,18733,86,0,B|53:143|24:175|24:175|50:117|107:131|107:131|132:181|195:183,1,270.000010299683,4|0,1:0|0:0,0:0:0:0:
331,240,19233,2,0,B|363:235|392:267|392:267|366:209|309:223|309:223|285:273|222:275,1,270.000010299683,4|0,1:0|0:0,0:0:0:0:
190,89,19733,6,0,L|217:-4,1,93.5999994287109,4|0,1:0|0:0,0:0:0:0:
338,202,21400,6,0,P|373:66|471:158,1,315,2|0,0:0|0:0,0:0:0:0:
327,353,22733,86,0,P|295:168|136:266,1,431.999986816407,2|4,0:0|0:1,0:0:0:0:
256,192,24150,12,0,26484,0:0:0:0:
256,192,26567,6,0,L|256:160,2,26.9999991760254,2|2|2,0:0|0:0|0:0,0:0:0:0:
256,192,26817,12,0,28484,0:0:0:0:
461,165,28567,86,0,P|444:204|433:240,1,80.9999975280763,2|0,0:0|0:0,0:0:0:0:
495,292,28900,2,0,B|443:262|379:282|413:336|354:368|295:333,1,225,2|0,0:0|0:0,0:0:0:0:
219,381,29400,6,0,P|214:342|187:278,1,90,2|0,1:2|3:0,0:0:0:0:
263,252,29900,2,0,P|268:213|295:149,1,90,2|0,0:0|1:2,0:0:0:0:
346,113,30400,1,0,3:0:0:0:
346,113,30567,1,2,0:0:0:0:
290,47,30733,86,0,P|249:59|188:85,1,90,0|0,1:2|3:0,0:0:0:0:
290,47,31567,5,0,1:2:0:0:
205,76,31733,1,0,3:0:0:0:
36,159,32067,86,0,P|77:171|138:197,1,90,0|0,1:2|3:0,0:0:0:0:
36,159,32900,5,0,1:2:0:0:
121,188,33067,1,0,3:0:0:0:
257,286,33400,86,0,P|216:298|155:324,1,90,0|0,1:2|3:0,0:0:0:0:
220,379,33900,2,0,P|252:367|279:360,1,45,2|0,0:0|1:2,0:0:0:0:
257,286,34233,5,2,1:2:0:0:
172,315,34400,1,0,3:0:0:0:
172,315,34567,1,2,0:0:0:0:
94,231,34733,86,0,P|110:189|118:128,1,90,0|0,1:2|3:0,0:0:0:0:
43,32,35400,1,2,0:0:0:0:
43,32,35567,2,0,P|49:54|64:85,1,45,2|0,1:2|3:0,0:0:0:0:
57,74,35900,1,2,0:0:0:0:
152,58,36067,6,0,P|188:45|255:29,1,90,0|0,1:2|3:0,0:0:0:0:
152,58,36900,85,0,1:2:0:0:
238,32,37067,1,0,3:0:0:0:
425,159,37400,6,0,P|389:146|322:130,1,90,0|0,1:2|3:0,0:0:0:0:
425,159,38233,85,0,1:2:0:0:
339,133,38400,1,0,3:0:0:0:
341,311,38733,6,0,P|377:298|444:282,1,90,0|0,1:2|3:0,0:0:0:0:
428,361,39233,2,0,P|406:367|385:375,1,45,2|0,0:0|1:2,0:0:0:0:
341,311,39567,85,2,1:2:0:0:
427,285,39733,1,0,3:0:0:0:
427,285,39900,1,2,0:0:0:0:
452,174,40067,6,0,P|440:137|433:69,1,90,0|0,1:2|3:0,0:0:0:0:
362,29,40567,2,0,P|356:73|343:116,1,90,2|0,0:0|1:2,0:0:0:0:
273,155,41067,1,0,3:0:0:0:
273,155,41233,1,2,0:0:0:0:
209,93,41400,86,0,P|173:70|115:57,1,90,0|0,1:2|3:0,0:0:0:0:
209,93,42233,5,0,1:2:0:0:
127,57,42400,1,0,3:0:0:0:
116,226,42733,86,0,P|152:203|210:190,1,90,0|0,1:2|3:0,0:0:0:0:
116,226,43567,5,0,1:2:0:0:
198,190,43733,1,0,3:0:0:0:
216,346,44067,86,0,P|180:323|122:310,1,90,0|0,1:2|3:0,0:0:0:0:
216,346,44733,5,2,0:0:0:0:
216,346,44900,1,2,1:2:0:0:
134,310,45067,1,0,3:0:0:0:
134,310,45233,1,2,0:0:0:0:
252,265,45400,86,0,P|276:257|343:245,1,90,0|0,1:2|3:0,0:0:0:0:
405,289,45900,2,0,P|430:308|449:317,1,45,2|0,0:0|0:0,0:0:0:0:
472,234,46233,2,0,P|500:221|518:209,1,45,2|0,1:2|3:0,0:0:0:0:
512,214,46567,1,2,0:0:0:0:
486,115,46733,5,2,1:2:0:0:
486,115,46900,1,0,1:2:0:0:
405,152,47067,2,0,P|367:140|340:138,1,53.9999983520508,0|0,3:0|3:0,0:0:0:0:
328,149,47317,1,0,3:0:0:0:
328,149,47400,1,0,1:2:0:0:
255,187,47567,1,0,1:2:0:0:
250,104,47733,2,0,P|207:102|157:84,1,80.9999975280763,0|0,3:0|0:0,0:0:0:0:
144,64,48067,86,0,P|100:76|26:129,1,125.999996154785,0|0,1:2|3:0,0:0:0:0:
45,214,48650,1,0,3:0:0:0:
49,220,48733,2,0,P|88:229|126:243,1,62.9999980773926,0|0,3:0|1:2,0:0:0:0:
175,287,49067,1,0,0:0:0:0:
278,189,49233,6,0,P|239:202|184:209,1,72,0|0,3:0|3:0,0:0:0:0:
183,206,49483,1,0,3:0:0:0:
183,206,49567,1,0,1:2:0:0:
264,280,49733,2,0,P|299:286|333:298,1,72,0|0,3:0|0:0,0:0:0:0:
400,371,50067,85,2,1:2:0:0:
400,371,50233,1,2,1:2:0:0:
442,151,50400,1,8,0:0:0:0:
442,151,50733,54,0,B|349:124|385:213|277:188,1,180,6|8,1:2|0:0,0:0:0:0:
197,118,51233,1,2,0:0:0:0:
274,45,51400,2,0,P|330:70|379:77,1,90,2|0,0:0|1:2,0:0:0:0:
442,151,51733,2,0,P|491:115|522:76,1,90,8|2,0:0|0:0,0:0:0:0:
418,264,52067,70,0,P|363:196|276:188,2,180,0|8|0,1:2|0:0|3:0,0:0:0:0:
364,343,52900,1,0,1:2:0:0:
272,289,53067,2,0,B|236:288|208:265|208:265|207:301|184:329,1,135,8|0,0:0|0:0,0:0:0:0:
275,274,53400,22,0,P|215:252|202:156,1,135,0|0,1:2|0:0,0:0:0:0:
199,172,53733,2,0,P|210:128|205:84,1,90,8|0,0:0|0:0,0:0:0:0:
325,9,54067,2,0,P|293:57|297:119,1,90,0|0,3:0|1:2,0:0:0:0:
337,177,54400,1,8,0:0:0:0:
469,80,54567,70,0,P|411:76|359:110,1,90,2|0,0:0|1:2,0:0:0:0:
337,177,54900,1,2,0:0:0:0:
487,243,55067,2,0,P|461:191|405:163,1,90,10|0,0:0|0:0,0:0:0:0:
337,177,55400,1,2,0:0:0:0:
337,177,55567,1,2,1:2:0:0:
312,299,55733,2,0,B|348:281|348:281|358:283|358:283|402:262,1,90,8|2,0:0|0:0,0:0:0:0:
244,384,56067,22,0,P|215:314|99:298,1,180,2|8,1:2|0:0,0:0:0:0:
3,259,56567,2,0,P|49:241|73:187,1,90,2|0,0:0|0:0,0:0:0:0:
182,187,56900,2,0,P|189:138|154:90,1,90,2|8,1:2|0:0,0:0:0:0:
113,8,57233,1,2,0:0:0:0:
0,103,57400,70,0,B|64:91|64:91|101:113|101:113|184:102,1,180,0|8,1:2|0:0,0:0:0:0:
512,250,58067,1,0,3:0:0:0:
436,196,58233,1,0,1:2:0:0:
351,234,58400,2,0,L|344:332,1,90,8|0,0:0|3:0,0:0:0:0:
337,333,58650,1,0,3:0:0:0:
329,342,58733,22,0,P|259:317|251:196,1,180,0|8,1:2|0:0,0:0:0:0:
316,42,59233,2,0,B|294:93,1,45,0|0,3:0|3:0,0:0:0:0:
323,249,59400,2,0,P|333:205|319:163,1,90,0|0,3:0|1:2,0:0:0:0:
162,180,59733,2,0,P|194:145|245:135,1,90,8|0,0:0|3:0,0:0:0:0:
243,118,59983,1,0,3:0:0:0:
252,101,60067,70,0,B|190:90|190:90|141:106|141:106|38:86,1,180,0|8,1:2|0:0,0:0:0:0:
14,248,60567,1,0,1:2:0:0:
20,259,60650,1,0,1:2:0:0:
26,270,60733,2,0,P|64:229|76:168,1,90,2|0,1:2|1:2,0:0:0:0:
0,19,61067,1,8,0:0:0:0:
130,310,61400,22,0,B|187:305|187:305|227:334|227:334|320:328,1,180,6|8,1:2|0:0,0:0:0:0:
374,261,61900,1,2,0:0:0:0:
305,185,62067,2,0,P|262:205|223:243,1,90,2|0,0:0|1:2,0:0:0:0:
125,221,62400,2,0,P|120:265|129:309,1,90,8|2,0:0|0:0,0:0:0:0:
166,115,62733,70,0,P|101:132|13:63,2,180,0|8|0,1:2|0:0|3:0,0:0:0:0:
197,14,63567,1,0,1:2:0:0:
336,96,63733,2,0,P|281:83|231:104,1,90,8|0,0:0|3:0,0:0:0:0:
246,108,63983,1,0,3:0:0:0:
242,124,64067,22,0,B|281:184|281:184|397:168,1,180,0|8,1:2|0:0,0:0:0:0:
220,322,64733,1,0,3:0:0:0:
157,257,64900,1,0,1:2:0:0:
75,295,65067,2,0,B|85:330|85:330|158:356,1,90,8|0,0:0|0:0,0:0:0:0:
308,365,65400,70,0,P|330:296|450:291,1,180,0|8,1:2|0:0,0:0:0:0:
512,160,65900,2,0,P|460:186|412:182,1,90,2|0,0:0|1:2,0:0:0:0:
328,226,66233,2,0,P|279:193|258:150,1,90,2|8,1:2|0:0,0:0:0:0:
290,57,66567,1,2,0:0:0:0:
110,8,66733,22,0,B|140:50|140:50|123:208,1,180,0|8,1:2|0:0,0:0:0:0:
111,330,67233,1,2,0:0:0:0:
0,267,67400,2,0,P|51:242|105:259,1,90,2|0,0:0|1:2,0:0:0:0:
197,219,67733,2,0,P|243:251|255:306,1,90,8|2,0:0|0:0,0:0:0:0:
334,376,68067,70,0,B|344:321|344:321|341:313|341:313|363:197,2,180,0|8|0,1:2|0:0|3:0,0:0:0:0:
434,293,68900,1,0,1:2:0:0:
443,144,69067,2,2,L|234:175,1,180,8|0,0:0|0:0,0:0:0:0:
116,109,69567,70,0,P|150:122|175:159,1,72,0|0,3:0|0:0,0:0:0:0:
171,149,69900,1,0,3:0:0:0:
264,170,70067,2,0,P|269:205|250:246,1,72,0|0,3:0|0:0,0:0:0:0:
256,238,70400,1,0,3:0:0:0:
285,328,70567,2,0,P|256:350|212:354,1,72,0|0,3:0|0:0,0:0:0:0:
65,286,70900,6,0,P|110:276|154:272,1,90,8|0,0:0|1:2,0:0:0:0:
285,328,71233,1,0,1:2:0:0:
362,199,71400,2,0,P|378:143|433:5,1,180,8|0,0:0|0:0,0:0:0:0:
421,29,71900,102,0,P|435:61|449:98,1,45,2|0,0:0|0:0,0:0:0:0:
448,288,72067,22,0,B|375:267|375:267|361:197|361:197|284:176,1,215.999993408203,6|10,1:2|0:0,0:0:0:0:
175,240,72567,1,2,0:0:0:0:
278,376,72733,2,0,P|300:304|281:266,1,107.999996704102,0|0,1:2|0:0,0:0:0:0:
185,140,73067,2,0,P|163:212|182:250,1,107.999996704102,8|2,0:0|3:2,0:0:0:0:
186,248,73317,1,0,3:0:0:0:
197,256,73400,21,2,1:2:0:0:
47,171,73567,1,2,0:0:0:0:
132,21,73733,1,10,0:0:0:0:
282,106,73900,1,2,0:0:0:0:
47,171,74067,1,2,1:2:0:0:
146,347,74233,2,0,P|192:307|208:244,1,107.999996704102,2|8,0:0|0:0,0:0:0:0:
185,140,74567,1,2,0:0:0:0:
349,276,74733,70,0,B|286:222|286:222|320:87,1,215.999993408203,2|10,1:2|0:0,0:0:0:0:
480,44,75233,1,2,3:2:0:0:
487,53,75317,1,0,3:2:0:0:
494,62,75400,2,0,P|441:106|379:99,1,107.999996704102,0|0,1:2|0:0,0:0:0:0:
349,276,75733,2,0,P|284:252|259:194,1,107.999996704102,8|2,0:0|3:2,0:0:0:0:
272,202,75983,1,2,3:2:0:0:
279,182,76067,21,2,1:2:0:0:
415,382,76233,1,2,0:0:0:0:
447,214,76400,1,10,0:0:0:0:
247,350,76567,1,2,0:0:0:0:
279,182,76733,1,2,1:2:0:0:
415,382,76900,2,0,P|372:334|372:282,1,107.999996704102,2|8,0:0|0:0,0:0:0:0:
438,109,77233,1,2,0:0:0:0:
209,38,77400,70,0,B|196:97|196:97|202:120|202:120|178:249,1,215.999993408203,2|10,1:2|0:0,0:0:0:0:
51,345,77900,2,0,L|30:232,1,107.999996704102,2|0,0:0|1:2,0:0:0:0:
113,151,78233,1,2,0:0:0:0:
263,246,78400,1,10,0:0:0:0:
182,334,78567,1,2,0:0:0:0:
235,143,78733,22,0,B|277:123|333:137|312:218|377:223|426:197,1,215.999993408203,2|10,1:2|0:0,0:0:0:0:
483,70,79233,2,0,P|417:92|386:138,1,107.999996704102,2|0,0:0|1:2,0:0:0:0:
347,274,79567,1,2,0:0:0:0:
235,143,79733,2,0,P|221:211|245:261,1,107.999996704102,10|2,0:0|0:0,0:0:0:0:
418,366,80067,70,0,B|368:338|343:287|343:287|308:326|252:338,1,215.999993408203,2|8,1:2|0:0,0:0:0:0:
69,333,80567,1,2,3:2:0:0:
59,313,80650,1,0,3:2:0:0:
49,293,80733,2,0,P|92:251|177:258,1,107.999996704102,0|0,1:2|0:0,0:0:0:0:
252,338,81067,1,10,0:0:0:0:
137,243,81233,1,2,0:0:0:0:
256,112,81400,38,0,L|256:58,1,53.9999983520508,8|0,0:0|0:0,0:0:0:0:
378,312,81567,6,0,B|398:361|398:361|330:318|260:302,1,202.500007724762,4|0,1:3|0:0,0:0:0:0:
82,217,81900,86,0,B|58:274|58:274|138:224|219:205,1,229.500004377365,4|0,1:3|0:0,0:0:0:0:
451,159,82233,6,0,B|477:224|477:224|386:167|294:146,1,256.499993150711,4|0,1:3|0:0,0:0:0:0:
256,58,82567,86,0,B|239:26|256:4|256:4|273:27|255:59,1,103.500001974106,4|0,1:3|0:0,0:0:0:0:
0,147,82733,54,0,B|66:129|66:129|89:55|89:55|172:34,1,215.999993408203,6|10,1:2|0:0,0:0:0:0:
306,149,83233,1,2,0:0:0:0:
355,30,83400,2,0,P|297:31|245:69,1,107.999996704102,0|0,1:2|0:0,0:0:0:0:
210,206,83733,2,0,P|182:256|189:320,1,107.999996704102,8|2,0:0|3:2,0:0:0:0:
197,316,83983,1,0,3:0:0:0:
209,325,84067,21,2,1:2:0:0:
76,228,84233,1,2,0:0:0:0:
173,95,84400,1,10,0:0:0:0:
306,192,84567,1,2,0:0:0:0:
76,228,84733,1,2,1:2:0:0:
324,307,84900,2,0,P|376:285|449:302,1,107.999996704102,2|8,0:0|0:0,0:0:0:0:
512,384,85233,1,2,0:0:0:0:
464,168,85400,70,0,B|430:27|430:27|502:95,1,215.999993408203,2|10,1:2|0:0,0:0:0:0:
426,290,85900,1,2,0:0:0:0:
306,192,86067,2,0,P|250:176|193:194,1,107.999996704102,0|0,1:2|0:0,0:0:0:0:
95,142,86400,2,0,P|53:182|40:240,1,107.999996704102,8|2,0:0|3:2,0:0:0:0:
55,246,86650,1,0,3:0:0:0:
69,262,86733,21,2,1:2:0:0:
188,71,86900,1,2,0:0:0:0:
263,277,87067,1,10,0:0:0:0:
185,54,87233,1,2,0:0:0:0:
83,278,87400,1,2,1:2:0:0:
306,192,87567,2,0,P|362:240|375:290,1,107.999996704102,2|8,0:0|0:0,0:0:0:0:
335,384,87900,1,2,0:0:0:0:
478,276,88067,70,0,B|464:216|464:216|474:182|474:182|458:118,1,161.999995056153,2|0,1:2|0:0,0:0:0:0:
454,102,88400,1,10,0:0:0:0:
281,6,88567,2,0,P|318:58|381:77,1,107.999996704102,2|0,0:0|1:2,0:0:0:0:
491,17,88900,1,2,0:0:0:0:
357,75,89067,1,10,0:0:0:0:
340,220,89233,1,2,0:0:0:0:
99,153,89400,22,0,B|150:91|150:91|277:137,1,215.999993408203,2|10,1:2|0:0,0:0:0:0:
510,115,89900,2,0,P|456:153|379:146,1,107.999996704102,2|0,0:0|1:2,0:0:0:0:
277,136,90233,1,2,0:0:0:0:
334,322,90400,2,0,P|274:294|241:224,1,107.999996704102,10|2,0:0|0:0,0:0:0:0:
161,6,90733,70,0,P|259:35|277:137,1,215.999993408203,10|2,0:0|1:2,0:0:0:0:
166,318,91233,2,0,B|182:238|182:238|164:177|164:177|179:107,1,215.999993408203,10|2,0:0|1:2,0:0:0:0:
39,212,91733,2,0,B|61:317,1,107.999996704102,10|0,0:0|0:0,0:0:0:0:
230,383,92067,22,0,P|254:323|244:266,1,107.999996704102,10|0,0:0|0:0,0:0:0:0:
264,264,92317,1,8,0:0:0:0:
278,246,92400,2,0,L|265:120,1,107.999996704102,2|10,1:2|0:0,0:0:0:0:
392,0,92733,2,0,P|368:60|378:117,1,107.999996704102,0|8,1:2|0:0,0:0:0:0:
443,187,93067,1,8,0:0:0:0:
473,183,93150,1,8,0:0:0:0:
505,179,93233,1,8,0:0:0:0:
259,330,93400,22,0,B|320:343|373:318|406:253|403:187|353:130|295:106|225:115|220:179|182:236|105:214|57:173|35:101|41:36|84:-19|158:-26|218:10,1,755.999976928712,4|0,1:0|0:0,0:0:0:0:
219,10,95900,1,2,0:0:0:0:
397,39,96067,6,0,B|445:-1|530:0|577:87|521:145|459:172|398:156|349:117|349:117|353:107|353:107|316:47|239:35|191:86|191:86|164:84|164:84|176:162|234:206|316:185,1,809.999975280762,2|0,0:0|0:0,0:0:0:0:
438,242,98733,86,0,P|403:239|381:244,1,45,0|0,1:2|0:0,0:0:0:0:
392,240,99067,2,0,P|364:259|350:278,1,45,0|0,3:0|0:0,0:0:0:0:
438,242,99567,5,0,1:2:0:0:
357,268,99733,1,0,3:0:0:0:
238,359,100067,86,0,P|223:328|207:311,1,45,0|0,1:2|0:0,0:0:0:0:
216,318,100400,2,0,P|184:303|162:301,1,45,0|0,3:0|0:0,0:0:0:0:
238,359,100900,5,0,1:2:0:0:
174,301,101067,1,0,3:0:0:0:
44,256,101400,86,0,P|63:227|69:205,1,45,0|0,1:2|0:0,0:0:0:0:
68,216,101733,2,0,P|64:181|55:160,1,45,0|0,3:0|0:0,0:0:0:0:
44,256,102233,5,0,1:2:0:0:
62,171,102400,1,0,3:0:0:0:
6,30,102733,86,2,B|62:-24|149:10|122:81|127:84|131:85|99:168|175:237|256:173,1,377.999988464356,2|0,1:2|0:0,0:0:0:0:
321,264,104067,6,0,P|281:293|271:311,1,53.9999983520508,0|0,1:2|0:0,0:0:0:0:
266,348,104400,2,0,P|267:321|277:296,1,53.9999983520508,0|0,3:0|0:0,0:0:0:0:
352,342,104900,85,0,1:2:0:0:
363,348,105067,1,0,3:0:0:0:
408,217,105400,6,0,P|413:266|423:283,1,53.9999983520508,0|0,1:2|0:0,0:0:0:0:
453,306,105733,2,0,P|430:291|414:270,1,53.9999983520508,0|0,3:0|0:0,0:0:0:0:
491,229,106233,85,0,1:2:0:0:
501,222,106400,1,0,3:0:0:0:
413,125,106733,6,0,P|458:145|478:144,1,53.9999983520508,0|0,1:2|0:0,0:0:0:0:
512,130,107067,2,0,P|488:142|461:145,1,53.9999983520508,0|0,3:0|0:0,0:0:0:0:
464,59,107567,85,0,1:2:0:0:
463,47,107733,1,0,3:0:0:0:
226,49,108067,6,0,P|244:75|263:134,1,80.9999975280763,0|0,1:2|0:0,0:0:0:0:
333,167,108400,2,2,B|280:106|165:137|224:224|132:270|64:218,1,314.999990386963,0|0,3:0|0:0,0:0:0:0:
63,49,109400,86,0,P|77:97|87:148,1,90,2|0,1:2|3:0,0:0:0:0:
158,177,109900,1,2,0:0:0:0:
158,177,110067,2,0,P|141:214|134:234,2,45,2|0|0,0:0|1:2|3:0,0:0:0:0:
199,286,110567,1,2,0:0:0:0:
199,286,110733,6,0,P|233:271|299:254,1,90,0|0,1:2|3:0,0:0:0:0:
199,286,111567,85,0,1:2:0:0:
284,257,111733,1,0,3:0:0:0:
472,202,112067,6,0,P|437:187|371:170,1,90,0|0,1:2|3:0,0:0:0:0:
472,202,112900,85,0,1:2:0:0:
387,173,113067,1,0,3:0:0:0:
202,106,113400,6,0,P|236:91|302:74,1,90,0|0,1:2|3:0,0:0:0:0:
295,157,113900,2,0,P|263:166|233:178,1,45,2|0,0:0|0:0,0:0:0:0:
202,106,114233,85,2,1:2:0:0:
287,77,114400,1,0,3:0:0:0:
287,77,114567,1,2,0:0:0:0:
420,89,114733,6,0,P|401:126|384:187,1,90,0|0,1:2|3:0,0:0:0:0:
326,229,115233,1,2,0:0:0:0:
326,229,115400,2,0,P|335:252|344:284,2,45,2|0|0,0:0|1:2|3:0,0:0:0:0:
272,331,115900,1,2,0:0:0:0:
272,331,116067,86,0,P|246:304|191:281,1,90,0|0,1:2|3:0,0:0:0:0:
272,331,116900,5,0,1:2:0:0:
198,282,117067,1,0,3:0:0:0:
0,275,117400,86,0,P|26:248|81:225,1,90,0|0,1:2|3:0,0:0:0:0:
0,275,118233,5,0,1:2:0:0:
74,226,118400,1,0,3:0:0:0:
257,161,118733,86,0,P|231:134|176:111,1,90,0|0,1:2|3:0,0:0:0:0:
257,161,119400,5,2,1:2:0:0:
257,161,119567,1,2,1:2:0:0:
183,112,119733,1,0,3:0:0:0:
183,112,119900,1,2,0:0:0:0:
310,73,120067,86,0,P|293:102|269:168,1,90,0|0,1:2|3:0,0:0:0:0:
193,217,120567,1,2,0:0:0:0:
193,217,120733,2,0,P|211:246|217:268,2,45,2|0|0,0:0|1:2|3:0,0:0:0:0:
292,298,121233,1,2,0:0:0:0:
292,298,121400,6,0,P|321:276|379:252,1,90,0|0,1:2|3:0,0:0:0:0:
292,298,122233,85,0,1:2:0:0:
369,254,122400,1,0,3:0:0:0:
272,154,122733,6,0,P|243:132|185:108,1,90,0|0,1:2|3:0,0:0:0:0:
272,154,123567,85,0,1:2:0:0:
195,110,123733,1,0,3:0:0:0:
363,65,124067,6,0,P|392:43|450:19,1,90,0|0,1:2|3:0,0:0:0:0:
463,94,124567,2,0,P|438:106|416:125,1,45,2|0,0:0|0:0,0:0:0:0:
363,65,124900,85,2,1:2:0:0:
440,21,125067,1,0,3:0:0:0:
440,21,125233,1,2,0:0:0:0:
294,0,125400,6,0,P|320:40|336:98,1,90,0|0,1:2|3:0,0:0:0:0:
274,143,125900,2,0,P|259:175|255:199,1,45,2|0,0:0|0:0,0:0:0:0:
202,245,126233,2,0,P|222:273|240:289,1,45,2|0,1:2|3:0,0:0:0:0:
229,280,126567,1,2,0:0:0:0:
310,348,126733,85,0,1:2:0:0:
310,348,126900,1,0,1:2:0:0:
365,282,127067,2,0,P|399:271|431:268,1,53.9999983520508,0|0,3:0|3:0,0:0:0:0:
439,280,127317,1,0,3:0:0:0:
439,280,127400,1,0,1:2:0:0:
506,224,127567,1,0,1:2:0:0:
451,152,127733,2,0,P|414:171|361:177,1,80.9999975280763,0|0,3:0|0:0,0:0:0:0:
343,163,128067,6,0,P|306:120|236:98,1,125.999996154785,0|0,1:2|3:0,0:0:0:0:
124,177,128650,1,0,3:0:0:0:
128,184,128733,2,0,P|162:175|199:162,1,62.9999980773926,0|0,3:0|1:2,0:0:0:0:
264,217,129067,1,0,0:0:0:0:
192,279,129233,86,0,P|151:265|101:258,1,72,0|0,3:0|3:0,0:0:0:0:
94,280,129483,1,0,3:0:0:0:
94,280,129567,1,0,1:2:0:0:
267,138,129733,2,0,P|302:130|336:118,1,72,0|0,3:0|0:0,0:0:0:0:
403,40,130067,5,2,1:2:0:0:
403,40,130233,1,2,1:2:0:0:
434,231,130400,1,8,0:0:0:0:
434,231,130733,38,0,B|338:202|368:300|269:268,1,180,6|8,1:2|0:0,0:0:0:0:
165,241,131233,1,2,0:0:0:0:
221,146,131400,2,0,P|289:158|326:184,1,90,2|0,0:0|1:2,0:0:0:0:
410,145,131733,2,0,P|433:209|429:254,1,90,8|2,0:0|0:0,0:0:0:0:
258,52,132067,70,0,B|309:51|342:81|342:81|351:32|382:-9,2,180,0|8|0,1:2|0:0|3:0,0:0:0:0:
221,146,132900,1,0,1:2:0:0:
128,48,133067,2,0,B|99:81|97:115|97:115|30:97,1,135,8|0,0:0|0:0,0:0:0:0:
135,55,133400,22,0,P|113:106|121:216,1,135,0|0,1:2|0:0,0:0:0:0:
125,204,133733,2,0,P|152:250|141:317,1,90,8|0,0:0|0:0,0:0:0:0:
237,328,134067,2,0,P|240:283|264:246,1,90,0|0,3:0|1:2,0:0:0:0:
358,213,134400,1,8,0:0:0:0:
383,378,134567,70,0,P|346:352|326:312,1,90,0|0,3:0|1:2,0:0:0:0:
358,213,134900,1,0,3:0:0:0:
498,278,135067,2,0,P|457:297|413:294,1,90,8|0,0:0|0:0,0:0:0:0:
358,213,135400,1,2,0:0:0:0:
358,213,135567,1,2,1:2:0:0:
462,97,135733,2,0,B|456:135|456:135|459:147|459:147|453:186,1,90,8|2,0:0|0:0,0:0:0:0:
367,43,136067,22,0,P|331:0|196:15,1,180,0|8,1:2|0:0,0:0:0:0:
128,115,136567,2,0,P|196:132|226:177,1,90,2|0,0:0|0:0,0:0:0:0:
325,174,136900,2,0,P|344:241|320:289,1,90,2|8,1:2|0:0,0:0:0:0:
258,344,137233,1,2,0:0:0:0:
81,245,137400,70,0,B|137:240|137:240|147:247|147:247|265:236,1,180,0|8,1:2|0:0,0:0:0:0:
482,84,138067,1,0,3:0:0:0:
405,17,138233,1,0,1:2:0:0:
315,66,138400,2,0,P|300:116|300:169,1,90,8|0,0:0|3:0,0:0:0:0:
312,164,138650,1,0,3:0:0:0:
325,174,138733,22,0,P|405:179|456:278,1,180,0|8,1:2|0:0,0:0:0:0:
224,256,139233,2,0,B|277:248,1,45,0|0,3:0|3:0,0:0:0:0:
326,354,139400,2,0,P|349:316|354:272,1,90,0|0,3:0|1:2,0:0:0:0:
208,376,139733,2,0,P|171:349|150:310,1,90,8|0,0:0|3:0,0:0:0:0:
149,287,139983,1,0,3:0:0:0:
150,264,140067,70,0,B|168:199|168:199|155:167|155:167|176:83,1,180,0|8,1:2|0:0,0:0:0:0:
347,82,140567,1,2,1:2:0:0:
352,70,140650,1,0,1:2:0:0:
357,58,140733,2,0,B|318:12|318:12|257:63,1,116.999994644165,2|0,1:2|1:2,0:0:0:0:
411,164,141067,2,0,P|479:150|500:84,1,116.999994644165,8|0,0:0|3:0,0:0:0:0:
493,100,141317,1,0,3:0:0:0:
485,87,141400,22,0,B|467:140|467:140|481:184|481:184|453:273,1,180,6|8,1:2|0:0,0:0:0:0:
405,378,141900,1,2,0:0:0:0:
354,272,142067,2,0,P|298:252|254:262,1,90,2|0,0:0|1:2,0:0:0:0:
164,219,142400,2,0,P|118:257|105:300,1,90,8|2,0:0|0:0,0:0:0:0:
113,122,142733,70,0,P|45:117|-5:3,2,180,0|8|0,1:2|0:0|3:0,0:0:0:0:
176,27,143567,1,0,1:2:0:0:
291,136,143733,2,0,P|246:114|195:125,1,90,8|0,0:0|3:0,0:0:0:0:
203,131,143983,1,0,3:0:0:0:
198,143,144067,22,0,B|188:217|188:217|320:276,1,180,0|8,1:2|0:0,0:0:0:0:
512,82,144733,1,0,3:0:0:0:
436,26,144900,1,0,1:2:0:0:
380,102,145067,2,0,P|363:152|366:203,1,90,8|0,0:0|0:0,0:0:0:0:
512,379,145400,70,0,P|488:300|385:274,1,180,0|8,1:2|0:0,0:0:0:0:
327,181,145900,2,0,P|275:189|241:229,1,90,2|0,0:0|0:0,0:0:0:0:
136,223,146233,2,0,P|116:272|134:321,1,90,2|8,1:2|0:0,0:0:0:0:
209,375,146567,1,2,0:0:0:0:
194,148,146733,22,0,B|232:35|232:35|168:73,1,180,0|8,1:2|0:0,0:0:0:0:
16,118,147233,2,0,P|57:136|125:123,1,90,2|0,0:0|0:0,0:0:0:0:
229,227,147567,2,0,P|265:200|287:135,1,90,2|8,1:2|0:0,0:0:0:0:
233,35,147900,1,2,0:0:0:0:
391,61,148067,70,0,B|376:123|376:123|387:161|387:161|369:247,2,180,0|8|0,1:2|0:0|3:0,0:0:0:0:
285,160,148900,1,0,1:2:0:0:
470,264,149067,2,2,L|268:310,1,180,8|0,0:0|0:0,0:0:0:0:
218,253,149567,70,0,P|178:278|161:314,1,72,0|0,3:0|0:0,0:0:0:0:
165,298,149900,1,0,3:0:0:0:
135,208,150067,2,0,P|93:185|53:189,1,72,0|0,3:0|3:0,0:0:0:0:
63,188,150289,2,0,L|44:201,2,24,0|0|0,3:0|3:0|3:0,3:0:0:0:
132,113,150567,2,0,P|130:65|107:33,1,72,0|0,3:0|0:0,0:0:0:0:
306,126,150900,6,0,P|260:136|219:149,1,90,8|0,0:0|1:2,0:0:0:0:
69,184,151233,1,0,1:2:0:0:
165,298,151400,2,0,P|220:323|345:366,1,180,8|0,0:0|0:0,0:0:0:0:
332,362,151900,86,0,P|316:327|307:310,1,45,2|0,0:0|0:0,0:0:0:0:
471,110,152067,38,0,B|443:174|443:174|466:226|466:226|413:349,1,225,6|10,1:2|0:0,0:0:0:0:
332,362,152567,1,2,0:0:0:0:
234,159,152733,2,0,P|302:185|341:236,1,112.5,0|0,1:2|0:0,0:0:0:0:
496,43,153067,2,0,P|454:80|401:96,1,112.5,8|2,0:0|3:2,0:0:0:0:
393,87,153317,1,0,3:0:0:0:
384,77,153400,21,2,1:2:0:0:
466,227,153567,1,2,0:0:0:0:
316,309,153733,1,10,0:0:0:0:
234,159,153900,1,2,0:0:0:0:
466,227,154067,1,2,1:2:0:0:
200,275,154233,2,0,P|140:249|64:253,1,112.5,2|8,0:0|0:0,0:0:0:0:
0,384,154567,1,2,0:0:0:0:
125,152,154733,70,0,B|174:5|174:5|94:74,1,225,2|10,1:2|0:0,0:0:0:0:
93,247,155233,1,2,0:0:0:0:
225,116,155400,2,0,P|160:123|114:168,1,112.5,0|0,1:2|0:0,0:0:0:0:
401,96,155733,2,0,P|336:89|290:44,1,112.5,8|2,0:0|3:2,0:0:0:0:
304,48,155983,1,2,3:2:0:0:
307,35,156067,21,2,1:2:0:0:
507,213,156233,1,2,0:0:0:0:
496,24,156400,1,10,0:0:0:0:
318,224,156567,1,2,0:0:0:0:
307,35,156733,1,2,1:2:0:0:
506,212,156900,2,0,P|477:168|426:140,1,112.5,2|8,0:0|0:0,0:0:0:0:
306,351,157233,1,2,0:0:0:0:
235,113,157400,70,0,B|156:169|156:169|222:309,1,225,2|10,1:2|0:0,0:0:0:0:
38,384,157900,2,0,P|85:336|88:256,1,112.5,2|0,0:0|1:2,0:0:0:0:
71,173,158233,1,2,0:0:0:0:
262,196,158400,1,10,0:0:0:0:
285,316,158567,1,2,0:0:0:0:
184,106,158733,22,0,B|287:77|268:202|387:157,1,225,2|10,1:2|0:0,0:0:0:0:
435,0,159233,2,0,P|376:35|354:96,1,112.5,2|0,0:0|1:2,0:0:0:0:
469,214,159567,1,2,0:0:0:0:
262,196,159733,2,0,P|262:264|304:314,1,112.5,10|0,0:0|0:0,0:0:0:0:
512,343,160067,70,0,B|456:339|407:301|407:301|387:355|336:384,1,225,2|10,1:2|0:0,0:0:0:0:
116,353,160567,1,2,3:2:0:0:
108,328,160650,1,0,3:2:0:0:
100,303,160733,2,0,P|147:267|216:276,1,112.5,0|2,1:2|0:0,0:0:0:0:
337,384,161067,1,10,0:0:0:0:
198,267,161233,1,2,0:0:0:0:
256,105,161400,38,0,L|256:41,1,56.25,8|0,0:0|0:0,0:0:0:0:
367,307,161567,6,0,B|436:297|508:260|508:260|484:307,1,202.500007724762,4|0,1:3|0:0,0:0:0:0:
198,267,161900,86,0,B|123:264|39:214|39:214|90:287,1,242.999992584229,4|0,1:3|0:0,0:0:0:0:
337,146,162233,6,0,B|422:142|516:86|516:86|459:168,1,283.499991348267,4|0,1:3|0:0,0:0:0:0:
256,48,162567,86,0,B|235:12|255:-21|255:-21|279:13|257:52,1,135.000005149842,4|0,1:3|0:0,0:0:0:0:
2,166,162733,54,0,B|39:146|79:145|79:145|97:90|97:90|142:93|190:65,1,225,6|10,1:2|0:0,0:0:0:0:
213,216,163233,1,2,0:0:0:0:
386,83,163400,2,0,P|327:102|293:155,1,112.5,0|0,1:2|0:0,0:0:0:0:
133,241,163733,2,0,P|191:260|225:313,1,112.5,8|2,0:0|3:2,0:0:0:0:
214,314,163983,1,0,3:0:0:0:
207,328,164067,21,2,1:2:0:0:
372,228,164233,1,2,0:0:0:0:
133,241,164400,1,10,0:0:0:0:
298,141,164567,1,2,0:0:0:0:
207,328,164733,1,2,1:2:0:0:
372,228,164900,2,0,P|440:248|482:316,1,112.5,2|8,0:0|0:0,0:0:0:0:
410,384,165233,1,2,0:0:0:0:
441,160,165400,70,0,B|404:17|404:17|468:85,1,225,2|10,1:2|0:0,0:0:0:0:
467,277,165900,1,2,0:0:0:0:
354,142,166067,2,0,P|297:175|279:247,1,112.5,0|0,1:2|0:0,0:0:0:0:
68,163,166400,2,0,P|125:195|196:175,1,112.5,8|2,0:0|3:2,0:0:0:0:
171,176,166650,1,2,3:2:0:0:
172,160,166733,21,2,1:2:0:0:
70,331,166900,1,2,0:0:0:0:
0,113,167067,1,10,0:0:0:0:
67,317,167233,1,2,0:0:0:0:
278,215,167400,1,2,1:2:0:0:
184,38,167567,2,0,B|163:68|163:68|174:152,1,112.5,2|8,0:0|0:0,0:0:0:0:
217,340,167900,1,2,0:0:0:0:
454,185,168067,70,0,B|398:197|398:197|391:210|391:210|280:234,1,168.75,2|0,1:2|0:0,0:0:0:0:
278,215,168400,1,10,0:0:0:0:
447,282,168567,2,0,P|498:326|509:409,1,112.5,2|0,0:0|1:2,0:0:0:0:
353,319,168900,1,2,0:0:0:0:
454,185,169067,1,10,0:0:0:0:
512,367,169233,1,2,0:0:0:0:
314,247,169400,22,0,B|271:141|376:159|321:32,1,225,2|10,1:2|0:0,0:0:0:0:
139,67,169900,2,0,P|195:100|274:86,1,112.5,2|0,0:0|1:2,0:0:0:0:
414,15,170233,1,2,0:0:0:0:
241,99,170400,1,10,0:0:0:0:
314,247,170567,1,2,0:0:0:0:
499,92,170733,70,0,B|437:107|437:107|419:136|419:136|318:161,1,168.75,10|0,0:0|0:0,0:0:0:0:
333,150,171067,1,2,1:2:0:0:
139,67,171233,2,0,P|194:69|241:99,1,112.5,10|0,0:0|0:0,0:0:0:0:
314,247,171567,1,2,1:2:0:0:
331,44,171733,1,10,0:0:0:0:
151,154,171900,1,2,0:0:0:0:
409,294,172067,22,0,P|367:256|313:246,1,112.5,8|0,0:0|0:0,0:0:0:0:
300,265,172317,1,8,0:0:0:0:
286,283,172400,2,0,P|244:320|190:330,1,112.5,2|10,1:2|0:0,0:0:0:0:
0,267,172733,2,0,P|52:284|89:326,1,112.5,0|8,1:2|0:0,0:0:0:0:
147,192,173067,1,8,0:0:0:0:
151,154,173150,1,8,0:0:0:0:
155,117,173233,1,8,0:0:0:0:
344,362,173400,22,0,B|293:290|333:208|333:208|348:208|348:208|397:170|421:99|372:43|372:43|368:26|368:26|289:18|249:77|271:141,1,566.999982696534,4|0,1:0|0:0,0:0:0:0:
270,139,175900,1,2,0:0:0:0:
144,283,176067,6,0,B|184:233|195:173|162:114|162:114|175:105|175:105|92:57|-3:122|23:219,1,445.499986404419,2|0,0:0|0:0,0:0:0:0:
60,304,178067,86,2,P|126:288|384:258,1,315,0|0,3:0|0:0,0:0:0:0:
433,308,178733,6,0,L|423:369,1,53.9999983520508,0|0,3:0|0:0,0:0:0:0:
424,254,179233,2,0,L|432:307,1,53.9999983520508,0|0,3:0|0:0,0:0:0:0:
432,200,179733,2,0,L|422:261,1,53.9999983520508,0|0,3:0|0:0,0:0:0:0:
423,146,180233,2,0,L|431:199,1,53.9999983520508,0|0,3:0|0:0,0:0:0:0:
431,92,180733,2,0,L|421:153,1,53.9999983520508,0|0,3:0|0:0,0:0:0:0:
422,145,181233,1,0,3:0:0:0:
339,105,181400,86,0,L|270:97,1,53.9999983520508,0|0,3:0|0:0,0:0:0:0:
285,98,181900,2,0,L|227:136,1,53.9999983520508,0|0,3:0|0:0,0:0:0:0:
239,127,182400,2,0,L|219:193,1,53.9999983520508,0|0,3:0|0:0,0:0:0:0:
223,178,182900,2,0,L|250:241,1,53.9999983520508,0|0,3:0|0:0,0:0:0:0:
244,227,183400,6,0,L|237:259,4,26.9999991760254,0|0|0|0|0,3:0|3:0|3:0|3:0|3:0,0:0:0:0:
47,308,184067,38,0,P|109:293|156:293,1,80.9999975280763,4|0,1:2|0:0,0:0:0:0:
244,227,184400,2,0,P|203:222|165:211,1,80.9999975280763,0|0,1:2|0:0,0:0:0:0:
125,292,184733,1,0,1:2:0:0:
30,111,185067,69,0,1:2:0:0:
55,194,185233,1,0,0:0:0:0:
197,110,185400,2,0,P|156:114|118:125,1,80.9999975280763,0|0,1:2|0:0,0:0:0:0:
28,23,185733,2,0,P|66:34|106:38,1,80.9999975280763,0|0,1:2|0:0,0:0:0:0:
197,110,186067,21,0,1:2:0:0:
274,36,186233,2,0,P|235:24|195:20,1,80.9999975280763,0|0,0:0|1:2,0:0:0:0:
197,110,186567,1,0,0:0:0:0:
305,128,186733,70,0,P|281:173|263:232,1,80.9999975280763,0|0,1:2|0:0,0:0:0:0:
235,335,187067,2,0,P|220:297|201:261,1,80.9999975280763,0|0,1:2|0:0,0:0:0:0:
271,201,187400,1,0,1:2:0:0:
472,316,187733,21,0,1:2:0:0:
394,344,187900,1,0,0:0:0:0:
330,291,188067,2,0,P|366:264|417:252,1,80.9999975280763,0|0,1:2|0:0,0:0:0:0:
512,214,188400,2,0,P|473:201|441:176,1,80.9999975280763,0|0,1:2|0:0,0:0:0:0:
396,95,188733,70,0,L|403:53,4,40.4999987640381,0|0|0|0|0,1:2|3:0|3:0|3:0|1:2,0:0:0:0:
180,25,189400,22,0,P|210:67|223:113,1,80.9999975280763,0|0,1:2|0:0,0:0:0:0:
253,217,189733,2,0,P|267:179|292:147,1,80.9999975280763,0|0,1:2|0:0,0:0:0:0:
219,94,190067,1,0,1:2:0:0:
78,267,190400,69,0,1:2:0:0:
121,262,190567,1,0,0:0:0:0:
166,259,190733,1,0,1:2:0:0:
192,295,190900,1,0,0:0:0:0:
217,331,191067,1,0,1:2:0:0:
379,371,191400,21,0,1:2:0:0:
333,299,191567,2,0,P|349:246|349:203,1,80.9999975280763,0|0,0:0|1:2,0:0:0:0:
379,371,191900,1,0,0:0:0:0:
463,320,192067,70,0,P|446:267|446:224,1,80.9999975280763,0|0,1:2|0:0,0:0:0:0:
368,142,192400,2,0,P|364:182|350:220,1,80.9999975280763,0|0,1:2|0:0,0:0:0:0:
445,241,192733,1,0,1:2:0:0:
512,53,193067,21,0,1:2:0:0:
464,61,193233,1,0,0:0:0:0:
416,69,193400,1,0,1:2:0:0:
379,37,193567,1,0,0:0:0:0:
342,6,193733,1,0,1:2:0:0:
190,96,194067,70,2,P|141:75|73:56,1,99.0000030212403,0|0,1:2|0:0,0:0:0:0:
162,204,194400,2,2,P|210:183|296:161,1,125.999996154785,0|0,1:2|0:0,0:0:0:0:
483,206,194733,69,4,1:0:0:0:
483,206,197400,2,0,B|427:169|365:188|348:283|356:285|364:290|348:370|282:403|226:354,1,360,2|2,0:0|0:0,0:0:0:0:
75,265,200067,6,0,L|85:221,1,45,2|0,3:2|0:0,0:0:0:0:
85,221,200567,2,0,L|74:177,1,45,0|0,3:0|0:0,0:0:0:0:
74,177,201067,2,0,L|84:133,1,45,0|0,3:0|0:0,0:0:0:0:
84,133,201567,2,0,L|73:89,1,45,0|0,3:0|0:0,0:0:0:0:
73,89,202067,1,0,3:0:0:0:
222,53,202733,86,0,B|332:-25|461:37|461:37|465:73|435:109,1,315,2|0,0:0|0:0,0:0:0:0:
507,172,204067,2,2,B|397:139|295:214|387:316|300:408|169:371,1,440.999986541748,2|0,0:0|0:0,0:0:0:0:
50,281,205400,5,4,3:2:0:0:
126,257,205567,1,0,3:0:0:0:
184,310,205733,2,0,L|172:382,1,62.9999980773926,0|0,3:0|0:0,0:0:0:0:
186,383,206067,2,0,L|196:320,1,62.9999980773926,0|0,3:0|0:0,0:0:0:0:
211,211,206400,85,0,3:0:0:0:
284,261,206567,2,0,L|352:243,1,62.9999980773926,0|0,3:0|0:0,0:0:0:0:
418,279,206900,1,0,3:0:0:0:
345,229,207067,2,0,L|277:247,1,62.9999980773926,0|0,3:0|0:0,0:0:0:0:
196,320,207400,5,2,3:2:0:0:
285,160,207733,1,2,0:0:0:0:
95,48,208067,85,2,3:2:0:0:
159,96,208233,2,0,L|237:73,1,62.9999980773926,0|0,3:0|0:0,0:0:0:0:
290,117,208567,1,0,3:0:0:0:
224,67,208733,1,0,3:0:0:0:
512,103,209067,5,0,3:0:0:0:
464,164,209233,2,0,L|393:152,1,62.9999980773926,0|0,3:0|0:0,0:0:0:0:
339,202,209567,1,0,3:0:0:0:
397,145,209733,1,0,3:0:0:0:
326,326,210067,86,0,P|289:314|191:300,1,125.999996154785,2|0,3:2|0:0,0:0:0:0:
6,288,210733,5,2,3:2:0:0:
70,243,210900,2,0,L|150:260,1,62.9999980773926,0|0,3:0|0:0,0:0:0:0:
198,201,211233,1,0,3:0:0:0:
138,249,211400,1,0,3:0:0:0:
49,86,211733,85,0,3:0:0:0:
113,131,211900,1,0,3:0:0:0:
183,98,212067,1,0,3:0:0:0:
448,108,212400,5,0,3:0:0:0:
399,40,212567,1,0,3:0:0:0:
321,66,212733,1,0,3:0:0:0:
321,148,212900,1,0,3:0:0:0:
399,175,213067,1,0,3:0:0:0:
395,164,213233,1,0,3:0:0:0:
458,302,213400,85,2,3:2:0:0:
394,253,213567,1,0,3:0:0:0:
319,283,213733,2,0,L|332:364,1,62.9999980773926,0|0,3:0|0:0,0:0:0:0:
181,335,214067,5,0,3:0:0:0:
245,384,214233,1,0,3:0:0:0:
320,354,214400,2,0,L|307:273,1,62.9999980773926,0|0,3:0|0:0,0:0:0:0:
226,206,214733,86,0,P|191:194|145:201,1,62.9999980773926,0|0,3:0|0:0,0:0:0:0:
67,106,215067,2,0,P|104:109|140:97,1,76.5000014591217,0|0,3:0|0:0,0:0:0:0:
275,105,215400,2,2,P|336:80|454:19,1,180,0|0,3:0|0:0,0:0:0:0:
386,194,216067,38,0,P|346:242|356:300,1,99.0000030212403,6|0,1:2|0:0,0:0:0:0:
467,320,216400,2,0,B|491:327|514:350|514:350|506:309|465:288|424:304|424:304|410:341|364:355,1,247.500007553101,8|0,0:0|0:0,0:0:0:0:
358,354,216900,1,0,1:2:0:0:
252,286,217067,2,0,B|278:267|278:267|368:278,1,99.0000030212403,8|0,0:0|0:0,0:0:0:0:
209,372,217400,22,0,P|169:341|157:278,1,99.0000030212403,0|0,1:2|0:0,0:0:0:0:
196,200,217733,1,8,0:0:0:0:
71,267,217900,2,0,B|81:209|81:209|68:175|68:175|78:122,1,148.50000453186,0|0,3:0|0:0,0:0:0:0:
81,110,218233,1,0,1:2:0:0:
265,96,218400,2,0,P|208:94|158:132,1,99.0000030212403,8|0,0:0|0:0,0:0:0:0:
310,0,218733,70,0,P|336:50|394:74,1,99.0000030212403,0|0,1:2|0:0,0:0:0:0:
461,219,219067,2,0,B|531:168|531:168|490:5,1,247.500007553101,8|0,0:0|0:0,0:0:0:0:
488,1,219567,1,0,1:2:0:0:
429,138,219733,2,0,P|385:160|336:156,1,99.0000030212403,8|0,0:0|0:0,0:0:0:0:
136,253,220067,21,0,1:2:0:0:
212,204,220233,1,0,3:0:0:0:
289,250,220400,2,0,B|305:318|369:342|439:318|439:318|421:283|381:277,1,247.500007553101,8|0,0:0|0:0,0:0:0:0:
303,234,220900,1,0,1:2:0:0:
329,61,221067,2,0,B|346:103|346:103|332:180,1,99.0000030212403,8|0,0:0|0:0,0:0:0:0:
92,170,221400,6,0,B|60:251|60:251|139:183|236:162,1,270.000010299683,4|0,1:0|0:0,0:0:0:0:
312,294,221900,2,0,B|343:375|343:375|264:307|167:286,1,270.000010299683,4|0,1:0|0:0,0:0:0:0:
154,96,222400,6,0,L|177:-6,1,90,4|0,1:0|0:0,0:0:0:0:
219,166,222900,37,0,1:2:0:0:
355,78,223067,2,0,P|296:68|255:81,1,99.0000030212403,8|0,0:0|0:0,0:0:0:0:
219,166,223400,1,0,1:2:0:0:
284,236,223567,1,0,1:2:0:0:
193,351,223733,2,0,B|176:305|176:305|199:220,1,99.0000030212403,8|0,0:0|0:0,0:0:0:0:
313,145,224067,22,0,P|368:145|424:179,1,99.0000030212403,0|0,1:2|0:0,0:0:0:0:
467,310,224400,2,0,B|441:280|450:240|450:240|481:220|487:170,1,148.50000453186,8|0,0:0|0:0,0:0:0:0:
486,149,224733,2,0,P|458:93|467:48,1,99.0000030212403,0|0,3:0|1:2,0:0:0:0:
512,0,225067,1,8,0:0:0:0:
313,145,225400,69,0,1:2:0:0:
223,114,225567,1,0,1:2:0:0:
152,177,225733,1,8,0:0:0:0:
39,241,225900,21,4,0:3:0:0:
39,241,225983,1,4,0:3:0:0:
39,241,226067,1,4,0:3:0:0:
114,241,226233,1,4,0:3:0:0:
150,308,226400,1,8,0:0:0:0:
379,191,226733,70,0,P|432:252|425:300,1,99.0000030212403,6|0,1:2|0:0,0:0:0:0:
322,320,227067,2,0,B|295:319|269:341|269:341|281:303|314:289|352:302|352:302|373:345|426:352,1,247.500007553101,8|0,0:0|0:0,0:0:0:0:
436,351,227567,1,0,1:2:0:0:
436,172,227733,2,0,B|420:202|420:202|437:286,1,99.0000030212403,8|0,0:0|0:0,0:0:0:0:
491,100,228067,22,0,P|439:80|389:96,1,99.0000030212403,0|0,1:2|0:0,0:0:0:0:
339,196,228400,1,8,0:0:0:0:
280,18,228567,2,0,B|267:70|267:70|273:100|273:100|251:181,1,148.50000453186,0|0,3:0|0:0,0:0:0:0:
254,172,228900,1,0,1:2:0:0:
88,115,229067,2,0,P|140:95|190:111,1,99.0000030212403,8|0,0:0|0:0,0:0:0:0:
202,274,229400,70,0,P|217:320|256:349,1,99.0000030212403,0|0,1:2|0:0,0:0:0:0:
505,284,229733,2,0,B|440:209|440:209|302:262,1,247.500007553101,8|0,0:0|0:0,0:0:0:0:
293,268,230233,1,0,1:2:0:0:
114,265,230400,2,0,P|129:218|168:189,1,99.0000030212403,8|0,0:0|0:0,0:0:0:0:
277,77,230733,21,0,1:2:0:0:
358,123,230900,1,0,3:0:0:0:
439,76,231067,2,0,B|491:129|471:193|471:193|422:234|427:298,1,247.500007553101,8|0,0:0|0:0,0:0:0:0:
432,308,231567,1,0,1:2:0:0:
247,203,231733,2,0,B|294:184|294:184|338:202,1,99.0000030212403,8|0,0:0|0:0,0:0:0:0:
125,238,232067,6,0,B|94:231|63:258|63:258|84:214|121:206|154:232|154:232|166:284|215:291,1,270.000010299683,4|0,1:0|0:0,0:0:0:0:
324,315,232567,2,0,B|355:307|386:334|386:334|365:290|328:282|295:308|295:308|283:360|234:367,1,270.000010299683,4|0,1:0|0:0,0:0:0:0:
166,138,233067,6,0,L|189:24,1,107.999996704102,4|0,1:0|0:0,0:0:0:0:
247,203,233567,37,0,1:2:0:0:
361,104,233733,2,0,P|299:98|239:129,1,99.0000030212403,8|0,0:0|0:0,0:0:0:0:
247,203,234067,1,0,1:2:0:0:
328,268,234233,1,0,1:2:0:0:
213,355,234400,2,0,P|275:349|335:380,1,99.0000030212403,8|0,0:0|0:0,0:0:0:0:
456,313,234733,22,0,P|419:262|416:194,1,99.0000030212403,0|0,1:2|0:0,0:0:0:0:
504,101,235067,2,0,B|489:134|454:149|454:149|417:133|372:156,1,148.50000453186,8|0,0:0|0:0,0:0:0:0:
371,164,235400,1,0,3:0:0:0:
490,219,235567,1,0,1:2:0:0:
426,56,235733,1,8,0:0:0:0:
265,173,235900,70,0,P|223:153|143:140,1,121.499996292114,4|0,1:3|0:0,0:0:0:0:
320,251,236233,2,0,P|274:262|205:304,1,121.499996292114,4|0,1:3|0:0,0:0:0:0:
430,304,236567,22,0,B|443:306|468:319|468:319|452:286|424:278|395:292|395:292|376:324|337:331,1,202.500007724762,4|0,1:3|0:0,0:0:0:0:
93,267,236900,70,0,B|80:268|50:285|50:285|69:244|103:234|138:251|138:251|162:290|209:299,1,242.999992584229,4|0,1:3|0:0,0:0:0:0:
320,251,237233,22,0,L|307:130,1,94.499997116089,4|0,1:3|0:0,0:0:0:0:
290,35,237400,21,2,1:2:0:0:
220,177,238733,5,0,3:0:0:0:
54,47,240067,85,0,3:0:0:0:
89,171,241400,6,0,B|137:137|205:150|185:226|190:228|198:230|173:306|247:340|306:288,1,315,0|0,3:0|0:0,0:0:0:0:
400,329,242733,85,0,3:0:0:0:
241,364,244067,5,0,3:0:0:0:
320,186,245400,85,0,3:0:0:0:
69,152,246733,6,2,B|141:110|220:151|230:237|225:241|220:246|246:327|310:355|381:331,1,409.499981254578,0|0,3:0|0:0,0:0:0:0:
441,256,248067,86,0,P|403:243|352:248,1,72,2|0,1:2|0:0,0:0:0:0:
283,210,248400,2,0,P|252:236|231:283,1,72,2|0,1:2|0:0,0:0:0:0:
332,84,248733,2,0,P|339:123|369:165,1,72,0|0,1:2|0:0,0:0:0:0:
371,243,249067,2,0,P|409:256|460:250,1,72,0|0,1:2|0:0,0:0:0:0:
512,187,249400,5,2,1:2:0:0:
434,169,249567,1,0,3:0:0:0:
336,201,249733,2,0,L|241:179,1,72,2|0,1:2|0:0,0:0:0:0:
181,247,250067,85,2,1:2:0:0:
257,191,250233,1,2,3:2:0:0:
172,252,250400,1,0,1:2:0:0:
248,196,250567,1,2,3:2:0:0:
161,141,250733,6,0,P|118:158|70:160,1,72,2|0,1:2|0:0,0:0:0:0:
16,231,251067,2,0,P|51:236|84:251,1,72,2|0,1:2|0:0,0:0:0:0:
158,128,251400,2,0,P|115:145|67:147,1,72,0|0,1:2|0:0,0:0:0:0:
13,218,251733,2,0,P|48:223|81:238,1,72,0|0,1:2|0:0,0:0:0:0:
135,331,252067,85,2,1:2:0:0:
84,251,252233,1,2,0:0:0:0:
144,177,252400,1,2,1:2:0:0:
232,211,252567,1,2,0:0:0:0:
227,306,252733,5,2,1:2:0:0:
217,298,252900,1,2,0:0:0:0:
296,350,253067,1,0,1:2:0:0:
306,342,253233,1,2,0:0:0:0:
411,303,253400,86,0,P|396:261|399:203,1,72,2|0,1:2|0:0,0:0:0:0:
323,162,253733,1,2,1:2:0:0:
336,161,253900,2,0,P|364:127|416:100,1,72,2|0,0:0|1:2,0:0:0:0:
482,59,254233,5,2,0:0:0:0:
471,81,254400,1,2,1:2:0:0:
358,4,254567,1,2,0:0:0:0:
372,28,254733,2,0,P|317:47|235:92,1,144,2|2,1:2|1:2,0:0:0:0:
150,142,255233,2,0,P|186:155|227:180,1,72,2|0,0:0|1:2,0:0:0:0:
288,216,255567,1,2,0:0:0:0:
313,245,255733,2,0,P|277:258|236:283,1,72,0|0,1:2|0:0,0:0:0:0:
83,352,256067,86,0,P|124:335|153:214,1,161.999995056153,2|2,1:2|1:2,0:0:0:0:
58,230,256567,1,2,3:2:0:0:
52,244,256650,1,0,3:2:0:0:
46,258,256733,2,0,L|33:161,1,80.9999975280763,0|2,1:2|0:0,0:0:0:0:
19,57,257067,1,10,0:0:0:0:
19,57,257233,1,10,0:0:0:0:
116,132,257400,6,0,B|263:179|248:26|409:56|409:56|342:2|330:77|248:19,1,485.999985168458,2|0,0:0|0:0,0:0:0:0:
252,21,258567,86,0,P|261:50|278:77,1,40.4999987640381,2|0,0:0|0:0,0:0:0:0:
504,38,258733,38,0,B|481:89|481:89|503:137|503:137|469:206,1,175.499991966248,6|0,1:2|0:0,0:0:0:0:
475,218,259067,1,10,0:0:0:0:
505,360,259233,1,2,0:0:0:0:
309,348,259400,2,0,P|368:306|443:325,1,116.999994644165,0|0,1:2|0:0,0:0:0:0:
170,193,259733,2,0,P|229:235|304:216,1,116.999994644165,8|2,0:0|3:2,0:2:0:0:
281,211,259983,1,0,3:2:0:0:
290,188,260067,21,2,1:2:0:0:
177,344,260233,1,2,0:0:0:0:
21,231,260400,1,10,0:0:0:0:
134,75,260567,1,2,0:0:0:0:
177,344,260733,1,2,1:2:0:0:
245,86,260900,2,0,P|307:111|398:90,1,116.999994644165,2|8,0:0|0:0,0:0:0:0:
483,5,261233,1,2,0:0:0:0:
507,202,261400,70,0,B|475:227|461:250|461:250|426:225|351:201,1,175.499991966248,2|0,1:2|0:0,0:0:0:0:
348,216,261733,1,10,0:0:0:0:
266,359,261900,1,2,0:0:0:0:
130,281,262067,2,0,P|177:249|235:251,1,116.999994644165,0|0,1:2|0:0,0:0:0:0:
457,379,262400,2,0,P|399:380|351:348,1,116.999994644165,8|2,0:0|3:2,0:0:0:0:
352,329,262650,1,0,3:0:0:0:
352,309,262733,21,2,1:2:0:0:
281,76,262900,1,2,0:0:0:0:
200,228,263067,1,10,0:0:0:0:
433,157,263233,1,2,0:0:0:0:
352,309,263400,1,2,1:2:0:0:
184,123,263567,2,0,P|122:146|57:135,1,116.999994644165,2|8,0:0|0:0,0:0:0:0:
0,0,263900,1,2,0:0:0:0:
278,5,264067,70,0,B|266:60|266:60|280:98|280:98|255:201,1,175.499991966248,2|0,1:2|0:0,0:0:0:0:
266,190,264400,1,10,0:0:0:0:
86,350,264567,2,0,P|137:310|214:318,1,116.999994644165,2|0,0:0|1:2,0:0:0:0:
278,384,264900,1,2,0:0:0:0:
413,218,265067,1,10,0:0:0:0:
322,139,265233,1,2,0:0:0:0:
46,161,265400,22,0,B|75:189|86:215|86:215|135:197|222:181,1,175.499991966248,2|0,1:2|0:0,0:0:0:0:
208,196,265733,1,10,0:0:0:0:
348,52,265900,2,0,P|285:54|237:108,1,116.999994644165,2|0,0:0|1:2,0:0:0:0:
208,196,266233,1,2,0:0:0:0:
46,161,266400,2,0,P|16:215|39:284,1,116.999994644165,8|0,0:0|0:0,0:0:0:0:
331,248,266733,70,0,B|270:246|218:214|218:214|199:272|151:304,1,233.999989288331,2|8,1:2|0:0,0:0:0:0:
425,314,267233,1,2,3:2:0:0:
434,287,267317,1,0,3:2:0:0:
443,260,267400,2,0,B|420:230|420:230|305:236,1,116.999994644165,0|2,1:2|0:0,0:0:0:0:
276,375,267733,1,10,0:0:0:0:
340,234,267900,1,2,0:0:0:0:
256,110,268067,38,0,L|256:30,1,58.4999973220826,8|0,0:0|0:0,0:0:0:0:
457,270,268233,6,0,B|476:274|499:290|499:290|484:257|451:240|417:259|417:259|404:299|360:313,1,229.500004377365,4|0,1:3|0:0,0:0:0:0:
73,202,268567,86,0,B|49:207|22:226|22:226|40:187|79:167|119:189|119:189|134:236|186:253,1,270,4|0,1:3|0:0,0:0:0:0:
459,87,268900,6,0,B|485:93|516:114|516:114|496:70|451:47|405:73|405:73|388:127|328:146,1,310.500005922318,4|0,1:3|0:0,0:0:0:0:
256,51,269233,86,0,B|237:16|256:-17|256:-17|276:17|257:53,1,121.500000463486,4|0,1:3|0:0,0:0:0:0:
25,25,269400,54,0,B|77:50|77:50|73:103|73:103|159:153,1,175.499991966248,6|0,1:2|0:0,0:0:0:0:
144,124,269733,1,10,0:0:0:0:
84,290,269900,1,2,0:0:0:0:
290,270,270067,2,0,P|227:238|166:244,1,116.999994644165,0|0,1:2|0:0,0:0:0:0:
457,157,270400,2,0,P|394:189|333:183,1,116.999994644165,8|2,0:0|3:2,0:0:0:0:
337,165,270650,1,0,3:0:0:0:
324,142,270733,21,2,1:2:0:0:
420,312,270900,1,2,0:0:0:0:
224,310,271067,1,10,0:0:0:0:
128,140,271233,1,2,0:0:0:0:
274,226,271400,1,2,1:2:0:0:
280,61,271567,2,0,P|349:54|411:105,1,116.999994644165,2|8,0:0|0:0,0:0:0:0:
512,0,271900,1,2,0:0:0:0:
512,208,272067,70,0,B|467:157|467:157|340:182,1,175.499991966248,2|0,1:2|0:0,0:0:0:0:
348,167,272400,1,10,0:0:0:0:
296,331,272567,1,2,0:0:0:0:
166,253,272733,2,0,P|230:221|306:242,1,116.999994644165,0|0,1:2|0:0,0:0:0:0:
447,87,273067,2,0,P|389:88|339:59,1,116.999994644165,8|2,0:0|3:2,0:0:0:0:
344,34,273317,1,0,3:0:0:0:
348,8,273400,21,2,1:2:0:0:
273,225,273567,1,2,0:0:0:0:
140,45,273733,1,10,0:0:0:0:
268,211,273900,1,2,0:0:0:0:
447,87,274067,1,2,1:2:0:0:
178,150,274233,2,0,P|150:202|168:280,1,116.999994644165,2|8,0:0|0:0,0:0:0:0:
23,338,274567,1,2,0:0:0:0:
227,313,274733,70,0,B|286:306|286:306|325:344|325:344|396:334,1,175.499991966248,2|0,1:2|0:0,0:0:0:0:
404,346,275067,1,10,0:0:0:0:
493,174,275233,2,0,P|428:199|397:250,1,116.999994644165,2|0,0:0|1:2,0:0:0:0:
404,346,275567,1,2,0:0:0:0:
268,211,275733,1,10,0:0:0:0:
493,174,275900,1,2,0:0:0:0:
276,318,276067,22,0,B|186:301|224:386|114:361,1,175.499991966248,2|0,1:2|0:0,0:0:0:0:
98,372,276400,1,10,0:0:0:0:
101,177,276567,2,0,B|146:205|146:205|163:286,1,116.999994644165,2|0,0:0|1:2,0:0:0:0:
227,142,276900,1,2,0:0:0:0:
72,263,277067,1,10,0:0:0:0:
24,57,277233,1,2,0:0:0:0:
239,237,277400,70,0,B|298:228|298:228|332:257|332:257|431:244,1,175.499991966248,10|0,0:0|0:0,0:0:0:0:
422,256,277733,1,2,1:2:0:0:
512,160,277900,2,0,P|454:122|435:61,1,116.999994644165,10|0,0:0|0:0,0:0:0:0:
497,0,278233,1,2,1:2:0:0:
361,162,278400,1,10,0:0:0:0:
216,65,278567,1,2,0:0:0:0:
284,2,278733,22,0,P|307:70|279:131,1,116.999994644165,10|0,0:0|0:0,0:0:0:0:
272,132,278983,1,8,0:0:0:0:
249,152,279067,2,0,P|226:220|254:281,1,116.999994644165,2|10,1:2|0:0,0:0:0:0:
351,369,279400,1,0,1:2:0:0:
238,261,279567,1,8,0:0:0:0:
70,308,279733,1,8,0:0:0:0:
77,346,279817,1,8,0:0:0:0:
85,384,279900,1,8,0:0:0:0:
62,174,280067,86,0,B|108:168|108:168|148:195|148:195|202:190,1,148.50000453186,6|0,1:2|0:0,0:0:0:0:
225,171,280400,1,8,0:0:0:0:
336,276,280567,1,0,3:0:0:0:
422,188,280733,2,0,P|357:171|308:192,1,99.0000030212403,0|0,1:2|0:0,0:0:0:0:
237,75,281067,2,0,P|189:122|183:175,1,99.0000030212403,8|0,0:0|0:0,0:0:0:0:
177,369,281400,70,0,P|224:321|230:268,1,99.0000030212403,0|0,1:2|0:0,0:0:0:0:
367,265,281733,2,0,P|349:200|306:168,1,99.0000030212403,8|0,0:0|0:0,0:0:0:0:
117,96,282067,1,0,1:2:0:0:
247,208,282233,1,0,3:0:0:0:
107,107,282400,1,8,0:0:0:0:
237,219,282567,1,2,3:2:0:0:
412,129,282733,22,0,P|364:92|288:90,1,99.0000030212403,0|0,1:2|0:0,0:0:0:0:
176,44,283067,2,0,P|223:31|260:0,1,99.0000030212403,8|0,0:0|0:0,0:0:0:0:
440,36,283400,2,0,P|413:98|418:160,1,99.0000030212403,0|0,1:2|0:0,0:0:0:0:
355,271,283733,2,0,P|349:222|326:178,1,99.0000030212403,8|0,0:0|0:0,0:0:0:0:
195,241,284067,69,2,1:2:0:0:
134,61,284233,1,0,3:0:0:0:
249,174,284400,21,10,0:0:0:0:
251,40,284567,1,0,3:0:0:0:
326,178,284733,69,2,1:2:0:0:
357,96,284900,1,0,3:0:0:0:
398,203,285067,21,10,0:0:0:0:
421,174,285233,1,0,3:0:0:0:
459,334,285400,70,0,B|433:300|433:300|350:303,1,99.0000030212403,0|0,1:2|0:0,0:0:0:0:
212,366,285733,2,0,B|254:360|254:360|293:287,1,99.0000030212403,8|0,0:0|0:0,0:0:0:0:
307,136,286067,2,0,B|290:175|290:175|334:245,1,99.0000030212403,0|0,1:2|3:0,0:0:0:0:
326,229,286317,1,0,3:0:0:0:
331,234,286400,1,8,0:0:0:0:
203,169,286567,1,0,3:0:0:0:
71,317,286733,22,0,B|100:188|100:188|34:249,1,188.999994232178,0|0,1:2|0:0,0:0:0:0:
53,243,287067,2,0,P|97:252|149:220,1,90,8|0,0:0|0:0,0:0:0:0:
307,136,287400,2,0,P|400:128|444:211,1,161.999995056153,0|0,1:2|0:0,0:0:0:0:
433,192,287733,2,0,B|421:148|421:148|436:84,1,90,8|0,0:0|0:0,0:0:0:0:
455,353,288067,70,0,P|398:277|303:280,1,148.50000453186,0|0,1:2|0:0,0:0:0:0:
332,276,288400,1,8,0:0:0:0:
198,343,288567,1,0,3:0:0:0:
191,355,288650,1,0,3:0:0:0:
184,367,288733,2,0,B|143:327|143:327|166:237,1,148.50000453186,0|0,1:2|0:0,0:0:0:0:
177,220,289067,2,0,P|210:176|215:113,1,99.0000030212403,8|0,0:0|0:0,0:0:0:0:
157,1,289400,54,0,L|191:87,1,49.5000015106202,8|0,0:0|0:0,0:0:0:0:
293,89,289567,6,0,B|314:88|338:102|338:102|314:65|265:81|265:81|253:115|214:135,1,202.500007724762,4|0,1:3|0:0,0:0:0:0:
91,167,289900,86,0,B|64:166|35:184|35:184|64:138|124:158|124:158|139:199|178:220,1,242.999992584229,4|0,1:3|0:0,0:0:0:0:
315,247,290233,6,0,B|346:246|380:267|380:267|346:213|275:236|275:236|258:285|213:308,1,283.499991348267,4|0,1:3|0:0,0:0:0:0:
146,380,290567,86,0,P|121:340|122:293,1,94.499997116089,4|0,1:3|0:0,0:0:0:0:
293,89,290733,70,0,B|354:107|354:107|369:158|369:158|465:190,2,198.000006042481,6|8|0,1:2|0:0|1:2,0:0:0:0:
176,219,291567,1,0,3:0:0:0:
131,51,291733,2,0,B|162:82|162:82|168:84|168:84|201:119,1,99.0000030212403,8|0,0:0|0:0,0:0:0:0:
410,13,292067,70,0,P|331:21|289:104,1,148.50000453186,0|0,1:2|0:0,0:0:0:0:
293,89,292400,2,0,P|322:108|395:93,1,99.0000030212403,8|0,0:0|0:0,0:0:0:0:
506,179,292733,2,0,B|494:223|494:223|496:234|496:234|471:328,1,148.50000453186,0|0,1:2|0:0,0:0:0:0:
465,338,293067,2,0,P|418:294|428:233,1,99.0000030212403,8|0,0:0|0:0,0:0:0:0:
301,177,293400,22,0,B|226:161|247:238|167:219,1,148.50000453186,0|0,1:2|0:0,0:0:0:0:
159,211,293733,1,8,0:0:0:0:
1,283,293900,1,0,3:2:0:0:
86,239,294067,1,0,1:2:0:0:
166,290,294233,1,0,3:2:0:0:
161,384,294400,1,8,0:0:0:0:
81,230,294567,1,0,3:2:0:0:
181,126,294733,70,0,P|244:142|376:167,2,198.000006042481,0|8|0,1:2|0:0|1:2,0:0:0:0:
143,16,295567,1,0,3:0:0:0:
281,8,295733,2,0,B|303:41|303:41|286:125,1,99.0000030212403,8|0,0:0|0:0,0:0:0:0:
259,212,296067,21,4,3:0:0:0:
248,234,296150,1,0,3:0:0:0:
241,258,296233,1,0,3:0:0:0:
239,282,296317,1,0,3:0:0:0:
240,307,296400,2,0,B|296:300|296:300|345:322|345:322|433:312,2,198.000006042481,8|0|8,3:2|1:2|0:0,0:0:0:0:
156,368,297233,1,0,3:0:0:0:
94,259,297400,70,0,P|94:208|114:147,1,99.0000030212403,0|0,1:2|0:0,0:0:0:0:
0,75,297733,2,0,P|13:122|12:171,1,99.0000030212403,8|0,0:0|0:0,0:0:0:0:
190,112,298067,2,0,P|139:79|83:81,1,99.0000030212403,0|0,1:2|0:0,0:0:0:0:
346,0,298400,2,0,P|295:33|239:31,1,99.0000030212403,8|0,0:0|0:0,0:0:0:0:
467,23,298733,22,0,B|431:62|431:62|467:187,1,148.50000453186,8|0,0:0|0:0,0:0:0:0:
452,166,299067,1,0,1:2:0:0:
349,331,299233,1,8,0:0:0:0:
512,319,299400,2,0,P|465:269|417:262,1,99.0000030212403,0|0,1:2|0:0,0:0:0:0:
349,331,299733,1,0,1:2:0:0:
257,159,299900,1,8,0:0:0:0:
111,312,300067,70,0,P|184:307|219:265,1,99.0000030212403,8|0,0:0|0:0,0:0:0:0:
208,270,300317,1,8,0:0:0:0:
214,247,300400,2,0,P|287:252|322:294,1,99.0000030212403,0|8,1:2|0:0,0:0:0:0:
255,382,300733,1,0,1:2:0:0:
128,194,300900,1,8,0:0:0:0:
327,110,301067,1,8,0:0:0:0:
343,91,301150,1,8,0:0:0:0:
360,73,301233,1,8,0:0:0:0:
32,70,302067,86,0,B|47:-24|152:-49|234:-1|260:78|225:150|169:174|169:174|119:195|78:269|104:348|186:396|293:365|306:277|306:277|321:183|425:158|507:206|533:285|492:361|440:380,1,1180.80001801758,4|0,1:0|0:0,0:0:0:0:
