osu file format v14

[General]
AudioFilename: audio.mp3
AudioLeadIn: 0
PreviewTime: 258567
Countdown: 0
SampleSet: Soft
StackLeniency: 0.7
Mode: 0
LetterboxInBreaks: 0
EpilepsyWarning: 1
WidescreenStoryboard: 1

[Editor]
DistanceSpacing: 1.4
BeatDivisor: 4
GridSize: 32
TimelineZoom: 2.3

[Metadata]
Title:Namae no Nai Kaibutsu
TitleUnicode:名前のない怪物
Artist:Hanabasami Kyo
ArtistUnicode:花鋏キョウ
Creator:MianYa
Version:Nameless
Source:PSYCHO-PASS
Tags:Kyou Monster VTuber KAGAYAKI STARS Re:Act EGOIST storyboard Apis035 wanjia バーチャルYoutuber バーチャルユーチューバー Virtual Youtuber Myosøtis / hasamiUta** japanese anime pop jpop ending ed ryo supercell Chelly full version monster without a name bakemono サイコパス jrock j-rock rock cover
BeatmapID:2785053
BeatmapSetID:1114154

[Difficulty]
HPDrainRate:6
CircleSize:4.5
OverallDifficulty:9
ApproachRate:9.5
SliderMultiplier:1.6
SliderTickRate:1

[Events]
//Background and Video events
0,0,"BG.jpg",0,0
//Break Periods
2,178933,183543
//Storyboard Layer 0 (Background)
//Storyboard Layer 1 (Fail)
//Storyboard Layer 2 (Pass)
//Storyboard Layer 3 (Foreground)
//Storyboard Layer 4 (Overlay)
//Storyboard Sound Samples

[TimingPoints]
2734,333.333333333333,4,2,1,75,1,0
2734,-200,4,2,1,75,0,0
3900,-200,4,2,1,5,0,0
4067,-200,4,2,1,75,0,0
5233,-200,4,2,1,5,0,0
5400,-200,4,2,1,75,0,0
6567,-200,4,2,1,5,0,0
6733,-200,4,2,1,75,0,0
7900,-200,4,2,1,5,0,0
8067,-58.8235294117647,4,2,1,75,0,0
8400,-58.8235294117647,4,2,1,5,0,0
8567,-58.8235294117647,4,2,1,75,0,0
8900,-58.8235294117647,4,2,1,5,0,0
9067,-200,4,2,1,75,0,0
10567,-200,4,2,1,5,0,0
10733,-200,4,2,1,75,0,0
11900,-200,4,2,1,5,0,0
12067,-76.9230769230769,4,2,1,75,0,0
12317,-111.111111111111,4,2,1,5,0,0
12400,-76.9230769230769,4,2,1,75,0,0
13400,-200,4,2,1,75,0,0
14567,-200,4,2,1,5,0,0
14733,-200,4,2,1,75,0,0
15900,-200,4,2,1,5,0,0
16067,-200,4,2,1,75,0,0
17233,-200,4,2,1,5,0,0
17400,-200,4,2,1,75,0,0
18567,-200,4,2,1,5,0,0
18733,-58.8235294117647,4,2,1,75,0,0
19067,-200,4,2,1,5,0,0
19233,-58.8235294117647,4,2,1,75,0,0
19567,-200,4,2,1,5,0,0
19733,-200,4,2,1,75,0,0
21233,-200,4,2,1,5,0,0
21400,-200,4,2,1,75,0,0
22567,-200,4,2,1,5,0,0
22733,-200,4,2,1,75,0,0
23900,-200,4,2,1,5,0,0
24067,-333.333333333333,4,2,1,30,0,0
26400,-333.333333333333,4,2,1,5,0,0
26567,-100,4,2,1,45,0,0
29233,-333.333333333333,4,2,1,5,0,0
29400,-133.333333333333,4,2,1,40,0,0
45400,-100,4,2,1,45,0,0
45567,-100,4,2,1,5,0,0
45733,-100,4,2,1,45,0,0
46733,-100,4,2,1,50,0,0
48067,-100,4,2,1,55,0,0
49400,-100,4,2,1,60,0,0
50733,-100,4,2,1,75,0,0
69400,-66.6666666666667,4,2,1,75,0,0
69483,-66.6666666666667,4,2,1,5,0,0
69567,-66.6666666666667,4,2,1,75,0,0
69650,-66.6666666666667,4,2,1,5,0,0
69733,-100,4,2,1,75,0,0
69900,-100,4,2,1,75,0,0
72067,-76.9230769230769,4,2,1,90,0,1
93483,-100,4,2,1,15,0,0
98733,-117.647058823529,4,2,1,40,0,0
102733,-166.666666666667,4,2,1,40,0,0
104067,-142.857142857143,4,2,1,40,0,0
109400,-133.333333333333,4,2,1,40,0,0
120067,-117.647058823529,4,2,1,40,0,0
125400,-100,4,2,1,45,0,0
125567,-100,4,2,1,5,0,0
125733,-100,4,2,1,45,0,0
126733,-100,4,2,1,50,0,0
128067,-100,4,2,1,55,0,0
129400,-100,4,2,1,60,0,0
130733,-100,4,2,1,75,0,0
149400,-66.6666666666667,4,2,1,75,0,0
149483,-66.6666666666667,4,2,1,5,0,0
149567,-66.6666666666667,4,2,1,75,0,0
149650,-66.6666666666667,4,2,1,5,0,0
149733,-100,4,2,1,75,0,0
150150,-100,4,2,1,5,0,0
150233,-100,4,2,1,75,0,0
152067,-76.9230769230769,4,2,1,90,0,1
173483,-100,4,2,1,15,0,0
178733,-100,4,2,1,40,0,0
184067,-100,4,2,1,60,0,0
194733,-200,4,2,1,25,0,0
205400,-100,4,2,1,40,0,0
210650,-100,4,2,1,5,0,0
210733,-100,4,2,1,40,0,0
215400,-100,4,2,1,50,0,0
216067,-100,4,2,1,90,0,0
221400,-58.8235294117647,4,2,1,90,0,0
221733,-66.6666666666667,4,2,1,40,0,0
221900,-58.8235294117647,4,2,1,90,0,0
222233,-66.6666666666667,4,2,1,40,0,0
222400,-100,4,2,1,90,0,0
225650,-100,4,2,1,5,0,0
225733,-66.6666666666667,4,2,1,90,0,0
225817,-100,4,2,1,5,0,0
225900,-100,4,2,1,90,0,0
232067,-50,4,2,1,90,0,0
232400,-50,4,2,1,40,0,0
232567,-50,4,2,1,90,0,0
232900,-50,4,2,1,40,0,0
233067,-100,4,2,1,90,0,0
236233,-100,4,2,1,90,0,0
236483,-100,4,2,1,5,0,0
236567,-66.6666666666667,4,2,1,90,0,0
236817,-100,4,2,1,5,0,0
236900,-66.6666666666667,4,2,1,90,0,0
237150,-100,4,2,1,5,0,0
237233,-66.6666666666667,4,2,1,90,0,0
237317,-100,4,2,1,5,0,0
237400,-200,4,2,1,50,0,0
238650,-200,4,2,1,5,0,0
238733,-200,4,2,1,50,0,0
239983,-200,4,2,1,5,0,0
240067,-200,4,2,1,50,0,0
241317,-200,4,2,1,5,0,0
241400,-200,4,2,1,50,0,0
242650,-200,4,2,1,5,0,0
242733,-200,4,2,1,50,0,0
243983,-200,4,2,1,5,0,0
244067,-200,4,2,1,50,0,0
245317,-200,4,2,1,5,0,0
245400,-200,4,2,1,50,0,0
246650,-200,4,2,1,5,0,0
246733,-200,4,2,1,50,0,0
247983,-200,4,2,1,5,0,0
248067,-100,4,2,1,60,0,0
253400,-100,4,2,1,70,0,0
256067,-100,4,2,1,75,0,0
257400,-200,4,2,1,40,0,0
258400,-200,4,2,1,5,0,0
258567,-100,4,2,1,75,0,0
258733,-66.6666666666667,4,2,1,90,0,1
280067,-100,4,2,1,90,0,0
284067,-66.6666666666667,4,2,1,90,0,0
284317,-66.6666666666667,4,2,1,5,0,0
284400,-66.6666666666667,4,2,1,90,0,0
284650,-66.6666666666667,4,2,1,5,0,0
284733,-66.6666666666667,4,2,1,90,0,0
284983,-66.6666666666667,4,2,1,5,0,0
285067,-66.6666666666667,4,2,1,90,0,0
285317,-66.6666666666667,4,2,1,5,0,0
285400,-100,4,2,1,90,0,0
288067,-66.6666666666667,4,2,1,90,0,0
288317,-66.6666666666667,4,2,1,5,0,0
288400,-66.6666666666667,4,2,1,90,0,0
288650,-66.6666666666667,4,2,1,5,0,0
288732,-66.6666666666667,4,2,1,90,0,0
288983,-66.6666666666667,4,2,1,5,0,0
289066,-66.6666666666667,4,2,1,90,0,0
289317,-66.6666666666667,4,2,1,5,0,0
289400,-100,4,2,1,90,0,0
290733,-100,4,2,1,90,0,0
296067,-76.9230769230769,4,2,1,90,0,0
299067,-76.9230769230769,4,2,1,90,0,0
299150,-76.9230769230769,4,2,1,5,0,0
299233,-76.9230769230769,4,2,1,90,0,0
299317,-76.9230769230769,4,2,1,5,0,0
299400,-76.9230769230769,4,2,1,90,0,0
299733,-76.9230769230769,4,2,1,90,0,0
299817,-76.9230769230769,4,2,1,5,0,0
299900,-76.9230769230769,4,2,1,90,0,0
299983,-76.9230769230769,4,2,1,5,0,0
300067,-76.9230769230769,4,2,1,90,0,0
302067,-333.333333333333,4,2,1,90,0,0
302733,-333.333333333333,4,2,1,80,0,0
304067,-333.333333333333,4,2,1,70,0,0
305400,-333.333333333333,4,2,1,60,0,0
306733,-333.333333333333,4,2,1,50,0,0
308067,-333.333333333333,4,2,1,40,0,0
309400,-333.333333333333,4,2,1,30,0,0
310733,-333.333333333333,4,2,1,20,0,0
312067,-333.333333333333,4,2,1,10,0,0
313400,-333.333333333333,4,2,1,5,0,0

[Colours]
Combo1 : 157,255,255
Combo2 : 119,0,238
Combo3 : 217,217,217
Combo4 : 255,255,57
Combo5 : 198,0,73
SliderBorder : 255,255,255

[HitObjects]
53,76,2734,6,0,B|132:108|180:68|180:68|242:6|312:30,1,280,6|0,3:2|0:0,0:0:0:0:
355,116,4067,2,0,B|400:96|409:36|409:36|437:212,1,280,2|0,0:0|0:0,0:0:0:0:
430,314,5400,2,0,B|352:299|336:219|336:219|320:299|250:312,1,280,2|0,0:0|0:0,0:0:0:0:
185,219,6733,2,0,B|230:248|293:210|260:117|172:104|82:178,1,280,2|0,0:0|0:0,0:0:0:0:
210,328,8068,6,0,B|345:348|309:220|472:238,1,272.000005187988,6|0,3:2|0:0,0:0:0:0:
244,142,8568,6,0,B|109:162|145:34|-18:52,1,272.000005187988,6|0,3:2|0:0,0:0:0:0:
391,35,9068,6,0,B|362:-7|245:43|245:43|309:46|332:87|332:87|361:124|411:120|436:98,1,360,6|0,3:2|0:0,0:0:0:0:
252,143,10734,2,0,B|271:192|320:200|320:200|253:210|265:123|151:148,1,280,2|0,0:0|0:0,0:0:0:0:
60,261,12068,6,0,P|127:292|181:242,1,155.999992858887,2|0,0:0|0:0,0:0:0:0:
180,219,12401,2,0,P|163:262|256:317,1,155.999992858887,0|0,3:0|0:0,0:0:0:0:
261,317,12734,5,8,0:0:0:0:
41,250,12901,1,0,3:0:0:0:
41,250,13401,6,0,B|36:186|121:166|165:194|149:238|169:258|233:274|277:242,1,280,4|0,3:2|0:0,0:0:0:0:
329,163,14734,2,0,B|313:142|270:146|270:146|317:99|404:109|455:187,1,280,2|0,0:0|0:0,0:0:0:0:
496,283,16068,2,0,B|395:329|341:237|341:237|324:296|276:318,1,280,2|0,0:0|0:0,0:0:0:0:
177,337,17401,2,0,B|167:276|167:276|269:259|292:151|251:112,1,280,2|0,0:0|0:0,0:0:0:0:
52,130,18734,6,0,B|-14:187|-14:187|169:171,1,272.000005187988,4|0,3:2|0:0,0:0:0:0:
366,59,19234,6,0,B|433:2|433:2|192:24,1,272.000005187988,4|0,3:2|0:0,0:0:0:0:
41,288,19734,6,0,B|94:285|94:285|131:316|131:316|251:197|251:197|296:226|296:226|348:230,1,360,4|0,3:2|0:0,0:0:0:0:
331,132,21401,2,0,B|331:86|390:56|390:56|455:134|406:238,1,280,2|0,0:0|0:0,0:0:0:0:
421,336,22734,2,0,B|264:330|357:187|196:183,1,280,2|0,0:0|0:0,0:0:0:0:
92,226,24068,5,6,0:0:0:0:
256,192,24151,12,0,26401,0:0:0:0:
92,226,26568,6,0,L|87:265,2,40,2|2|2,0:0|0:0|0:0,0:0:0:0:
256,192,26818,12,0,29234,0:0:0:0:
74,234,29401,6,0,P|102:279|111:349,1,120.000004577637,2|2,0:0|0:3,0:0:0:0:
200,319,29901,2,0,P|271:330|313:365,1,120.000004577637,0|2,0:0|0:0,0:0:0:0:
395,340,30401,1,2,0:3:0:0:
405,193,30734,6,0,P|354:223|338:280,1,120.000004577637,2|2,0:0|0:3,0:0:0:0:
468,118,31568,2,0,P|432:102|406:77,1,60.0000022888184,2|2,0:0|0:3,0:0:0:0:
265,136,32068,6,0,P|305:123|325:48,1,120.000004577637,2|2,0:0|0:3,0:0:0:0:
178,104,32901,2,0,P|167:134|164:172,1,60.0000022888184,2|2,0:0|0:3,0:0:0:0:
133,274,33401,6,0,P|102:246|9:238,1,120.000004577637,2|2,0:0|0:3,0:0:0:0:
85,357,33901,2,0,L|211:343,1,120.000004577637,0|2,0:0|0:0,0:0:0:0:
279,305,34401,1,2,0:3:0:0:
279,305,34568,1,0,0:0:0:0:
423,355,34733,6,0,P|387:317|368:243,1,120.000004577637,2|2,0:0|0:3,0:0:0:0:
272,189,35233,2,0,P|342:166|368:122,1,120.000004577637,0|2,0:0|0:0,0:0:0:0:
477,133,35733,1,2,0:3:0:0:
413,34,36068,6,0,L|287:52,1,120.000004577637,2|2,0:0|0:3,0:0:0:0:
196,179,36901,2,0,P|231:169|258:151,1,60.0000022888184,2|2,0:0|0:3,0:0:0:0:
96,64,37401,6,0,B|79:212,1,120.000004577637,2|2,0:0|0:3,0:0:0:0:
148,354,38234,2,0,P|127:336|84:327,1,60.0000022888184,2|2,0:0|0:3,0:0:0:0:
196,225,38734,6,0,P|271:235|304:281,1,120.000004577637,2|2,0:0|0:3,0:0:0:0:
286,348,39401,1,2,0:0:0:0:
286,348,39568,1,2,0:0:0:0:
401,272,39734,2,0,L|409:346,1,60.0000022888184,2|0,0:3|0:0,0:0:0:0:
481,182,40068,6,0,B|413:175|452:123|360:121,1,120.000004577637,2|2,0:0|0:3,0:0:0:0:
307,47,40568,2,0,B|239:54|278:106|186:108,1,120.000004577637,0|2,0:0|0:0,0:0:0:0:
119,71,41068,1,2,0:3:0:0:
12,186,41401,6,0,P|28:237|37:316,1,120.000004577637,2|2,0:0|0:3,0:0:0:0:
193,381,42234,2,0,P|221:361|254:352,1,60.0000022888184,2|2,0:0|0:3,0:0:0:0:
274,143,42734,6,0,P|226:171|204:244,1,120.000004577637,2|2,0:0|0:3,0:0:0:0:
349,373,43568,2,0,P|371:339|373:308,1,60.0000022888184,2|2,0:0|0:3,0:0:0:0:
473,192,44068,6,0,P|411:180|337:215,1,120.000004577637,2|2,0:0|0:3,0:0:0:0:
297,271,44734,1,0,0:0:0:0:
297,271,44901,1,2,0:0:0:0:
182,192,45068,2,0,P|155:217|143:242,1,60.0000022888184,2|0,0:3|0:0,0:0:0:0:
119,341,45401,6,0,P|64:319|54:290,1,80,0|0,3:0|0:0,0:0:0:0:
145,238,45734,2,0,B|238:241|185:321|292:333,1,160,2|0,0:3|0:0,0:0:0:0:
285,252,46234,2,0,P|313:224|352:215,1,80,0|2,3:0|0:3,0:0:0:0:
410,355,46568,1,2,0:3:0:0:
493,202,46734,5,0,3:0:0:0:
503,200,46817,1,0,3:0:0:0:
512,198,46900,1,0,3:0:0:0:
350,144,47068,2,0,P|299:164|288:243,1,120,2|2,0:3|0:3,0:0:0:0:
351,216,47401,1,0,3:0:0:0:
351,216,47568,1,0,3:0:0:0:
171,267,47734,2,0,L|159:181,1,80,2|0,0:3|0:0,0:0:0:0:
134,20,48068,5,0,3:0:0:0:
299,106,48234,1,0,0:0:0:0:
299,106,48318,1,0,0:0:0:0:
299,106,48401,6,0,L|425:80,2,120,2|2|0,0:3|0:3|3:0,0:0:0:0:
207,172,49068,5,2,0:0:0:0:
41,100,49234,6,0,P|30:149|51:195,1,80,2|0,3:0|0:0,0:0:0:0:
189,56,49484,6,0,P|145:30|95:36,1,80,2|0,3:0|0:0,0:0:0:0:
145,218,49734,6,0,P|190:195|212:150,1,80,2|0,3:0|3:0,0:0:0:0:
226,146,49984,1,0,3:0:0:0:
226,146,50068,1,0,3:0:0:0:
41,100,50234,1,0,3:0:0:0:
296,86,50401,1,8,0:0:0:0:
159,84,50734,6,0,P|217:51|302:95,1,160,6|10,3:2|0:0,0:0:0:0:
386,200,51234,1,0,0:0:0:0:
191,241,51401,2,0,L|200:161,1,80,2|0,0:0|3:0,0:0:0:0:
385,282,51734,2,0,L|395:370,1,80,10|0,0:0|0:0,0:0:0:0:
236,328,52068,6,0,B|163:308|181:381|73:361,1,160,2|10,3:2|0:0,0:0:0:0:
15,238,52568,1,0,0:0:0:0:
200,161,52734,2,0,L|190:240,1,80,2|0,0:0|3:0,0:0:0:0:
32,76,53068,2,0,L|45:177,1,80,10|0,0:0|0:0,0:0:0:0:
208,67,53401,6,0,P|282:72|327:141,2,160,2|10|2,3:2|0:0|0:0,0:0:0:0:
114,178,54234,1,0,3:0:0:0:
300,257,54401,2,0,P|336:234|405:217,1,80,10|0,0:0|0:0,0:0:0:0:
221,157,54734,6,0,P|201:248|190:338,1,160,2|10,3:2|0:0,0:0:0:0:
114,178,55234,1,0,0:0:0:0:
310,134,55401,2,0,L|296:39,1,80,2|0,0:0|3:0,0:0:0:0:
484,186,55734,2,0,L|464:286,1,80,10|0,0:0|0:0,0:0:0:0:
234,315,56068,6,0,P|287:318|391:356,1,160,2|10,3:2|0:0,0:0:0:0:
298,223,56568,1,0,0:0:0:0:
125,324,56734,2,0,L|111:230,1,80,2|0,0:0|3:0,0:0:0:0:
311,144,57068,2,0,L|293:248,1,80,10|0,0:0|0:0,0:0:0:0:
93,74,57401,6,0,P|111:144|215:142,1,160,2|10,3:2|0:0,0:0:0:0:
289,56,57901,1,0,0:0:0:0:
456,168,58068,2,0,L|447:86,1,80,2|0,0:0|3:0,0:0:0:0:
303,264,58401,2,0,L|316:177,1,80,10|2,0:0|0:0,0:0:0:0:
323,159,58651,1,2,0:0:0:0:
323,159,58734,6,0,B|249:179|270:83|155:107,1,160,2|10,3:2|0:0,0:0:0:0:
23,113,59233,2,0,P|45:97|55:82,1,40,2|2,0:0|0:0,0:0:0:0:
91,15,59399,2,0,L|73:211,1,160,2|10,0:0|0:0,0:0:0:0:
192,177,59901,2,0,P|175:188|167:206,1,40,2|2,0:0|0:0,0:0:0:0:
239,248,60068,6,0,P|250:202|168:229,1,160,2|10,3:2|0:0,0:0:0:0:
404,348,60568,1,0,3:0:0:0:
404,348,60651,1,0,3:0:0:0:
404,348,60734,2,0,P|352:355|319:337,1,80,0|0,3:0|3:0,0:0:0:0:
239,248,61067,2,0,P|276:236|321:260,1,80,10|0,0:0|0:0,0:0:0:0:
162,329,61401,6,0,L|153:157,1,160,6|10,3:2|0:0,0:0:0:0:
277,95,61901,1,0,0:0:0:0:
452,191,62068,2,0,L|442:281,1,80,2|0,0:0|3:0,0:0:0:0:
248,374,62401,2,0,L|238:276,1,80,10|0,0:0|0:0,0:0:0:0:
67,215,62734,6,0,B|163:219|110:127|227:130,1,160,2|10,3:2|0:0,0:0:0:0:
322,197,63234,1,0,0:0:0:0:
492,98,63401,2,0,L|481:191,1,80,2|0,0:0|3:0,0:0:0:0:
327,18,63734,2,0,L|338:128,1,80,10|0,0:0|0:0,0:0:0:0:
322,197,64068,5,2,3:2:0:0:
158,118,64234,1,0,0:0:0:0:
244,278,64401,1,10,0:0:0:0:
268,99,64568,1,0,0:0:0:0:
143,228,64734,1,2,0:0:0:0:
311,195,64901,1,0,3:0:0:0:
166,126,65068,1,10,0:0:0:0:
242,267,65234,1,0,0:0:0:0:
268,99,65401,6,0,B|354:105|315:12|432:29,1,160,2|10,3:2|0:0,0:0:0:0:
412,172,65901,1,0,0:0:0:0:
273,27,66068,2,0,P|236:31|199:70,1,80,2|0,0:0|3:0,0:0:0:0:
221,278,66401,2,0,P|275:269|295:226,1,80,10|0,0:0|0:0,0:0:0:0:
139,174,66734,6,0,P|61:219|68:291,2,160,2|10|2,3:2|0:0|0:0,0:0:0:0:
282,197,67568,1,0,3:0:0:0:
187,372,67734,2,0,P|156:372|110:335,1,80,10|0,0:0|0:0,0:0:0:0:
282,197,68068,6,0,L|265:366,1,160,2|10,3:2|0:0,0:0:0:0:
179,241,68568,1,0,0:0:0:0:
365,166,68734,2,0,L|374:261,1,80,2|0,0:0|3:0,0:0:0:0:
502,66,69068,2,0,L|486:174,1,80,10|0,0:0|0:0,0:0:0:0:
320,25,69401,6,0,P|349:38|374:90,1,60.0000022888184,2|0,3:2|0:0,0:0:0:0:
375,34,69568,2,0,P|387:63|371:118,1,60.0000022888184,0|0,3:0|0:0,0:0:0:0:
365,166,69734,1,2,0:0:0:0:
212,114,69901,5,0,3:0:0:0:
61,249,70068,2,0,L|45:145,1,80,10|0,0:0|0:0,0:0:0:0:
151,52,70401,1,2,3:2:0:0:
273,175,70568,1,0,3:0:0:0:
386,89,70734,5,2,0:0:0:0:
279,3,70901,1,8,0:0:0:0:
236,273,71067,1,2,3:2:0:0:
365,225,71234,1,0,3:0:0:0:
151,52,71401,1,8,0:0:0:0:
130,186,71567,1,0,0:0:0:0:
130,186,72067,6,0,B|178:148|243:168|243:168|236:242|312:272,1,207.999990478516,6|10,3:2|0:0,0:0:0:0:
328,183,72567,1,2,0:0:0:0:
100,112,72733,2,0,P|62:146|50:196,1,103.999995239258,0|0,3:0|0:0,0:0:0:0:
260,329,73067,2,0,L|271:206,1,103.999995239258,8|2,0:0|0:0,0:0:0:0:
489,104,73400,6,0,P|449:73|400:80,1,103.999995239258,2|2,3:2|0:0,0:0:0:0:
430,142,73650,1,2,0:0:0:0:
504,174,73733,2,0,P|507:123|482:79,1,103.999995239258,10|2,0:0|0:0,0:0:0:0:
357,353,74067,1,2,3:2:0:0:
222,216,74233,2,0,P|177:231|137:292,1,103.999995239258,2|8,0:0|0:0,0:0:0:0:
170,384,74567,1,2,0:0:0:0:
341,151,74733,6,0,B|344:101|294:89|294:89|226:141|143:88,1,207.999990478516,2|10,3:2|0:0,0:0:0:0:
226,30,75233,1,2,0:0:0:0:
393,215,75400,2,0,P|417:173|411:111,1,103.999995239258,0|0,3:0|0:0,0:0:0:0:
175,211,75733,2,0,P|205:166|285:180,1,103.999995239258,8|2,0:0|0:0,0:0:0:0:
244,228,75983,1,2,0:0:0:0:
244,228,76067,5,2,3:2:0:0:
60,171,76233,1,2,0:0:0:0:
267,329,76400,1,10,0:0:0:0:
71,354,76567,1,2,0:0:0:0:
226,99,76733,1,2,3:2:0:0:
428,249,76900,2,0,P|438:309|447:372,1,103.999995239258,2|8,0:0|0:0,0:0:0:0:
504,168,77233,1,2,0:0:0:0:
226,99,77400,6,0,B|118:56|152:182|-2:102,1,207.999990478516,2|10,3:2|0:0,0:0:0:0:
80,30,77900,1,2,0:0:0:0:
192,190,78066,2,0,P|253:182|303:137,1,103.999995239258,0|2,3:0|0:0,0:0:0:0:
239,361,78400,1,10,0:0:0:0:
51,288,78566,1,2,0:0:0:0:
286,158,78733,6,0,P|382:128|466:190,1,207.999990478516,2|10,3:2|0:0,0:0:0:0:
406,265,79233,1,2,0:0:0:0:
256,90,79400,2,0,P|224:120|233:209,1,103.999995239258,0|2,3:0|0:0,0:0:0:0:
28,87,79733,1,10,0:0:0:0:
214,6,79900,1,2,0:0:0:0:
342,211,80067,6,0,P|459:191|482:85,1,207.999990478516,2|10,3:2|0:0,0:0:0:0:
380,80,80567,1,2,0:0:0:0:
508,245,80733,2,0,P|465:281|385:289,1,103.999995239258,0|2,3:0|0:0,0:0:0:0:
380,80,81066,1,10,0:0:0:0:
171,29,81233,1,2,0:0:0:0:
86,221,81400,5,14,0:0:0:0:
120,235,81483,1,2,0:0:0:0:
155,223,81567,2,0,P|171:191|178:165,1,51.999997619629,0|2,3:0|0:0,0:0:0:0:
260,62,81733,5,12,0:0:0:0:
322,49,81817,1,2,0:0:0:0:
380,80,81900,2,0,P|392:110|398:135,1,51.999997619629,0|2,3:0|0:0,0:0:0:0:
313,315,82067,5,14,0:0:0:0:
240,344,82150,1,2,0:0:0:0:
171,314,82233,1,2,3:2:0:0:
145,243,82317,1,2,0:0:0:0:
176,176,82399,5,10,0:0:0:0:
170,140,82483,1,2,0:0:0:0:
147,117,82566,1,2,3:2:0:0:
114,106,82649,1,2,0:0:0:0:
85,119,82733,6,0,P|226:136|237:89,1,207.999990478516,6|10,3:2|0:0,0:0:0:0:
196,33,83233,1,2,0:0:0:0:
26,268,83400,2,0,L|42:390,1,103.999995239258,0|0,3:0|0:0,0:0:0:0:
276,309,83733,2,0,L|290:192,1,103.999995239258,8|2,0:0|0:0,0:0:0:0:
30,75,84067,6,0,P|70:44|120:52,1,103.999995239258,2|2,3:2|0:0,0:0:0:0:
90,113,84317,1,2,0:0:0:0:
15,145,84400,2,0,P|12:94|38:50,1,103.999995239258,10|2,0:0|0:0,0:0:0:0:
163,324,84732,1,2,3:2:0:0:
308,194,84900,2,0,P|359:193|405:227,1,103.999995239258,2|8,0:0|0:0,0:0:0:0:
270,336,85232,1,2,0:0:0:0:
185,148,85400,6,0,B|200:107|149:84|149:84|85:166|3:135,1,207.999990478516,2|10,3:2|0:0,0:0:0:0:
54,56,85900,1,2,0:0:0:0:
189,257,86067,2,0,L|307:236,1,103.999995239258,0|0,3:0|0:0,0:0:0:0:
465,70,86400,2,0,L|354:47,1,103.999995239258,8|2,0:0|0:0,0:0:0:0:
102,99,86733,5,2,3:2:0:0:
398,195,86900,1,2,0:0:0:0:
102,291,87067,1,10,0:0:0:0:
285,39,87233,1,2,0:0:0:0:
285,351,87400,1,2,3:2:0:0:
102,99,87567,2,0,P|75:159|71:242,1,103.999995239258,2|8,0:0|0:0,0:0:0:0:
193,347,87899,1,2,0:0:0:0:
445,232,88067,6,0,B|394:268|394:268|391:103,1,207.999990478516,6|10,3:2|0:0,0:0:0:0:
272,40,88567,1,2,0:0:0:0:
108,196,88733,2,0,P|64:165|-4:150,1,103.999995239258,0|2,3:0|0:0,0:0:0:0:
255,205,89067,1,10,0:0:0:0:
133,45,89232,1,2,0:0:0:0:
490,59,89400,6,0,B|439:23|439:23|436:188,1,207.999990478516,6|10,3:2|0:0,0:0:0:0:
336,273,89900,1,2,0:0:0:0:
118,214,90067,2,0,L|135:339,1,103.999995239258,0|2,3:0|0:0,0:0:0:0:
139,72,90400,1,10,0:0:0:0:
9,227,90567,1,2,0:0:0:0:
336,273,90733,6,0,P|388:261|417:194,1,103.999995239258,6|0,3:2|0:0,0:0:0:0:
209,53,91067,1,10,3:2:0:0:
336,192,91233,1,2,3:2:0:0:
80,294,91400,6,0,P|24:265|7:191,1,103.999995239258,0|2,3:0|0:0,0:0:0:0:
209,53,91733,1,10,3:2:0:0:
90,208,91899,1,2,3:2:0:0:
324,295,92066,6,0,L|340:155,1,103.999995239258,6|8,3:2|0:0,0:0:0:0:
410,59,92316,1,8,0:0:0:0:
410,59,92400,2,0,P|432:97|441:134,1,51.999997619629,2|0,3:2|0:0,0:0:0:0:
443,261,92566,2,0,P|434:300|409:340,1,51.999997619629,10|0,0:0|0:0,0:0:0:0:
271,371,92732,5,2,3:2:0:0:
199,346,92816,1,2,0:0:0:0:
167,276,92899,1,10,0:0:0:0:
193,205,92982,1,2,0:0:0:0:
261,174,93067,5,2,3:2:0:0:
244,224,93150,1,2,3:2:0:0:
198,247,93233,1,2,0:0:0:0:
148,243,93316,1,2,0:0:0:0:
105,213,93399,5,4,0:0:0:0:
256,192,93484,12,0,95901,0:0:0:0:
256,192,96068,12,0,98568,0:0:0:0:
193,191,98733,6,0,L|181:101,3,68.0000012969971,2|2|2|2,0:0|0:0|0:3|0:0,0:0:0:0:
193,191,99566,1,2,0:0:0:0:
184,123,99733,1,2,0:3:0:0:
355,117,100066,6,0,L|444:128,3,68.0000012969971,2|2|2|2,0:0|0:0|0:3|0:0,0:0:0:0:
355,117,100899,1,2,0:0:0:0:
423,126,101066,1,2,0:3:0:0:
356,271,101400,6,0,L|344:360,3,68.0000012969971,2|2|2|2,0:0|0:0|0:3|0:0,0:0:0:0:
356,271,102232,1,2,0:0:0:0:
347,339,102399,1,2,0:3:0:0:
126,311,102733,6,0,B|210:352|291:300|239:204|321:160|411:196,1,335.999989746094,2|0,0:0|0:0,0:0:0:0:
476,264,104067,6,0,L|482:319,2,55.9999982910157,2|2|2,0:0|0:0|0:3,0:0:0:0:
400,192,104567,2,0,B|343:197|354:142|287:146,1,111.999996582031,2|0,0:0|0:0,0:0:0:0:
199,180,105066,1,2,0:3:0:0:
102,111,105400,6,0,L|107:56,2,55.9999982910157,2|2|2,0:0|0:0|0:3,0:0:0:0:
30,187,105900,2,0,L|43:306,1,111.999996582031,2|0,0:0|0:0,0:0:0:0:
131,362,106399,1,2,0:3:0:0:
283,303,106733,6,0,P|251:286|218:280,2,55.9999982910157,2|2|2,0:0|0:0|0:3,0:0:0:0:
367,368,107233,2,0,P|387:339|472:286,1,111.999996582031,2|0,0:0|0:0,0:0:0:0:
456,185,107732,1,2,0:3:0:0:
215,198,108067,6,0,P|240:181|273:163,2,55.9999982910157,2|2|2,0:0|0:0|0:3,0:0:0:0:
100,262,108567,1,2,0:0:0:0:
100,262,108733,1,2,0:3:0:0:
23,179,108900,2,0,P|31:118|84:96,1,111.999996582031,2|0,0:3|0:0,0:0:0:0:
215,198,109401,6,0,P|288:195|336:146,1,120.000004577637,2|2,0:0|0:3,0:0:0:0:
386,78,109901,2,0,P|316:73|269:37,1,120.000004577637,0|2,0:0|0:0,0:0:0:0:
161,69,110401,1,2,0:3:0:0:
19,140,110734,6,0,P|70:170|86:227,1,120.000004577637,2|2,0:0|0:3,0:0:0:0:
84,372,111568,2,0,P|48:356|22:331,1,60.0000022888184,2|2,0:0|0:3,0:0:0:0:
200,251,112068,6,0,P|240:264|260:339,1,120.000004577637,2|2,0:0|0:3,0:0:0:0:
403,352,112901,2,0,P|373:339|335:336,1,60.0000022888184,2|2,0:0|0:3,0:0:0:0:
377,164,113401,6,0,P|408:136|501:128,1,120.000004577637,2|2,0:0|0:3,0:0:0:0:
421,36,113901,2,0,L|295:22,1,120.000004577637,0|2,0:0|0:0,0:0:0:0:
229,90,114401,1,2,0:3:0:0:
229,90,114568,1,0,0:0:0:0:
100,151,114734,6,0,P|149:100|148:42,1,120.000004577637,2|2,0:0|0:3,0:0:0:0:
11,118,115233,2,0,L|24:256,1,120.000004577637,0|2,0:0|0:0,0:0:0:0:
131,251,115733,1,2,0:3:0:0:
242,334,116068,6,0,L|116:352,1,120.000004577637,2|2,0:0|0:3,0:0:0:0:
242,249,116901,2,0,P|277:253|312:272,1,60.0000022888184,2|2,0:0|0:3,0:0:0:0:
474,369,117401,6,0,B|487:249,1,120.000004577637,2|2,0:0|0:3,0:0:0:0:
386,122,118234,2,0,P|361:108|317:108,1,60.0000022888184,2|2,0:0|0:3,0:0:0:0:
174,228,118734,6,0,P|249:218|282:172,1,120.000004577637,2|2,0:0|0:3,0:0:0:0:
264,105,119401,1,2,0:0:0:0:
264,105,119568,1,2,0:0:0:0:
389,117,119734,2,0,P|399:154|406:187,1,60.0000022888184,2|0,0:3|0:0,0:0:0:0:
301,367,120068,6,0,L|141:335,1,136.000002593994,2|2,0:0|0:3,0:0:0:0:
54,304,120568,1,2,0:0:0:0:
54,185,120734,1,0,0:0:0:0:
168,148,120901,1,2,0:0:0:0:
237,244,121068,1,2,0:3:0:0:
237,244,121401,6,0,L|397:212,1,136.000002593994,2|2,0:0|0:3,0:0:0:0:
484,181,121901,1,2,0:0:0:0:
484,62,122067,1,0,0:0:0:0:
370,25,122234,1,2,0:0:0:0:
303,122,122401,1,2,0:3:0:0:
303,122,122734,6,0,L|145:77,1,136.000002593994,2|2,0:0|0:3,0:0:0:0:
54,65,123234,1,2,0:0:0:0:
0,172,123400,1,0,0:0:0:0:
85,256,123567,1,2,0:0:0:0:
190,202,123734,1,2,0:3:0:0:
190,202,124068,6,0,L|347:157,1,136.000002593994,2|2,0:0|0:3,0:0:0:0:
439,145,124568,1,2,0:0:0:0:
493,252,124734,1,0,0:0:0:0:
408,336,124901,1,2,0:0:0:0:
303,282,125068,1,2,0:3:0:0:
228,189,125401,6,0,P|173:211|163:240,1,80,0|0,3:0|0:0,0:0:0:0:
51,279,125734,2,0,B|144:282|91:362|198:374,1,160,2|0,0:3|0:0,0:0:0:0:
312,344,126234,2,0,P|287:316|273:253,1,80,0|2,3:0|0:3,0:0:0:0:
391,182,126568,1,2,0:3:0:0:
179,162,126734,5,0,3:0:0:0:
169,160,126817,1,0,3:0:0:0:
160,158,126900,1,0,3:0:0:0:
322,104,127068,2,0,P|373:124|384:203,1,120,2|2,0:3|0:3,0:0:0:0:
324,179,127401,1,0,3:0:0:0:
324,179,127568,1,0,3:0:0:0:
501,227,127734,2,0,L|513:141,1,80,2|0,0:3|0:0,0:0:0:0:
322,104,128068,5,0,3:0:0:0:
216,216,128234,1,0,0:0:0:0:
216,216,128318,1,0,0:0:0:0:
216,216,128401,6,0,L|84:187,2,120,2|2|0,0:3|0:3|3:0,0:0:0:0:
381,145,129068,5,2,0:0:0:0:
216,216,129234,6,0,P|205:167|226:121,1,80,2|0,3:0|0:0,0:0:0:0:
364,260,129484,6,0,P|320:286|270:280,1,80,2|0,3:0|0:0,0:0:0:0:
320,98,129734,6,0,P|365:121|387:166,1,80,2|0,3:0|3:0,0:0:0:0:
401,170,129984,1,0,3:0:0:0:
401,170,130068,1,0,3:0:0:0:
216,216,130234,1,0,3:0:0:0:
471,230,130401,1,8,0:0:0:0:
333,232,130734,6,0,P|391:265|476:221,1,160,6|10,3:2|0:0,0:0:0:0:
383,115,131234,1,0,0:0:0:0:
216,216,131401,2,0,L|225:296,1,80,2|0,0:0|3:0,0:0:0:0:
52,173,131734,2,0,L|62:85,1,80,10|0,0:0|0:0,0:0:0:0:
216,48,132068,6,0,P|291:49|334:132,1,160,2|10,3:2|0:0,0:0:0:0:
216,216,132568,1,0,0:0:0:0:
48,133,132734,2,0,L|58:212,1,80,2|0,0:0|3:0,0:0:0:0:
216,48,133068,2,0,L|196:146,1,80,10|0,0:0|0:0,0:0:0:0:
332,258,133401,6,0,B|397:260|417:198|417:198|475:179,2,160,2|10|2,3:2|0:0|0:0,0:0:0:0:
210,335,134234,1,0,3:0:0:0:
284,139,134401,2,0,P|321:152|344:185,1,80,10|0,0:0|0:0,0:0:0:0:
198,242,134734,6,0,P|110:209|20:198,1,160,2|10,3:2|0:0,0:0:0:0:
134,331,135234,1,0,0:0:0:0:
295,218,135401,2,0,L|281:123,1,80,2|0,0:0|3:0,0:0:0:0:
112,36,135734,2,0,L|92:136,1,80,10|0,0:0|0:0,0:0:0:0:
271,289,136068,6,0,P|208:277|129:341,1,160,2|10,3:2|0:0,0:0:0:0:
273,367,136568,1,0,0:0:0:0:
441,269,136734,2,0,L|453:177,1,80,2|0,0:0|3:0,0:0:0:0:
255,89,137068,2,0,L|260:193,1,80,10|0,0:0|0:0,0:0:0:0:
69,282,137401,6,0,P|17:231|71:142,1,160,2|10,3:2|0:0,0:0:0:0:
184,126,137901,1,0,0:0:0:0:
284,302,138068,2,0,L|188:286,1,80,2|0,0:0|3:0,0:0:0:0:
385,151,138401,2,0,L|305:160,1,80,10|2,0:0|0:0,0:0:0:0:
274,169,138651,1,2,0:0:0:0:
274,169,138734,6,0,P|192:139|243:78,1,160,2|10,3:2|0:0,0:0:0:0:
115,130,139233,2,0,P|93:114|83:99,1,40,2|2,0:0|0:0,0:0:0:0:
47,32,139399,2,0,L|65:228,1,160,2|10,0:0|0:0,0:0:0:0:
220,253,139900,2,0,P|211:235|213:216,1,40,2|2,0:0|0:0,0:0:0:0:
296,216,140067,6,0,P|282:261|225:196,1,160,2|10,3:2|0:0,0:0:0:0:
454,92,140568,1,0,3:0:0:0:
454,92,140651,1,0,3:0:0:0:
454,92,140734,2,0,P|456:152|424:192,1,80,0|0,3:0|3:0,0:0:0:0:
345,276,141068,2,0,P|312:251|295:196,1,80,10|0,0:0|0:0,0:0:0:0:
198,66,141401,6,0,P|269:51|370:57,1,160,6|10,3:2|0:0,0:0:0:0:
432,181,141901,1,0,0:0:0:0:
336,356,142068,2,0,L|246:346,1,80,2|0,0:0|3:0,0:0:0:0:
153,152,142401,2,0,L|251:142,1,80,10|0,0:0|0:0,0:0:0:0:
432,181,142734,6,0,B|336:177|389:269|272:266,1,160,2|10,3:2|0:0,0:0:0:0:
184,186,143234,1,0,0:0:0:0:
36,299,143401,2,0,L|47:206,1,80,2|0,0:0|3:0,0:0:0:0:
201,379,143734,2,0,L|190:269,1,80,10|0,0:0|0:0,0:0:0:0:
184,186,144068,5,2,3:2:0:0:
158,76,144234,1,0,0:0:0:0:
255,18,144401,1,10,0:0:0:0:
339,91,144568,1,0,0:0:0:0:
295,194,144734,1,2,0:0:0:0:
191,177,144901,1,0,3:0:0:0:
168,80,145068,1,10,0:0:0:0:
256,29,145234,1,0,0:0:0:0:
395,133,145401,6,0,B|404:114|440:97|440:97|339:91,1,160,2|10,3:2|0:0,0:0:0:0:
263,191,145901,1,0,0:0:0:0:
458,252,146068,2,0,P|470:214|470:175,1,80,2|0,0:0|3:0,0:0:0:0:
310,30,146401,2,0,P|270:70|277:117,1,80,10|0,0:0|0:0,0:0:0:0:
298,268,146734,6,0,L|469:253,2,160,2|10|2,3:2|0:0|0:0,0:0:0:0:
397,373,147568,1,0,3:0:0:0:
477,154,147734,2,0,P|446:154|400:191,1,80,10|0,0:0|0:0,0:0:0:0:
246,326,148068,6,0,B|168:328|198:231|103:243,1,160,2|10,3:2|0:0,0:0:0:0:
56,371,148568,1,0,0:0:0:0:
258,177,148734,2,0,L|249:256,1,80,2|0,0:0|3:0,0:0:0:0:
86,86,149068,2,0,L|95:196,1,80,10|0,0:0|0:0,0:0:0:0:
258,177,149401,6,0,L|349:160,1,60.0000022888184,2|0,3:2|0:0,0:0:0:0:
300,135,149568,2,0,L|388:135,1,60.0000022888184,0|0,3:0|0:0,0:0:0:0:
494,196,149734,1,2,0:0:0:0:
353,319,149901,5,0,3:0:0:0:
176,247,150068,2,0,P|146:258|129:276,1,40,10|0,0:0|0:0,0:0:0:0:
104,290,150234,2,0,L|96:248,3,26.6666666666667,2|2|2|2,0:0|0:0|0:0|3:2,0:0:0:0:
67,110,150568,1,0,3:0:0:0:
261,26,150734,5,2,0:0:0:0:
388,75,150901,1,8,0:0:0:0:
176,247,151067,1,2,3:2:0:0:
153,112,151234,1,0,3:0:0:0:
410,211,151401,1,8,0:0:0:0:
304,296,151567,1,0,0:0:0:0:
304,296,152067,6,0,B|343:262|325:212|325:212|374:248|459:249,1,207.999990478516,6|10,3:2|0:0,0:0:0:0:
497,187,152567,1,2,0:0:0:0:
262,138,152733,2,0,P|230:176|233:227,1,103.999995239258,0|0,3:0|0:0,0:0:0:0:
473,268,153067,2,0,P|434:226|357:218,1,103.999995239258,8|2,0:0|0:0,0:0:0:0:
211,378,153400,6,0,L|107:368,1,103.999995239258,2|2,3:2|0:0,0:0:0:0:
54,299,153650,1,2,0:0:0:0:
0,338,153733,2,0,L|102:321,1,103.999995239258,10|2,0:0|0:0,0:0:0:0:
396,276,154067,1,2,3:2:0:0:
238,164,154233,2,0,P|207:197|195:263,1,103.999995239258,2|8,0:0|0:0,0:0:0:0:
295,364,154567,1,2,0:0:0:0:
458,219,154733,6,0,B|437:173|387:185|387:185|350:262|254:238,1,207.999990478516,2|10,3:2|0:0,0:0:0:0:
307,158,155233,1,2,0:0:0:0:
436,361,155400,2,0,P|479:338|507:283,1,103.999995239258,0|0,3:0|0:0,0:0:0:0:
307,158,155733,2,0,P|265:190|276:268,1,103.999995239258,8|2,0:0|0:0,0:0:0:0:
332,228,155983,1,2,0:0:0:0:
332,228,156067,5,2,3:2:0:0:
60,318,156233,1,2,0:0:0:0:
182,88,156400,1,10,0:0:0:0:
219,330,156567,1,2,0:0:0:0:
26,103,156733,1,2,3:2:0:0:
264,19,156900,2,0,P|324:27|379:71,1,103.999995239258,2|8,0:0|0:0,0:0:0:0:
474,198,157232,1,2,0:0:0:0:
216,99,157400,6,0,P|197:181|177:308,1,207.999990478516,2|10,3:2|0:0,0:0:0:0:
78,259,157900,1,2,0:0:0:0:
240,384,158067,2,0,P|301:376|351:331,1,103.999995239258,0|2,3:0|0:0,0:0:0:0:
283,155,158400,1,10,0:0:0:0:
474,198,158567,1,2,0:0:0:0:
270,63,158733,6,0,P|185:113|206:220,1,207.999990478516,2|10,3:2|0:0,0:0:0:0:
283,155,159233,1,2,0:0:0:0:
69,180,159400,2,0,P|77:231|129:304,1,103.999995239258,0|2,3:0|0:0,0:0:0:0:
304,319,159733,1,10,0:0:0:0:
113,383,159900,1,2,0:0:0:0:
271,226,160067,6,0,B|371:198|349:307|471:297,1,207.999990478516,2|10,3:2|0:0,0:0:0:0:
442,210,160567,1,2,0:0:0:0:
304,319,160733,2,0,P|251:318|197:261,1,103.999995239258,0|2,3:0|0:0,0:0:0:0:
173,85,161066,1,10,0:0:0:0:
375,34,161232,1,2,0:0:0:0:
442,210,161400,5,14,0:0:0:0:
405,211,161483,1,2,0:0:0:0:
376,234,161567,2,0,L|371:295,1,51.999997619629,0|2,3:0|0:0,0:0:0:0:
201,369,161733,5,12,0:0:0:0:
139,383,161817,1,2,0:0:0:0:
84,345,161900,2,0,L|79:283,1,51.999997619629,0|2,3:0|0:0,0:0:0:0:
89,107,162067,5,14,0:0:0:0:
154,73,162150,1,2,0:0:0:0:
225,73,162233,1,2,3:2:0:0:
288,109,162317,1,2,0:0:0:0:
326,171,162399,5,10,0:0:0:0:
352,193,162483,1,2,0:0:0:0:
385,200,162566,1,2,3:2:0:0:
415,190,162649,1,2,0:0:0:0:
434,174,162733,6,0,B|386:150|316:158|338:250|234:236,1,207.999990478516,6|10,3:2|0:0,0:0:0:0:
260,147,163233,1,2,0:0:0:0:
382,360,163400,2,0,L|389:256,1,103.999995239258,0|0,3:0|0:0,0:0:0:0:
117,174,163733,2,0,L|128:277,1,103.999995239258,8|2,0:0|0:0,0:0:0:0:
301,40,164067,6,0,L|404:49,1,103.999995239258,2|2,3:2|0:0,0:0:0:0:
458,119,164317,1,2,0:0:0:0:
512,79,164400,2,0,L|409:95,1,103.999995239258,10|2,0:0|0:0,0:0:0:0:
117,174,164732,1,2,3:2:0:0:
360,303,164900,2,0,P|377:250|373:185,1,103.999995239258,2|8,0:0|0:0,0:0:0:0:
301,40,165232,1,2,0:0:0:0:
117,174,165399,6,0,B|331:156,1,207.999990478516,2|10,3:2|0:0,0:0:0:0:
301,40,165900,1,2,0:0:0:0:
203,263,166067,2,0,L|81:251,1,103.999995239258,0|0,3:0|0:0,0:0:0:0:
198,53,166400,2,0,L|311:38,1,103.999995239258,8|2,0:0|0:0,0:0:0:0:
468,136,166733,5,2,3:2:0:0:
237,344,166900,1,2,0:0:0:0:
302,39,167067,1,10,0:0:0:0:
429,323,167233,1,2,0:0:0:0:
159,168,167400,1,2,3:2:0:0:
468,136,167567,2,0,P|482:200|469:282,1,103.999995239258,2|8,0:0|0:0,0:0:0:0:
328,359,167900,1,2,0:0:0:0:
159,168,168067,6,0,B|144:146|152:119|152:119|242:140|223:264,1,207.999990478516,6|10,3:2|0:0,0:0:0:0:
119,339,168567,1,2,0:0:0:0:
26,133,168733,2,0,P|45:76|88:29,1,103.999995239258,0|2,3:0|0:0,0:0:0:0:
305,28,169067,1,10,0:0:0:0:
159,168,169232,1,2,0:0:0:0:
398,141,169400,6,0,B|416:121|411:93|411:93|320:104|325:230,1,207.999990478516,6|10,3:2|0:0,0:0:0:0:
388,337,169900,1,2,0:0:0:0:
157,383,170067,2,0,L|142:257,1,103.999995239258,0|2,3:0|0:0,0:0:0:0:
123,52,170400,1,10,0:0:0:0:
5,218,170567,1,2,0:0:0:0:
316,152,170733,6,0,P|376:141|448:182,1,103.999995239258,6|2,3:2|0:0,0:0:0:0:
191,18,171067,1,10,3:2:0:0:
30,145,171233,1,2,3:2:0:0:
306,269,171400,6,0,P|251:275|193:249,1,103.999995239258,0|2,3:0|0:0,0:0:0:0:
437,384,171733,1,10,3:2:0:0:
512,195,171900,1,2,3:2:0:0:
279,74,172067,6,0,P|253:123|246:203,1,103.999995239258,6|8,3:2|0:0,0:0:0:0:
167,345,172317,1,8,0:0:0:0:
167,345,172400,2,0,P|145:303|139:263,1,51.999997619629,2|0,3:2|0:0,0:0:0:0:
2,231,172567,2,0,P|6:177|16:152,1,51.999997619629,10|0,0:0|0:0,0:0:0:0:
141,42,172732,5,2,3:2:0:0:
215,38,172817,1,2,0:0:0:0:
279,74,172900,1,10,0:0:0:0:
315,139,172982,1,2,0:0:0:0:
310,213,173066,5,2,3:2:0:0:
320,250,173149,1,2,3:2:0:0:
346,272,173232,1,2,0:0:0:0:
383,280,173316,1,2,0:0:0:0:
416,269,173399,5,4,0:0:0:0:
256,192,173484,12,0,175901,0:0:0:0:
256,192,176068,12,0,178733,0:0:0:0:
181,384,184068,6,0,P|139:324|41:331,1,160,0|0,3:0|3:0,0:0:0:0:
190,261,184568,1,0,0:0:0:0:
42,242,184734,2,0,L|60:334,1,80,0|0,3:0|0:0,0:0:0:0:
190,261,185068,2,0,L|202:161,1,80,0|0,3:0|0:0,0:0:0:0:
94,83,185401,6,0,P|49:86|9:49,1,80,0|0,3:0|0:0,0:0:0:0:
155,14,185734,2,0,P|200:11|240:48,1,80,0|0,3:0|0:0,0:0:0:0:
199,181,186068,1,0,3:0:0:0:
327,127,186234,1,0,0:0:0:0:
327,127,186401,2,0,P|369:168|374:224,1,80,0|0,3:0|0:0,0:0:0:0:
482,306,186734,6,0,P|408:321|350:244,1,160,0|0,3:0|3:0,0:0:0:0:
222,326,187234,1,0,0:0:0:0:
298,201,187401,2,0,P|274:243|277:310,1,80,0|0,3:0|0:0,0:0:0:0:
134,318,187734,2,0,P|109:276|113:213,1,80,0|0,3:0|0:0,0:0:0:0:
52,111,188068,6,0,P|21:145|21:208,1,80,0|0,3:0|0:0,0:0:0:0:
158,166,188401,2,0,P|203:168|243:142,1,80,0|0,3:0|0:0,0:0:0:0:
245,32,188734,5,0,3:0:0:0:
299,120,188901,1,0,0:0:0:0:
464,67,189068,1,0,3:0:0:0:
464,67,189401,6,0,P|497:125|511:231,1,160,0|0,3:0|3:0,0:0:0:0:
427,333,189901,1,0,0:0:0:0:
324,221,190068,2,0,P|279:228|249:261,1,80,0|0,3:0|0:0,0:0:0:0:
122,326,190401,2,0,P|100:282|103:235,1,80,0|0,3:0|0:0,0:0:0:0:
174,125,190734,6,0,L|83:95,1,80,0|0,3:0|0:0,0:0:0:0:
249,36,191068,2,0,P|274:72|291:138,1,80,0|0,3:0|0:0,0:0:0:0:
324,221,191401,1,0,3:0:0:0:
434,143,191567,1,0,0:0:0:0:
434,143,191734,2,0,L|524:125,1,80,0|0,3:0|0:0,0:0:0:0:
452,261,192068,6,0,P|378:276|320:199,1,160,0|0,3:0|3:0,0:0:0:0:
227,325,192568,1,0,0:0:0:0:
262,154,192733,2,0,P|238:196|241:263,1,80,0|0,3:0|0:0,0:0:0:0:
106,304,193068,2,0,P|77:272|28:250,1,80,0|0,3:0|0:0,0:0:0:0:
139,156,193400,6,0,P|181:129|201:100,1,80,0|0,3:0|0:0,0:0:0:0:
364,79,193733,2,0,L|345:196,1,80,0|0,3:0|0:0,0:0:0:0:
328,289,194068,5,0,3:0:0:0:
255,215,194233,1,0,0:0:0:0:
106,304,194400,1,0,3:0:0:0:
106,304,194734,6,0,B|176:233|297:243|318:396|452:325|452:325|366:335|276:244,1,560,6|2,0:0|0:0,0:0:0:0:
420,215,197401,6,0,B|400:135|478:101|478:101|438:12|360:27,1,280,2|2,0:0|0:0,0:0:0:0:
280,123,198734,6,2,B|224:147|210:197|210:197|176:123|117:97|62:129,1,280
128,292,200068,6,0,B|258:248|266:399|437:411|466:297|456:210|411:178|329:147|265:192|280:241,1,560,2|2,0:0|0:0,0:0:0:0:
280,241,202734,6,0,P|383:208|288:119,1,280,2|2,0:0|0:0,0:0:0:0:
155,196,204068,6,0,P|52:229|147:318,1,280,2|0,0:0|0:0,0:0:0:0:
275,285,205401,5,6,0:0:0:0:
275,285,205568,1,0,0:0:0:0:
404,229,205734,2,0,P|441:248|474:290,1,80,2|0,0:3|0:0,0:0:0:0:
328,146,206068,2,0,P|286:146|248:180,1,80,2|2,0:0|0:0,0:0:0:0:
151,278,206401,2,0,L|154:194,1,80,2|0,0:3|0:0,0:0:0:0:
26,90,206734,6,0,L|38:184,1,80,2|0,0:0|0:0,0:0:0:0:
223,98,207068,2,0,L|217:-4,1,80,2|0,0:3|0:0,0:0:0:0:
148,198,207401,2,0,B|224:165|228:258|324:196,1,160,2|2,0:0|0:3,0:0:0:0:
405,138,208068,5,2,0:0:0:0:
300,209,208234,2,0,P|291:258|291:302,1,80,0|2,0:0|0:3,0:0:0:0:
52,164,208568,5,0,0:0:0:0:
154,84,208734,2,0,P|173:121|189:178,1,80,2|2,0:0|0:0,0:0:0:0:
437,10,209068,5,2,0:3:0:0:
301,39,209234,2,0,L|204:11,1,80,0|2,0:0|0:0,0:0:0:0:
31,251,209568,5,0,0:0:0:0:
132,320,209734,2,0,L|248:299,1,80,2|0,0:3|0:0,0:0:0:0:
437,163,210068,2,0,P|366:133|347:289,1,280,2|0,0:0|0:0,0:0:0:0:
352,267,210734,5,2,0:0:0:0:
169,226,210901,2,0,L|174:144,1,80,0|2,0:0|0:3,0:0:0:0:
349,72,211234,1,0,0:0:0:0:
172,11,211401,2,0,P|134:17|93:70,1,80,2|2,0:0|0:0,0:0:0:0:
59,226,211734,1,2,0:3:0:0:
0,135,211901,1,0,0:0:0:0:
214,126,212068,6,0,L|225:219,1,80,2|0,0:0|0:0,0:0:0:0:
306,329,212401,1,2,0:3:0:0:
447,289,212568,1,0,0:0:0:0:
457,142,212734,1,2,0:0:0:0:
317,89,212901,1,2,0:0:0:0:
223,205,213068,2,0,P|173:207|117:171,1,80,2|0,0:3|0:0,0:0:0:0:
128,73,213401,5,2,0:0:0:0:
279,246,213568,1,0,0:0:0:0:
234,73,213734,1,2,0:3:0:0:
114,261,213901,1,0,0:0:0:0:
0,97,214068,5,2,0:0:0:0:
272,167,214234,1,2,0:0:0:0:
173,26,214401,1,2,0:3:0:0:
114,261,214568,1,0,0:0:0:0:
243,99,214734,5,2,0:0:0:0:
284,295,214901,1,0,0:0:0:0:
384,180,215068,1,2,0:3:0:0:
206,220,215234,1,0,0:0:0:0:
358,274,215401,5,6,0:0:0:0:
278,155,215568,1,2,0:0:0:0:
317,214,215734,1,4,0:2:0:0:
384,180,215901,1,0,0:0:0:0:
234,53,216068,6,0,P|194:81|176:139,1,80,4|0,0:0|0:0,0:0:0:0:
76,206,216401,2,0,P|105:201|190:286,1,160,10|2,0:0|0:0,0:0:0:0:
119,334,216901,1,0,3:0:0:0:
283,247,217068,2,0,P|310:262|339:311,1,80,10|0,0:0|0:0,0:0:0:0:
440,127,217401,6,0,P|398:154|376:209,1,80,2|0,3:2|0:0,0:0:0:0:
263,112,217734,2,0,P|226:125|110:81,1,160,10|2,0:0|3:2,0:0:0:0:
185,37,218234,1,0,3:0:0:0:
32,141,218401,2,0,L|46:249,1,80,10|0,0:0|0:0,0:0:0:0:
156,283,218734,6,0,P|201:299|238:350,1,80,2|0,3:2|0:0,0:0:0:0:
371,171,219067,2,0,P|273:206|255:252,1,160,10|2,0:0|0:0,0:0:0:0:
344,280,219567,1,0,3:0:0:0:
490,168,219734,2,0,P|486:113|476:69,1,80,10|0,0:0|0:0,0:0:0:0:
350,24,220067,6,0,P|308:36|278:78,1,80,2|0,3:2|0:0,0:0:0:0:
279,217,220400,2,0,P|359:199|345:110,1,160,10|2,0:0|3:2,0:0:0:0:
265,116,220900,1,0,3:0:0:0:
149,236,221067,2,0,P|136:278|137:338,1,80,10|0,0:0|0:0,0:0:0:0:
269,317,221401,6,0,B|404:337|368:209|529:225,1,272.000005187988,4|0,3:2|3:0,0:0:0:0:
395,138,221901,6,0,B|260:158|296:30|139:50,1,272.000005187988,4|0,3:2|3:0,0:0:0:0:
86,236,222401,6,0,P|161:225|182:153,1,160,4|0,3:2|0:0,0:0:0:0:
71,122,222901,1,0,3:0:0:0:
4,347,223068,2,0,L|170:320,1,160,10|2,0:0|3:2,0:0:0:0:
278,239,223568,1,0,3:0:0:0:
441,366,223734,2,0,P|458:326|458:274,1,80,10|0,0:0|0:0,0:0:0:0:
307,158,224068,5,6,3:2:0:0:
448,141,224234,1,0,0:0:0:0:
291,90,224401,2,0,P|251:114|240:170,1,80,10|0,0:0|0:0,0:0:0:0:
338,286,224734,5,2,0:0:0:0:
197,303,224900,1,0,3:0:0:0:
354,354,225067,2,0,P|394:330|407:275,1,80,10|0,0:0|0:0,0:0:0:0:
291,90,225401,6,0,P|274:160|261:234,1,120,2|0,3:2|0:0,0:0:0:0:
197,303,225734,2,0,P|174:267|174:228,1,60.0000022888184,10|0,0:0|0:0,0:0:0:0:
131,94,225901,1,0,3:0:0:0:
169,82,225984,1,0,3:0:0:0:
208,71,226067,1,2,3:2:0:0:
33,39,226233,1,0,3:0:0:0:
87,277,226401,1,14,0:0:0:0:
87,277,226734,6,0,P|142:261|193:265,1,80,4|0,0:0|0:0,0:0:0:0:
272,198,227067,2,0,P|300:205|343:317,1,160,10|2,0:0|0:0,0:0:0:0:
251,332,227567,1,0,3:0:0:0:
437,380,227734,2,0,L|443:291,1,80,10|0,0:0|0:0,0:0:0:0:
430,123,228067,6,0,L|322:89,1,80,2|0,3:2|0:0,0:0:0:0:
221,151,228400,2,0,L|46:167,1,160,10|2,0:0|3:2,0:0:0:0:
94,85,228900,1,0,3:0:0:0:
241,224,229067,2,0,P|278:203|291:151,1,80,10|0,0:0|0:0,0:0:0:0:
107,189,229401,6,0,P|79:207|59:268,1,80,2|0,3:2|0:0,0:0:0:0:
230,327,229734,2,0,P|132:292|157:238,1,160,10|2,0:0|0:0,0:0:0:0:
241,224,230233,1,0,3:0:0:0:
383,336,230401,2,0,L|476:319,1,80,10|0,0:0|0:0,0:0:0:0:
494,137,230734,6,0,P|452:149|422:191,1,80,2|0,3:2|0:0,0:0:0:0:
266,141,231068,2,0,P|346:123|332:34,1,160,10|2,0:0|3:2,0:0:0:0:
265,35,231568,5,0,3:0:0:0:
87,117,231734,2,0,L|75:219,1,80,10|0,0:0|0:0,0:0:0:0:
132,341,232068,6,0,B|50:280|50:280|170:351|286:248,1,320,4|0,3:2|3:0,0:0:0:0:
362,97,232567,6,0,B|444:158|444:158|324:87|208:190,1,320,4|0,3:2|3:0,0:0:0:0:
304,347,233068,6,0,P|369:312|345:243,1,160,4|0,3:2|0:0,0:0:0:0:
255,273,233568,1,0,3:0:0:0:
424,375,233733,2,0,P|446:331|434:220,1,160,10|2,0:0|3:2,0:0:0:0:
312,152,234233,1,0,3:0:0:0:
143,271,234401,2,0,L|137:175,1,80,10|0,0:0|0:0,0:0:0:0:
219,46,234734,5,6,3:2:0:0:
312,152,234900,1,0,0:0:0:0:
138,191,235067,2,0,P|98:167|83:112,1,80,10|0,0:0|0:0,0:0:0:0:
252,228,235401,5,2,0:0:0:0:
159,122,235567,1,0,3:0:0:0:
333,83,235734,2,0,P|373:107|388:162,1,80,10|0,0:0|3:0,0:0:0:0:
267,310,236068,5,2,3:2:0:0:
29,215,236234,2,0,P|92:182|160:205,1,120,0|0,3:0|0:0,0:0:0:0:
290,221,236568,2,0,B|189:203|226:306|74:267,1,180.000006866455,0|0,3:0|0:0,0:0:0:0:
267,310,236901,2,0,P|349:298|378:195,1,180.000006866455,0|0,3:0|0:0,0:0:0:0:
471,146,237234,2,0,P|461:114|464:76,1,60.0000022888184,0|0,3:0|0:0,0:0:0:0:
361,27,237401,6,0,B|301:75|245:43|221:15|165:55|165:55|217:39|253:71,1,300,2|0,0:0|0:0,0:0:0:0:
90,128,238734,2,0,P|136:239|195:134,1,300,2|0,0:0|0:0,0:0:0:0:
247,36,240068,2,0,B|289:1|346:19|346:19|296:94|300:176|352:210,1,300,2|0,0:0|0:0,0:0:0:0:
408,291,241401,2,0,B|368:327|296:317|272:297|284:247|233:222|149:264|155:323,1,300,2|0,0:0|0:0,0:0:0:0:
47,256,242734,6,0,B|-23:135|44:78|44:78|116:103|115:146,1,300,2|0,0:0|0:0,0:0:0:0:
144,246,244068,2,0,B|234:236|236:145|236:145|299:198|374:163,1,300,2|0,0:0|0:0,0:0:0:0:
377,67,245401,2,0,B|388:13|460:17|460:17|522:81|478:211,1,300,2|0,0:0|0:0,0:0:0:0:
471,319,246734,2,0,B|442:345|403:346|323:310|390:246|362:201|274:180|235:238,1,300,2|0,0:0|0:0,0:0:0:0:
275,349,248068,6,0,P|236:320|121:309,1,160,2|2,3:2|3:2,0:0:0:0:
30,300,248568,1,2,0:0:0:0:
153,227,248734,2,0,P|192:192|201:158,1,80,0|0,3:0|0:0,0:0:0:0:
68,94,249068,2,0,P|83:131|116:154,1,80,0|2,3:0|0:0,0:0:0:0:
182,81,249401,5,2,3:2:0:0:
200,167,249568,1,2,0:0:0:0:
259,65,249734,1,2,3:2:0:0:
223,237,249901,1,2,0:0:0:0:
298,136,250068,1,2,3:2:0:0:
334,207,250234,2,0,P|383:178|396:145,1,80,2|0,0:0|3:0,0:0:0:0:
428,43,250568,1,2,0:0:0:0:
334,207,250734,6,0,B|246:173|265:257|161:203,1,160,2|2,3:2|3:2,0:0:0:0:
219,150,251234,1,2,0:0:0:0:
298,269,251401,2,0,L|307:380,1,80,0|0,3:0|0:0,0:0:0:0:
445,303,251734,2,0,L|454:214,1,80,0|2,3:0|0:0,0:0:0:0:
380,108,252068,5,2,3:2:0:0:
213,58,252234,1,2,0:0:0:0:
300,37,252401,1,2,3:2:0:0:
228,226,252568,1,2,0:0:0:0:
310,188,252734,1,2,3:2:0:0:
97,135,252901,2,0,L|91:216,1,80,2|0,0:0|3:0,0:0:0:0:
11,310,253234,1,2,0:0:0:0:
178,351,253401,6,0,L|267:372,1,80,2|0,3:2|0:0,0:0:0:0:
310,188,253734,1,2,3:0:0:0:
310,188,253818,1,2,0:0:0:0:
310,188,253901,2,0,P|269:214|249:258,1,80,2|0,0:0|3:0,0:0:0:0:
349,351,254234,1,2,0:0:0:0:
459,302,254401,1,2,3:0:0:0:
349,351,254568,1,2,0:0:0:0:
349,351,254651,1,2,0:0:0:0:
349,351,254734,6,0,L|338:256,1,80,2|0,3:2|0:0,0:0:0:0:
326,129,255068,1,2,3:0:0:0:
179,220,255234,1,2,0:0:0:0:
179,220,255318,1,2,0:0:0:0:
179,220,255401,2,0,P|132:222|90:183,1,80,0|2,3:0|0:0,0:0:0:0:
140,55,255734,1,2,3:0:0:0:
43,134,255901,1,2,0:0:0:0:
140,55,256068,6,0,L|256:69,1,80,2|0,3:2|0:0,0:0:0:0:
287,234,256401,2,0,L|185:220,1,80,0|2,3:2|3:2,0:0:0:0:
179,220,256651,1,0,3:0:0:0:
179,220,256734,1,0,3:0:0:0:
317,144,256901,1,2,3:2:0:0:
445,264,257068,1,2,3:2:0:0:
142,331,257234,1,2,0:0:0:0:
142,331,257401,6,0,P|45:320|108:245,1,240,2|2,0:0|0:0,0:0:0:0:
108,245,258734,6,0,P|44:319|142:331,1,240.000009155274,4|10,0:0|0:0,0:0:0:0:
251,251,259234,1,2,0:0:0:0:
50,100,259401,2,0,P|12:134|8:211,1,120.000004577637,0|0,3:0|0:0,0:0:0:0:
243,370,259733,2,0,L|251:239,1,120.000004577637,8|2,0:0|0:0,0:0:0:0:
421,89,260067,6,0,L|438:241,1,120.000004577637,2|2,3:2|0:0,0:0:0:0:
499,137,260317,1,2,0:0:0:0:
504,53,260401,2,0,P|469:13|405:17,1,120.000004577637,10|2,0:0|0:0,0:0:0:0:
88,146,260734,1,2,3:2:0:0:
273,307,260901,2,0,P|325:273|333:196,1,120.000004577637,2|8,0:0|0:0,0:0:0:0:
240,55,261234,1,2,0:0:0:0:
39,221,261400,6,0,B|70:249|137:264|132:208|183:165|240:196|254:224,1,240.000009155274,2|10,3:2|0:0,0:0:0:0:
175,328,261900,1,2,0:0:0:0:
167,71,262067,2,0,P|113:92|87:145,1,120.000004577637,0|0,3:0|0:0,0:0:0:0:
362,184,262401,2,0,P|423:180|469:125,1,120.000004577637,8|2,0:0|0:0,0:0:0:0:
386,99,262650,1,2,0:0:0:0:
386,99,262734,5,2,3:2:0:0:
268,307,262900,1,2,0:0:0:0:
512,212,263067,1,10,0:0:0:0:
286,99,263233,1,2,0:0:0:0:
103,383,263400,1,2,3:2:0:0:
359,234,263567,2,0,P|407:257|446:338,1,120.000004577637,2|8,0:0|0:0,0:0:0:0:
512,106,263900,1,2,0:0:0:0:
275,202,264067,6,0,B|212:129|268:39|268:39|264:74|290:104,1,240.000009155274,2|10,3:2|0:0,0:0:0:0:
268,307,264567,1,2,0:0:0:0:
457,92,264734,2,0,P|413:54|354:46,1,120.000004577637,0|2,3:0|0:0,0:0:0:0:
159,187,265067,1,10,0:0:0:0:
376,132,265234,1,2,0:0:0:0:
32,65,265400,6,0,P|112:56|156:190,1,240.000009155274,2|10,3:2|0:0,0:0:0:0:
22,179,265900,1,2,0:0:0:0:
262,6,266067,2,0,L|278:136,1,120.000004577637,0|2,3:0|0:0,0:0:0:0:
169,344,266400,1,10,0:0:0:0:
22,179,266567,1,2,0:0:0:0:
309,276,266734,6,0,B|424:277|366:155|512:173,1,240.000009155274,2|10,3:2|0:0,0:0:0:0:
499,299,267234,1,2,0:0:0:0:
288,101,267400,2,0,P|241:81|164:115,1,120.000004577637,0|2,3:0|0:0,0:0:0:0:
6,267,267733,1,10,0:0:0:0:
215,384,267899,1,2,0:0:0:0:
330,153,268067,5,14,0:0:0:0:
397,152,268149,1,2,0:0:0:0:
461,177,268233,2,0,P|458:218|439:271,1,60.0000022888184,0|2,3:0|0:0,0:0:0:0:
281,367,268399,5,12,0:0:0:0:
215,384,268482,1,2,0:0:0:0:
152,355,268566,2,0,P|145:311|149:284,1,60.0000022888184,0|2,3:0|0:0,0:0:0:0:
252,71,268733,5,14,0:0:0:0:
181,32,268817,1,2,0:0:0:0:
105,54,268900,1,2,3:2:0:0:
70,122,268983,1,2,0:0:0:0:
92,157,269066,5,10,0:0:0:0:
101,200,269149,1,2,0:0:0:0:
85,240,269232,1,2,3:2:0:0:
49,263,269317,1,2,0:0:0:0:
6,267,269399,6,0,P|133:234|196:326,1,240.000009155274,6|10,3:2|0:0,0:0:0:0:
82,365,269900,1,2,0:0:0:0:
228,104,270067,2,0,L|372:85,1,120.000004577637,0|0,3:0|0:0,0:0:0:0:
482,350,270401,2,0,L|326:323,1,120.000004577637,8|2,0:0|0:0,0:0:0:0:
108,119,270733,6,0,L|259:99,1,120.000004577637,2|2,3:2|0:0,0:0:0:0:
154,39,270983,1,2,0:0:0:0:
71,36,271067,2,0,P|31:71|36:135,1,120.000004577637,10|2,0:0|0:0,0:0:0:0:
276,384,271401,1,2,3:2:0:0:
456,217,271567,2,0,P|395:204|335:244,1,120.000004577637,2|8,0:0|0:0,0:0:0:0:
241,66,271901,1,2,0:0:0:0:
59,293,272067,6,0,B|87:262|128:269|128:269|186:187|104:89,1,240.000009155274,2|10,3:2|0:0,0:0:0:0:
0,73,272567,1,2,0:0:0:0:
114,340,272733,2,0,P|172:350|227:329,1,120.000004577637,0|0,3:0|0:0,0:0:0:0:
443,120,273067,2,0,L|457:265,1,120.000004577637,8|2,0:0|0:0,0:0:0:0:
159,69,273400,5,2,3:2:0:0:
455,240,273567,1,2,0:0:0:0:
115,275,273734,1,10,0:0:0:0:
369,46,273900,1,2,0:0:0:0:
298,382,274067,1,2,3:2:0:0:
159,69,274234,2,0,P|120:135|107:223,1,120.000004577637,2|8,0:0|0:0,0:0:0:0:
200,356,274568,1,2,0:0:0:0:
480,191,274734,6,0,B|429:227|429:227|404:127|250:123,1,240.000009155274,6|10,3:2|0:0,0:0:0:0:
152,193,275234,1,2,0:0:0:0:
335,381,275401,2,0,L|344:221,1,120.000004577637,0|2,3:0|0:0,0:0:0:0:
353,30,275734,1,10,0:0:0:0:
480,191,275901,1,2,0:0:0:0:
216,376,276068,6,0,B|252:325|252:325|152:300|148:146,1,240.000009155274,6|10,3:2|0:0,0:0:0:0:
285,108,276567,1,2,0:0:0:0:
469,294,276734,2,0,P|417:246|321:246,1,120.000004577637,0|2,3:0|0:0,0:0:0:0:
153,323,277067,1,10,0:0:0:0:
63,138,277234,1,2,0:0:0:0:
370,235,277401,6,0,P|422:223|451:138,1,120.000004577637,6|0,3:2|0:0,0:0:0:0:
185,102,277734,1,10,3:2:0:0:
381,26,277900,1,2,3:2:0:0:
154,215,278068,6,0,P|130:262|178:338,1,120.000004577637,4|2,3:0|0:0,0:0:0:0:
372,155,278400,1,10,3:2:0:0:
329,363,278568,1,2,3:2:0:0:
187,102,278734,6,0,P|125:105|81:155,1,120.000004577637,6|0,3:2|0:0,0:0:0:0:
46,314,278983,1,0,3:0:0:0:
46,314,279066,2,0,P|84:337|92:354,1,60.0000022888184,6|2,3:2|0:0,0:0:0:0:
230,179,279233,2,0,P|202:217|199:264,1,60.0000022888184,2|2,3:2|0:0,0:0:0:0:
329,363,279400,5,4,0:0:0:0:
411,366,279483,1,2,0:0:0:0:
462,300,279566,1,10,0:0:0:0:
438,219,279649,1,2,0:0:0:0:
366,195,279733,5,2,3:2:0:0:
319,254,279816,1,2,3:2:0:0:
245,267,279899,1,2,0:0:0:0:
179,229,279982,1,2,0:0:0:0:
173,134,280067,6,0,P|266:118|303:176,1,160,6|8,3:2|0:0,0:0:0:0:
245,267,280568,1,2,0:0:0:0:
74,158,280734,1,0,3:0:0:0:
110,274,280901,1,2,0:0:0:0:
173,134,281068,2,0,P|210:110|267:124,1,80,8|2,0:0|0:0,0:0:0:0:
304,310,281401,6,0,P|254:287|246:239,1,80,0|2,3:0|0:0,0:0:0:0:
426,218,281734,2,0,P|445:235|454:292,1,80,8|2,0:0|0:0,0:0:0:0:
245,266,282068,1,0,3:0:0:0:
355,358,282234,1,2,0:0:0:0:
360,199,282401,2,0,L|362:105,1,80,8|2,0:0|0:0,0:0:0:0:
219,50,282734,6,0,P|175:46|125:16,1,80,0|2,3:0|0:0,0:0:0:0:
26,161,283068,2,0,P|70:147|112:155,1,80,8|2,0:0|0:0,0:0:0:0:
215,323,283401,1,0,3:0:0:0:
90,303,283568,1,2,0:0:0:0:
210,189,283734,2,0,P|199:132|180:102,1,80,8|2,0:0|0:0,0:0:0:0:
90,303,284068,6,0,B|186:296|152:391|251:376,1,180.000006866455,0|0,3:0|0:0,0:0:0:0:
339,269,284401,2,0,B|304:244|263:277|263:277|303:308|353:280,1,180.000006866455,8|0,0:0|0:0,0:0:0:0:
460,304,284734,2,0,B|483:217|396:217|444:132,1,180.000006866455,0|0,3:0|0:0,0:0:0:0:
372,64,285068,2,0,B|388:41|411:37|411:37|343:52|381:-12|231:35,1,180.000006866455,8|0,0:0|0:0,0:0:0:0:
181,99,285401,6,0,L|193:198,1,80,6|2,3:2|0:0,0:0:0:0:
9,275,285734,2,0,L|19:161,1,80,8|2,0:0|0:0,0:0:0:0:
181,99,286068,1,0,3:0:0:0:
37,73,286234,1,2,0:0:0:0:
239,11,286401,2,0,P|261:23|285:89,1,80,8|2,0:0|0:0,0:0:0:0:
390,185,286734,6,0,L|486:174,1,80,4|2,3:2|0:0,0:0:0:0:
372,357,287068,2,0,L|270:342,1,80,8|2,0:0|0:0,0:0:0:0:
390,185,287401,1,0,3:0:0:0:
478,298,287568,1,2,0:0:0:0:
294,200,287734,2,0,P|295:150|331:109,1,80,8|2,0:0|0:0,0:0:0:0:
153,207,288068,6,0,B|59:210|92:100|-27:136,1,180.000006866455,4|0,3:2|0:0,0:0:0:0:
114,41,288401,2,0,B|111:14|120:-20|190:19|193:75|152:123,1,180.000006866455,8|0,0:0|0:0,0:0:0:0:
113,286,288734,2,0,P|196:284|243:204,1,180.000006866455,0|0,3:0|0:0,0:0:0:0:
385,110,289067,2,0,B|359:116|326:106|326:106|380:154|380:233,1,180.000006866455,8|0,0:0|0:0,0:0:0:0:
311,361,289401,6,0,P|351:333|412:341,1,80,4|8,3:2|0:0,0:0:0:0:
494,301,289650,1,2,0:0:0:0:
470,298,289733,1,2,0:0:0:0:
446,297,289816,1,2,0:0:0:0:
424,294,289899,1,10,0:0:0:0:
400,293,289983,1,2,0:0:0:0:
378,291,290066,1,2,0:0:0:0:
358,287,290151,5,2,0:0:0:0:
322,251,290234,1,10,0:0:0:0:
310,200,290318,1,2,0:0:0:0:
327,152,290401,1,2,0:0:0:0:
368,120,290484,1,2,0:0:0:0:
420,115,290568,1,10,0:0:0:0:
465,139,290651,1,2,0:0:0:0:
491,179,290734,6,0,L|491:274,1,80,6|2,3:2|0:0,0:0:0:0:
334,315,291068,2,0,L|334:215,1,80,8|2,0:0|0:0,0:0:0:0:
330,40,291401,1,0,3:0:0:0:
183,157,291568,1,2,0:0:0:0:
389,183,291734,1,8,0:0:0:0:
232,80,291901,1,2,0:0:0:0:
28,237,292068,6,0,P|65:293|101:303,1,80,0|2,3:0|0:0,0:0:0:0:
258,157,292401,2,0,P|204:147|161:181,1,80,8|2,0:0|0:0,0:0:0:0:
279,361,292733,1,0,3:0:0:0:
426,244,292900,1,2,0:0:0:0:
220,218,293067,1,8,0:0:0:0:
377,321,293233,1,2,0:0:0:0:
490,119,293401,6,0,B|418:143|424:50|331:76,1,160,0|8,3:0|0:0,0:0:0:0:
174,168,293901,1,2,0:0:0:0:
363,145,294068,1,0,3:0:0:0:
292,248,294234,1,2,0:0:0:0:
208,89,294401,1,8,0:0:0:0:
142,251,294568,1,2,0:0:0:0:
379,233,294734,6,0,P|432:283|452:368,1,160,0|8,3:0|0:0,0:0:0:0:
289,384,295234,1,2,0:0:0:0:
142,251,295401,2,0,B|59:242|88:337|-28:315,1,160,0|8,3:0|0:0,0:0:0:0:
75,181,295901,1,2,0:0:0:0:
268,305,296068,5,6,3:2:0:0:
437,119,296234,1,2,0:0:0:0:
410,367,296401,1,8,0:0:0:0:
285,150,296568,1,2,0:0:0:0:
512,251,296734,1,0,3:0:0:0:
268,305,296901,1,2,0:0:0:0:
437,118,297068,1,8,0:0:0:0:
410,367,297234,1,2,0:0:0:0:
206,223,297401,6,0,P|158:247|150:316,1,103.999995239258,4|2,3:2|0:0,0:0:0:0:
22,85,297734,2,0,P|63:109|92:179,1,103.999995239258,8|2,0:0|0:0,0:0:0:0:
222,58,298068,2,0,L|337:43,1,103.999995239258,0|2,3:0|0:0,0:0:0:0:
397,232,298401,2,0,L|275:213,1,103.999995239258,8|2,0:0|0:0,0:0:0:0:
53,333,298734,6,0,P|117:352|156:270,1,155.999992858887,4|0,3:2|0:0,0:0:0:0:
220,169,299068,2,0,P|245:175|266:199,1,51.999997619629,8|0,0:0|0:0,0:0:0:0:
341,163,299234,2,0,P|348:184|349:220,1,51.999997619629,2|0,3:2|0:0,0:0:0:0:
460,335,299401,6,0,L|473:143,1,155.999992858887,0|0,3:0|0:0,0:0:0:0:
386,29,299734,2,0,P|415:24|453:35,1,51.999997619629,8|0,0:0|0:0,0:0:0:0:
299,87,299901,2,0,P|269:92|230:70,1,51.999997619629,2|0,3:2|0:0,0:0:0:0:
98,10,300068,6,0,P|78:70|114:138,1,103.999995239258,4|0,3:2|0:0,0:0:0:0:
120,158,300318,1,0,3:0:0:0:
108,216,300401,1,8,0:0:0:0:
63,254,300484,1,2,0:0:0:0:
3,245,300568,1,2,0:0:0:0:
120,158,300733,5,10,0:0:0:0:
176,175,300816,1,2,0:0:0:0:
235,178,300899,1,2,0:0:0:0:
291,157,300983,1,2,0:0:0:0:
340,125,301066,1,10,0:0:0:0:
395,102,301149,1,0,0:0:0:0:
454,104,301232,1,0,0:0:0:0:
511,122,301316,1,0,0:0:0:0:
511,122,302068,6,0,B|455:48|316:23|241:155|266:285|364:335|452:314|494:267|494:267|438:251|424:221|448:191|355:141|270:155|229:214|306:341|206:374|18:331|0:229|31:155|31:155|76:183|100:155|139:184|146:228|146:228|137:152|154:74|205:97|238:68|238:68|250:139|221:171,1,1631.99995019531,4|0,3:0|0:0,0:0:0:0:
