osu file format v14

[General]
AudioFilename: audio.mp3
AudioLeadIn: 0
PreviewTime: 53951
Countdown: 0
SampleSet: Soft
StackLeniency: 0.7
Mode: 0
LetterboxInBreaks: 0
EpilepsyWarning: 1
WidescreenStoryboard: 1

[Editor]
DistanceSpacing: 0.4
BeatDivisor: 4
GridSize: 8
TimelineZoom: 1

[Metadata]
Title:Charles (Arrange ver.)
TitleUnicode:シャルル (Arrange ver.)
Artist:Hanabasami Kyo
ArtistUnicode:花鋏キョウ
Creator:Heilia
Version:hehe's Extra
Source:
Tags:バルーン balloon vocaloid Vtuber syaruru re:act ハサミウタ hasami_uta japanese novelty 歌ってみた sharuru hehe handsome garden flask dh02
BeatmapID:2238163
BeatmapSetID:1069145

[Difficulty]
HPDrainRate:5
CircleSize:4
OverallDifficulty:8
ApproachRate:9
SliderMultiplier:1.4
SliderTickRate:1

[Events]
//Background and Video events
0,0,"charles.jpg",0,0
//Break Periods
//Storyboard Layer 0 (Background)
//Storyboard Layer 1 (Fail)
//Storyboard Layer 2 (Pass)
//Storyboard Layer 3 (Foreground)
//Storyboard Layer 4 (Overlay)
//Storyboard Sound Samples

[TimingPoints]
726,422.535211267606,4,2,1,40,1,0
726,-100,4,2,1,40,0,0
7486,-71.4285714285714,4,2,1,50,0,0
14035,-50,4,2,1,60,0,0
14247,-71.4285714285714,4,2,1,60,0,0
27768,-100,4,2,1,70,0,0
34528,-71.4285714285714,4,2,1,70,0,0
41289,-166.666666666667,4,2,1,50,0,0
47627,-71.4285714285714,4,2,1,50,0,0
48049,-166.666666666667,4,2,1,50,0,0
53120,-50,4,2,1,60,0,0
54387,-151.515151515152,4,2,1,60,0,0
54810,-45.4545454545455,4,2,1,80,0,1
55233,-29.4117647058824,4,2,1,80,0,1
56500,-45.4545454545455,4,2,1,80,0,1
58190,-29.4117647058824,4,2,1,80,0,1
58613,-45.4545454545455,4,2,1,80,0,1
60303,-29.4117647058824,4,2,1,80,0,1
61571,-45.4545454545455,4,2,1,80,0,1
64951,-29.4117647058824,4,2,1,80,0,1
65373,-45.4545454545455,4,2,1,80,0,1
66641,-33.3333333333333,4,2,1,80,0,0
68331,-45.4545454545455,4,2,1,80,0,1
68754,-29.4117647058824,4,2,1,80,0,1
70021,-45.4545454545455,4,2,1,80,0,1
71711,-29.4117647058824,4,2,1,80,0,1
72134,-45.4545454545455,4,2,1,80,0,1
73824,-29.4117647058824,4,2,1,80,0,1
75092,-45.4545454545455,4,2,1,80,0,1
78472,-29.4117647058824,4,2,1,80,0,1
78895,-45.4545454545455,4,2,1,80,0,1
80162,-100,4,2,1,60,0,0

[Colours]
Combo1 : 251,230,155
Combo2 : 213,187,234

[HitObjects]
121,336,303,6,0,P|154:324|189:325,1,70
402,359,726,5,2,0:0:0:0:
324,356,831,1,2,0:0:0:0:
267,304,937,1,2,0:0:0:0:
258,228,1042,1,2,0:0:0:0:
301,164,1148,1,2,0:0:0:0:
459,34,1571,5,0,0:0:0:0:
439,168,1782,2,0,P|431:133|412:102,2,70
402,359,2416,5,2,0:0:0:0:
324,356,2521,1,2,0:0:0:0:
267,304,2627,1,2,0:0:0:0:
258,228,2732,1,2,0:0:0:0:
301,164,2838,1,2,0:0:0:0:
178,264,3155,5,0,0:0:0:0:
178,264,3261,2,0,P|153:193|160:172,1,70
72,277,3683,2,0,P|67:243|74:209,1,70
402,359,4106,5,2,0:0:0:0:
324,356,4211,1,2,0:0:0:0:
267,304,4317,1,2,0:0:0:0:
258,228,4422,1,2,0:0:0:0:
301,164,4528,1,2,0:0:0:0:
222,44,4951,6,0,P|161:81|138:137,1,105
144,125,5373,1,0,0:0:0:0:
189,333,5585,1,0,0:0:0:0:
402,359,5796,5,2,0:0:0:0:
324,356,5901,1,2,0:0:0:0:
267,304,6007,1,2,0:0:0:0:
258,228,6112,1,2,0:0:0:0:
301,164,6218,1,2,0:0:0:0:
114,131,6852,6,0,B|114:111|96:89|76:78|76:78|100:104|101:144,1,140,2|2,0:0|0:0,0:0:0:0:
47,217,7486,5,2,1:2:0:0:
83,221,7591,1,2,0:0:0:0:
113,240,7697,1,2,0:0:0:0:
131,272,7802,1,2,0:0:0:0:
134,308,7909,6,0,P|182:311|224:336,1,97.9999970092774,2|0,0:0|0:0,0:0:0:0:
323,315,8226,1,0,0:0:0:0:
309,347,8331,2,0,P|296:300|264:263,1,97.9999970092774,8|0,0:0|0:0,0:0:0:0:
265,167,8648,1,0,0:0:0:0:
235,188,8754,1,0,0:0:0:0:
380,219,8965,1,0,0:0:0:0:
320,16,9176,5,2,1:2:0:0:
308,50,9281,1,2,0:0:0:0:
312,86,9387,1,2,0:0:0:0:
332,117,9492,1,2,0:0:0:0:
363,135,9599,6,0,P|393:97|440:85,1,97.9999970092774,2|0,0:0|1:0,0:0:0:0:
471,186,9916,1,0,0:0:0:0:
437,172,10021,2,0,P|424:218|441:263,1,97.9999970092774,8|0,0:0|0:0,0:0:0:0:
512,119,10444,1,0,0:0:0:0:
476,334,10655,1,0,0:0:0:0:
296,191,10866,5,2,1:2:0:0:
277,222,10971,1,2,0:0:0:0:
249,245,11077,1,2,0:0:0:0:
214,256,11182,1,2,0:0:0:0:
178,253,11288,1,2,0:0:0:0:
104,159,11500,6,0,P|115:180|120:204,2,48.9999985046387,0|0|8,0:0|0:0|0:0,0:0:0:0:
7,57,11923,5,0,0:0:0:0:
45,86,12028,1,0,0:0:0:0:
93,80,12134,1,0,0:0:0:0:
271,100,12345,6,0,P|265:123|254:145,1,48.9999985046387
212,45,12556,5,2,1:2:0:0:
277,5,12661,1,2,0:0:0:0:
354,15,12767,1,2,0:0:0:0:
350,92,12874,1,2,0:0:0:0:
396,154,12979,1,6,0:0:0:0:
192,196,13190,5,0,0:0:0:0:
396,154,13402,5,2,0:0:0:0:
350,92,13507,1,2,0:0:0:0:
354,15,13614,1,2,0:0:0:0:
277,5,13718,1,2,0:0:0:0:
212,45,13825,1,6,0:0:0:0:
191,195,14035,6,0,P|213:223|223:256,1,70
300,279,14247,6,0,P|228:284|162:316,1,146.999995513916,4|0,1:2|0:0,0:0:0:0:
88,314,14669,2,0,P|77:293|96:280,1,48.9999985046387
428,341,14986,5,0,0:0:0:0:
428,341,15092,2,0,B|395:367|395:367|371:317|400:246|451:232,1,195.999994018555,8|0,0:0|0:0,0:0:0:0:
503,293,15726,1,0,0:0:0:0:
467,119,15937,6,0,L|477:166,4,48.9999985046387,2|2|2|2|2,1:2|0:0|0:0|0:0|0:0,0:0:0:0:
376,36,16571,5,0,1:0:0:0:
376,36,16676,1,0,0:0:0:0:
376,36,16782,2,0,P|327:53|287:104,1,97.9999970092774,8|0,0:0|0:0,0:0:0:0:
329,260,17204,2,0,P|333:187|369:123,1,146.999995513916
308,180,17627,6,0,L|242:190,3,48.9999985046387,2|2|2|2,1:2|0:0|0:0|0:0,0:0:0:0:
180,191,18049,2,0,P|169:170|188:157,1,48.9999985046387,2|0,0:0|0:0,0:0:0:0:
161,84,18261,5,0,0:0:0:0:
161,84,18366,1,0,0:0:0:0:
161,84,18472,2,0,P|143:39|112:1,1,97.9999970092774,8|0,0:0|0:0,0:0:0:0:
40,217,18895,2,0,P|70:178|89:133,1,97.9999970092774
35,30,19317,6,0,L|23:96,4,48.9999985046387,2|2|2|2|2,1:2|0:0|0:0|0:0|0:0,0:0:0:0:
116,101,19951,5,0,1:0:0:0:
116,101,20056,1,0,0:0:0:0:
116,101,20162,2,0,P|142:114|159:133,1,48.9999985046387,8|0,0:0|0:0,0:0:0:0:
44,187,20373,2,0,P|71:177|97:179,1,48.9999985046387,8|0,0:0|0:0,0:0:0:0:
224,85,20585,2,0,P|233:111|232:138,1,48.9999985046387,8|0,0:0|0:0,0:0:0:0:
298,268,20796,5,0,0:0:0:0:
298,268,20902,1,0,0:0:0:0:
298,268,21007,2,0,P|364:224|366:140,1,146.999995513916,4|0,1:2|0:0,0:0:0:0:
367,82,21430,2,0,P|353:68|347:89,1,48.9999985046387
192,200,21641,5,0,1:0:0:0:
192,200,21747,1,0,0:0:0:0:
192,200,21852,2,0,B|151:172|80:174|47:202|47:202|47:223|68:238,1,195.999994018555,8|0,0:0|0:0,0:0:0:0:
145,271,22486,1,0,0:0:0:0:
36,371,22697,6,0,L|14:309,4,48.9999985046387,2|2|2|2|2,1:2|0:0|0:0|0:0|0:0,0:0:0:0:
203,331,23331,5,0,1:0:0:0:
203,331,23437,1,0,0:0:0:0:
203,331,23542,2,0,P|155:322|108:336,1,97.9999970092774,8|0,0:0|0:0,0:0:0:0:
238,250,23965,2,0,P|278:277|324:374,1,146.999995513916
424,337,24387,6,0,L|406:397,3,48.9999985046387,2|2|2|2,1:2|0:0|0:0|0:0,0:0:0:0:
404,263,24810,2,0,P|390:249|384:270,1,48.9999985046387,2|0,0:0|0:0,0:0:0:0:
275,188,25021,5,0,1:0:0:0:
275,188,25127,1,0,0:0:0:0:
275,188,25233,2,0,P|296:144|338:108,1,97.9999970092774,8|0,0:0|0:0,0:0:0:0:
458,174,25655,2,0,P|409:171|363:187,1,97.9999970092774
370,9,26078,6,0,L|392:72,4,48.9999985046387,2|2|2|2|2,1:2|0:0|0:0|0:0|0:0,0:0:0:0:
486,61,26711,5,0,0:0:0:0:
486,61,26817,1,0,0:0:0:0:
486,60,26923,2,0,P|452:119|447:254,1,195.999994018555,4|0,0:0|0:0,0:0:0:0:
444,245,27556,1,0,0:0:0:0:
476,328,27768,5,2,1:2:0:0:
435,355,27873,1,2,0:0:0:0:
387,356,27979,1,2,0:0:0:0:
346,331,28084,1,2,0:0:0:0:
324,288,28190,1,2,0:0:0:0:
86,339,28507,5,0,0:0:0:0:
86,339,28613,2,0,P|137:331|231:363,1,140,8|0,0:0|0:0,0:0:0:0:
220,355,29247,1,0,0:0:0:0:
324,288,29458,5,2,1:2:0:0:
292,251,29563,1,2,0:0:0:0:
245,237,29669,1,2,0:0:0:0:
199,251,29774,1,2,0:0:0:0:
166,286,29880,1,2,0:0:0:0:
81,252,30092,6,0,L|73:217,1,35,0|0,1:0|0:0,0:0:0:0:
139,174,30303,1,8,0:0:0:0:
14,164,30514,1,0,0:0:0:0:
139,174,30726,1,0,0:0:0:0:
14,164,30937,1,0,0:0:0:0:
166,286,31148,5,2,1:2:0:0:
154,333,31253,1,2,0:0:0:0:
116,363,31359,1,2,0:0:0:0:
68,366,31464,1,2,0:0:0:0:
27,341,31570,1,2,0:0:0:0:
249,327,31782,5,0,0:0:0:0:
139,174,31993,2,0,P|191:172|241:186,1,105,8|0,0:0|0:0,0:0:0:0:
224,262,32416,2,0,P|241:292|248:326,1,70
27,341,32838,5,2,1:2:0:0:
66,313,32943,1,2,0:0:0:0:
86,269,33049,1,2,0:0:0:0:
79,221,33154,1,2,0:0:0:0:
48,184,33260,1,2,0:0:0:0:
132,20,33472,5,0,1:0:0:0:
150,95,33578,1,0,0:0:0:0:
150,95,33895,2,0,P|217:75|286:70,1,140,0|0,3:0|3:0,0:0:0:0:
354,22,34528,5,2,1:2:0:0:
380,44,34634,1,2,0:0:0:0:
392,76,34740,1,2,0:0:0:0:
387,110,34844,1,2,0:0:0:0:
365,137,34950,1,2,0:0:0:0:
446,169,35162,5,0,1:0:0:0:
321,206,35373,2,0,P|343:249|354:297,1,97.9999970092774,8|0,0:0|0:0,0:0:0:0:
295,351,35690,1,0,0:0:0:0:
278,319,35796,1,0,0:0:0:0:
412,353,36007,2,0,P|425:332|430:308,1,48.9999985046387
365,137,36218,5,2,1:2:0:0:
333,124,36323,1,2,0:0:0:0:
299,126,36429,1,2,0:0:0:0:
268,141,36534,1,2,0:0:0:0:
246,166,36640,1,2,0:0:0:0:
197,90,36852,5,0,0:0:0:0:
197,90,36958,1,0,0:0:0:0:
197,90,37064,2,0,P|152:73|103:73,1,97.9999970092774,8|0,0:0|0:0,0:0:0:0:
264,47,37486,1,0,0:0:0:0:
61,141,37697,1,0,0:0:0:0:
246,166,37909,5,2,1:2:0:0:
255,198,38014,1,2,0:0:0:0:
251,232,38120,1,2,0:0:0:0:
234,261,38225,1,2,0:0:0:0:
207,281,38331,1,2,0:0:0:0:
86,223,38542,5,0,1:0:0:0:
0,361,38754,2,0,P|44:340|92:338,1,97.9999970092774,8|0,0:0|0:0,0:0:0:0:
159,384,39071,1,0,0:0:0:0:
189,368,39176,1,0,0:0:0:0:
234,261,39387,2,0,P|253:277|293:287,1,48.9999985046387
316,355,39599,5,2,1:2:0:0:
351,321,39704,1,2,0:0:0:0:
396,301,39810,1,2,0:0:0:0:
444,297,39915,1,2,0:0:0:0:
491,309,40021,1,10,0:0:0:0:
275,285,40233,5,0,0:0:0:0:
272,130,40444,2,0,P|302:160|320:228,1,97.9999970092774
275,285,40866,2,0,P|253:296|224:333,1,48.9999985046387,0|0,1:0|0:0,0:0:0:0:
463,376,41078,1,0,0:0:0:0:
425,307,41183,1,0,0:0:0:0:
467,243,41289,6,0,B|431:152|500:173|460:77,1,167.999994873047,4|8,1:0|0:0,0:0:0:0:
461,80,42768,1,0,0:0:0:0:
330,115,42979,6,0,L|321:23,3,83.9999974365235,0|0|8|0,1:0|0:0|0:0|0:0,0:0:0:0:
124,93,44669,5,0,1:0:0:0:
124,93,44880,1,0,0:0:0:0:
61,255,45092,2,0,L|154:235,1,83.9999974365235,0|8,0:0|0:0,0:0:0:0:
228,193,45726,1,0,0:0:0:0:
295,246,45937,1,0,0:0:0:0:
219,284,46148,1,0,0:0:0:0:
0,192,46359,5,4,1:2:0:0:
512,192,46782,5,4,0:0:0:0:
0,192,47204,5,4,0:0:0:0:
71,152,47416,1,0,0:0:0:0:
136,207,47627,2,0,P|146:225|189:251,1,48.9999985046387
327,198,47838,5,0,0:0:0:0:
251,207,47944,1,0,0:0:0:0:
232,283,48049,2,0,P|162:275|71:313,1,167.999994873047,0|8,1:0|0:0,0:0:0:0:
73,311,49528,1,0,0:0:0:0:
231,283,49740,6,0,L|222:368,3,83.9999974365235,0|0|8|0,1:0|0:0|0:0|0:0,0:0:0:0:
416,198,51430,5,0,1:0:0:0:
416,198,51641,1,0,0:0:0:0:
328,176,51852,1,0,0:0:0:0:
317,286,52064,1,0,0:0:0:0:
232,311,52275,1,8,0:0:0:0:
193,98,52486,1,0,0:0:0:0:
92,75,52697,1,0,0:0:0:0:
65,341,52909,1,0,1:0:0:0:
65,341,53331,5,0,1:0:0:0:
79,266,53437,1,0,0:0:0:0:
31,207,53542,1,12,0:0:0:0:
142,18,53754,5,0,0:0:0:0:
92,75,53860,1,0,0:0:0:0:
104,150,53965,2,0,P|127:175|158:190,1,70,4|0,0:0|0:0,0:0:0:0:
225,142,54176,2,0,P|254:123|288:116,1,70,4|0,0:0|0:0,0:0:0:0:
350,170,54387,5,8,0:0:0:0:
336,56,54599,1,0,0:0:0:0:
350,169,54810,6,0,P|301:238|155:204,1,231.000007049561,4|0,1:0|0:0,0:0:0:0:
91,236,55233,6,2,B|61:240|36:256|36:256|104:250|161:260|207:295,1,238.00000453949,8|0,0:0|0:0,0:1:0:0:
259,137,55549,1,0,1:0:0:0:
250,209,55654,1,0,1:0:0:0:
285,273,55760,1,0,1:0:0:0:
350,308,55865,1,0,1:0:0:0:
91,236,56078,6,2,B|61:240|36:256|36:256|104:250|161:260|207:295,1,238.00000453949,8|0,0:0|0:0,0:1:0:0:
353,224,56395,1,0,0:0:0:0:
353,224,56500,6,0,P|388:207|426:201,1,77.0000023498536,0|0,1:0|0:0,0:0:0:0:
315,375,56711,2,0,P|328:338|350:307,1,77.0000023498536
512,204,56923,6,0,P|438:183|391:125,1,154.000004699707,8|0,0:0|0:0,0:0:0:0:
229,46,57240,1,0,1:0:0:0:
229,117,57345,1,0,1:0:0:0:
274,175,57451,1,0,1:0:0:0:
344,200,57556,1,0,1:0:0:0:
220,347,57768,6,0,P|171:291|97:298,1,154.000004699707,8|0,0:0|0:0,0:0:0:0:
97,298,58190,2,0,B|61:317|56:371|56:371|24:74,1,357.000006809235,4|0,1:0|0:0,0:0:0:0:
135,75,58613,6,0,P|67:103|58:176,1,154.000004699707,8|0,0:0|0:0,0:0:0:0:
25,289,58930,1,0,1:0:0:0:
97,298,59035,1,0,1:0:0:0:
161,263,59141,1,0,1:0:0:0:
196,198,59246,1,0,1:0:0:0:
418,209,59458,6,0,L|403:41,1,154.000004699707,8|0,0:0|0:0,0:0:0:0:
405,56,59880,2,0,B|363:29|323:47|323:47|293:89|302:154|346:178,1,231.000007049561,4|0,1:2|0:0,0:0:0:0:
462,317,60303,6,2,P|498:210|412:138,1,238.00000453949,8|0,0:0|0:0,0:1:0:0:
239,269,60620,1,0,1:0:0:0:
304,239,60725,1,4,1:0:0:0:
341,176,60831,1,0,1:0:0:0:
339,102,60936,1,0,1:0:0:0:
462,317,61148,6,2,P|498:210|412:138,1,238.00000453949,8|0,0:0|0:0,0:1:0:0:
259,169,61465,1,0,0:0:0:0:
304,239,61571,6,0,B|266:275|266:275|208:285|142:226|141:172,1,231.000007049561,4|0,1:2|0:0,0:0:0:0:
168,99,61993,6,0,P|219:151|200:221,1,154.000004699707,8|0,0:0|0:0,0:0:0:0:
186,374,62310,1,0,1:0:0:0:
157,306,62416,1,0,1:0:0:0:
95,268,62521,1,0,1:0:0:0:
21,270,62627,1,0,1:0:0:0:
311,329,62838,6,0,P|336:269|395:321,1,154.000004699707,8|0,0:0|0:0,0:0:0:0:
396,307,63261,2,0,P|308:235|295:123,1,231.000007049561,4|0,1:2|0:0,0:0:0:0:
371,158,63683,6,0,B|433:150|458:112|458:112|433:127|409:130,1,154.000004699707,8|0,0:0|0:0,0:0:0:0:
155,97,64000,1,0,1:0:0:0:
210,47,64106,1,0,1:0:0:0:
282,37,64211,1,0,1:0:0:0:
348,69,64317,1,0,1:0:0:0:
10,89,64528,6,0,B|40:69|40:69|154:96,1,154.000004699707,8|0,0:0|0:0,0:0:0:0:
154,96,64951,2,0,B|119:126|119:126|131:203|131:203|197:251|297:225|318:139,1,357.000006809235,4|0,1:0|0:0,0:0:0:0:
219,179,65373,6,0,P|239:249|185:299,1,154.000004699707,8|0,0:0|0:0,0:0:0:0:
226,102,65690,1,0,1:0:0:0:
154,96,65796,1,0,1:0:0:0:
91,133,65902,1,0,1:0:0:0:
58,199,66007,1,0,1:0:0:0:
268,346,66218,6,0,B|331:335|331:335|340:326,1,77.0000023498536,8|0,0:0|0:0,0:0:0:0:
112,319,66430,2,0,B|121:310|121:310|184:299,1,77.0000023498536
482,340,66641,2,0,B|356:370|356:370|425:197,1,315.000012016297,4|0,1:2|0:0,0:0:0:0:
512,153,67064,6,0,B|435:145|435:145|399:166|399:166|296:155,1,210.000008010865,8|0,0:0|0:0,0:0:0:0:
268,346,67380,1,0,1:0:0:0:
257,273,67486,1,4,1:2:0:0:
246,200,67592,1,0,1:0:0:0:
235,127,67697,1,0,1:0:0:0:
512,153,67909,6,0,B|435:145|435:145|399:166|399:166|296:155,1,210.000008010865,8|0,0:0|0:0,0:0:0:0:
185,51,68226,1,0,0:0:0:0:
264,33,68331,6,0,P|364:87|399:194,1,231.000007049561,4|0,1:0|0:0,0:0:0:0:
317,245,68754,6,2,B|246:267|197:228|232:207|191:152|88:191,1,238.00000453949,8|0,0:0|0:0,0:1:0:0:
55,343,69071,1,0,1:0:0:0:
7,288,69176,1,0,1:0:0:0:
0,215,69282,1,0,1:0:0:0:
37,151,69387,1,0,1:0:0:0:
317,245,69599,6,2,B|246:267|197:228|232:207|191:152|88:191,1,238.00000453949,8|0,0:0|0:0,0:1:0:0:
31,75,69916,1,0,0:0:0:0:
31,75,70021,6,0,P|52:42|80:16,1,77.0000023498536,0|0,1:0|0:0,0:0:0:0:
180,151,70233,2,0,P|171:113|173:75,1,77.0000023498536
12,292,70444,6,0,P|40:221|106:184,1,154.000004699707,8|0,0:0|0:0,0:0:0:0:
333,272,70761,1,0,1:0:0:0:
269,309,70866,1,0,1:0:0:0:
196,302,70972,1,0,1:0:0:0:
141,254,71078,1,0,1:0:0:0:
392,349,71289,6,0,B|433:326|433:326|414:196,1,154.000004699707,8|0,0:0|0:0,0:0:0:0:
418,221,71711,2,0,B|399:150|437:102|496:81|496:81|432:91|371:76|355:6,1,357.000006809235,4|0,1:0|0:0,0:0:0:0:
425,48,72134,6,0,B|303:34|303:34|285:59,1,154.000004699707,8|0,0:0|0:0,0:0:0:0:
119,237,72451,1,0,1:0:0:0:
184,202,72556,1,0,1:0:0:0:
219,138,72662,1,0,1:0:0:0:
210,66,72768,1,0,1:0:0:0:
27,172,72979,6,0,L|56:348,1,154.000004699707,8|0,0:0|0:0,0:0:0:0:
52,323,73402,2,0,B|29:294|29:294|56:240|130:209|197:242,1,231.000007049561,4|0,1:0|0:0,0:0:0:0:
308,364,73824,6,2,B|294:263|294:263|277:240|277:240|300:107,1,238.00000453949,8|0,0:0|0:0,0:1:0:0:
46,65,74141,1,0,1:0:0:0:
121,63,74247,1,4,1:0:0:0:
183,101,74352,1,0,1:0:0:0:
212,168,74458,1,0,1:0:0:0:
308,364,74669,6,2,B|294:263|294:263|277:240|277:240|300:107,1,238.00000453949,8|0,0:0|0:0,0:1:0:0:
224,31,74986,1,0,0:0:0:0:
183,101,75092,6,0,P|262:155|409:181,1,231.000007049561,4|0,1:2|0:0,0:0:0:0:
456,127,75514,6,0,B|491:195|491:195|441:254,1,154.000004699707,8|0,0:0|0:0,0:0:0:0:
374,53,75831,1,0,1:0:0:0:
345,120,75937,1,0,1:0:0:0:
283,158,76042,1,0,1:0:0:0:
208,156,76148,1,0,1:0:0:0:
274,384,76359,6,0,P|287:328|245:221,1,154.000004699707,8|0,0:0|0:0,0:0:0:0:
259,237,76782,2,0,P|175:266|56:422,1,231.000007049561,4|0,1:2|0:0,0:0:0:0:
1,335,77204,6,0,B|-23:353|-23:353|-40:286|26:234,1,154.000004699707,8|0,0:0|0:0,0:0:0:0:
82,116,77521,1,0,1:0:0:0:
149,145,77627,1,0,1:0:0:0:
187,207,77733,1,0,1:0:0:0:
185,282,77838,1,0,1:0:0:0:
356,372,78049,6,0,L|515:342,1,154.000004699707,8|0,0:0|0:0,0:0:0:0:
507,343,78472,2,0,B|529:276|529:276|417:146|417:146|431:92|431:92|465:173,1,357.000006809235,4|0,1:0|0:0,0:0:0:0:
451,227,78895,6,0,P|376:217|306:247,1,154.000004699707,8|0,0:0|0:0,0:0:0:0:
176,140,79211,1,0,1:0:0:0:
167,212,79317,1,0,1:0:0:0:
202,276,79423,1,0,1:0:0:0:
267,311,79528,1,0,1:0:0:0:
234,82,79740,6,0,P|245:45|232:10,1,77.0000023498536,8|0,0:0|0:0,0:0:0:0:
273,155,79951,2,0,P|306:137|322:103,1,77.0000023498536
176,140,80162,6,0,P|107:139|51:179,2,140,2|2|2,0:1|0:1|0:1,0:0:0:0:
