osu file format v14

[General]
AudioFilename: audio.mp3
AudioLeadIn: 0
PreviewTime: 53951
Countdown: 0
SampleSet: Soft
StackLeniency: 0.5
Mode: 0
LetterboxInBreaks: 0
EpilepsyWarning: 1
WidescreenStoryboard: 1

[Editor]
DistanceSpacing: 0.4
BeatDivisor: 4
GridSize: 8
TimelineZoom: 2.4

[Metadata]
Title:Charles (Arrange ver.)
TitleUnicode:シャルル (Arrange ver.)
Artist:Hanabasami Kyo
ArtistUnicode:花鋏キョウ
Creator:Heilia
Version:Hard
Source:
Tags:バルーン balloon vocaloid Vtuber syaruru re:act ハサミウタ hasami_uta japanese novelty 歌ってみた sharuru hehe handsome garden flask dh02
BeatmapID:2239423
BeatmapSetID:1069145

[Difficulty]
HPDrainRate:4
CircleSize:4
OverallDifficulty:6
ApproachRate:7.5
SliderMultiplier:1.8
SliderTickRate:1

[Events]
//Background and Video events
0,0,"charles.jpg",0,0
//Break Periods
//Storyboard Layer 0 (Background)
//Storyboard Layer 1 (Fail)
//Storyboard Layer 2 (Pass)
//Storyboard Layer 3 (Foreground)
//Storyboard Layer 4 (Overlay)
//Storyboard Sound Samples

[TimingPoints]
726,422.535211267606,4,2,1,40,1,0
726,-133.333333333333,4,2,1,40,0,0
7486,-133.333333333333,4,2,1,50,0,0
13824,-100,4,2,1,50,0,0
14035,-100,4,2,1,60,0,0
14247,-100,4,2,1,60,0,0
15937,-133.333333333333,4,2,1,60,0,0
16782,-100,4,2,1,60,0,0
17627,-133.333333333333,4,2,1,60,0,0
18472,-100,4,2,1,60,0,0
19317,-133.333333333333,4,2,1,60,0,0
19417,-100,4,2,1,60,0,0
22697,-133.333333333333,4,2,1,60,0,0
23542,-100,4,2,1,60,0,0
24387,-133.333333333333,4,2,1,60,0,0
25233,-100,4,2,1,60,0,0
26078,-133.333333333333,4,2,1,60,0,0
27768,-100,4,2,1,70,0,0
33895,-133.333333333333,4,2,1,70,0,0
34528,-100,4,2,1,70,0,0
39599,-133.333333333333,4,2,1,70,0,0
40444,-100,4,2,1,70,0,0
41289,-133.333333333333,4,2,1,50,0,0
53120,-133.333333333333,4,2,1,60,0,0
53542,-100,4,2,1,60,0,0
54387,-133.333333333333,4,2,1,60,0,0
54810,-90.9090909090909,4,2,1,80,0,1
66641,-90.9090909090909,4,2,1,80,0,0
68331,-90.9090909090909,4,2,1,80,0,1
80162,-133.333333333333,4,2,1,60,0,0

[Colours]
Combo1 : 251,230,155
Combo2 : 213,187,234

[HitObjects]
250,180,726,6,0,L|255:131,4,33.7500012874604,2|2|2|2|2,0:0|0:0|0:0|0:0|0:0,0:0:0:0:
250,180,1571,6,0,P|190:184|157:189,1,67.5000025749208
94,218,1993,1,0,0:0:0:0:
23,158,2204,1,0,0:0:0:0:
114,117,2416,6,0,L|109:68,4,33.7500012874604,2|2|2|2|2,0:0|0:0|0:0|0:0|0:0,0:0:0:0:
114,117,3261,6,0,P|165:94|201:98,1,67.5000025749208
173,15,3683,2,0,P|206:20|234:38,1,67.5000025749208
316,65,4106,6,0,L|321:16,4,33.7500012874604,2|2|2|2|2,0:0|0:0|0:0|0:0|0:0,0:0:0:0:
316,65,4951,6,0,B|284:104|284:104|316:194,1,135.000005149842
361,274,5585,1,0,0:0:0:0:
323,354,5796,6,0,L|274:359,4,33.7500012874604,2|2|2|2|2,0:0|0:0|0:0|0:0|0:0,0:0:0:0:
323,354,6852,2,0,L|335:201,1,135.000005149842,2|2,0:0|0:0,0:0:0:0:
357,142,7486,6,0,P|319:194|255:186,1,135.000005149842,2|2,1:2|0:0,0:0:0:0:
165,248,8120,1,0,0:0:0:0:
162,238,8225,1,0,0:0:0:0:
159,228,8331,2,0,L|172:135,1,67.5000025749208,8|0,0:0|0:0,0:0:0:0:
167,69,8754,5,0,0:0:0:0:
90,149,8965,2,0,L|96:109,1,33.7500012874604
96,105,9176,6,0,P|145:112|241:120,1,135.000005149842,2|2,1:2|0:0,0:0:0:0:
295,50,9810,1,0,1:0:0:0:
304,46,9916,1,0,0:0:0:0:
313,42,10021,2,0,B|326:67|326:67|300:127,1,67.5000025749208,8|0,0:0|0:0,0:0:0:0:
385,155,10444,2,0,L|477:143,1,67.5000025749208
493,211,10866,6,0,B|485:158|485:158|499:134|499:134|490:81,1,135.000005149842,2|2,1:2|0:0,0:0:0:0:
383,0,11711,1,8,0:0:0:0:
383,0,12556,5,2,1:2:0:0:
304,63,12768,1,2,0:0:0:0:
298,57,12873,1,2,0:0:0:0:
293,52,12979,2,0,L|198:63,1,67.5000025749208,6|0,0:0|0:0,0:0:0:0:
108,5,13402,6,0,L|64:-2,3,33.7500012874604,2|2|2|2,0:0|0:0|0:0|0:0,0:0:0:0:
108,5,13824,2,0,B|89:69|89:69|141:134,1,135,6|0,0:0|0:0,0:0:0:0:
143,118,14247,6,0,L|162:308,1,180,4|0,1:2|0:0,0:0:0:0:
245,358,14986,1,0,0:0:0:0:
231,366,15092,2,0,B|170:343|170:343|215:202,1,180,8|0,0:0|0:0,0:0:0:0:
329,284,15937,6,0,L|376:277,4,33.7500012874604,2|2|2|2|2,1:2|0:0|0:0|0:0|0:0,0:0:0:0:
245,358,16571,1,0,1:0:0:0:
238,355,16676,1,0,0:0:0:0:
231,352,16782,6,0,L|239:249,1,90,8|0,0:0|0:0,0:0:0:0:
146,345,17204,2,0,L|152:255,1,90
197,182,17627,6,0,L|239:177,4,33.7500012874604,2|2|2|2|2,1:2|0:0|0:0|0:0|0:0,0:0:0:0:
147,260,18261,1,0,0:0:0:0:
151,255,18366,1,0,0:0:0:0:
154,249,18472,6,0,L|129:61,1,180,8|0,0:0|0:0,0:0:0:0:
305,143,19317,6,0,L|342:139,4,33.7500012874604,2|2|2|2|2,1:2|0:0|0:0|0:0|0:0,0:0:0:0:
206,183,19951,5,0,1:0:0:0:
199,180,20056,1,0,0:0:0:0:
192,177,20162,5,8,0:0:0:0:
186,92,20373,1,8,0:0:0:0:
180,7,20585,2,0,L|118:15,2,45,8|0|0,0:0|0:0|0:0,0:0:0:0:
264,44,21007,6,0,P|363:33|449:61,1,180,4|0,1:2|0:0,0:0:0:0:
434,173,21747,1,0,0:0:0:0:
431,183,21852,2,0,P|332:194|246:166,1,180,8|0,0:0|0:0,0:0:0:0:
101,259,22697,6,0,L|104:292,4,33.7500012874604,2|2|2|2|2,1:2|0:0|0:0|0:0|0:0,0:0:0:0:
96,176,23331,1,0,1:0:0:0:
89,179,23437,1,0,0:0:0:0:
82,182,23542,6,0,P|79:117|111:79,1,90,8|0,0:0|0:0,0:0:0:0:
35,39,23965,2,0,P|95:16|141:34,1,90
220,33,24387,6,0,L|223:-1,4,33.7500012874604,2|2|2|2|2,1:2|0:0|0:0|0:0|0:0,0:0:0:0:
259,130,25021,1,0,1:0:0:0:
252,128,25127,1,0,0:0:0:0:
245,127,25233,6,0,P|245:60|189:125,1,180,8|0,0:0|0:0,0:0:0:0:
175,100,26078,6,0,L|141:96,4,33.7500012874604,2|2|2|2|2,1:2|0:0|0:0|0:0|0:0,0:0:0:0:
191,181,26711,5,0,0:0:0:0:
192,187,26817,1,0,0:0:0:0:
193,193,26923,1,4,0:0:0:0:
160,383,27345,6,0,L|171:296,1,67.5000025749208
106,202,27768,2,0,P|154:273|258:249,1,180,2|2,1:2|0:0,0:0:0:0:
357,351,28507,1,0,0:0:0:0:
351,360,28613,2,0,B|303:346|303:346|332:236,1,135,8|0,0:0|0:0,0:0:0:0:
313,253,29035,2,0,L|410:248,1,90
504,218,29458,6,0,P|467:129|434:196,1,180,2|2,1:2|0:0,0:0:0:0:
348,42,30197,1,0,0:0:0:0:
343,51,30303,2,0,L|243:60,1,90,8|0,0:0|0:0,0:0:0:0:
259,140,30726,2,0,L|358:130,1,90
435,154,31148,6,0,P|511:140|504:218,1,180,2|2,1:2|0:0,0:0:0:0:
462,305,31782,1,0,0:0:0:0:
374,271,31993,2,0,P|328:273|254:289,1,90,8|0,0:0|0:0,0:0:0:0:
196,233,32416,1,0,0:0:0:0:
128,297,32627,1,0,0:0:0:0:
126,305,32733,1,0,0:0:0:0:
124,313,32838,6,0,P|84:277|112:161,1,180,2|2,1:2|0:0,0:0:0:0:
106,164,33472,1,0,1:0:0:0:
17,62,33895,6,0,P|13:30|31:-4,1,67.5000025749208,0|0,3:0|0:0,0:0:0:0:
120,0,34317,1,0,3:0:0:0:
118,8,34423,1,0,0:0:0:0:
116,16,34528,6,0,B|124:60|166:73|166:73|207:34|257:43,1,180,2|2,1:2|0:0,0:0:0:0:
351,2,35162,1,0,1:0:0:0:
343,7,35268,1,0,0:0:0:0:
335,12,35373,2,0,P|339:58|348:113,1,90,8|0,0:0|0:0,0:0:0:0:
428,56,35796,1,0,0:0:0:0:
420,141,36007,5,0,0:0:0:0:
423,149,36113,1,0,0:0:0:0:
426,157,36218,2,0,L|413:258,1,90,2|2,1:2|0:0,0:0:0:0:
464,325,36641,2,0,B|448:266|448:266|320:288,1,180,2|8,0:0|0:0,0:0:0:0:
270,357,37275,1,0,0:0:0:0:
189,315,37486,2,0,P|195:259|197:204,1,90
260,177,37909,6,0,B|163:198|163:198|114:186|124:126,1,180,2|2,1:2|0:0,0:0:0:0:
122,138,38754,1,8,0:0:0:0:
52,86,39599,6,0,L|56:37,4,33.7500012874604,2|2|2|2|10,1:2|0:0|0:0|0:0|0:0,0:0:0:0:
122,138,40233,1,0,0:0:0:0:
212,104,40444,2,0,P|256:96|301:96,1,90
401,100,40866,5,0,1:0:0:0:
345,15,41078,1,0,0:0:0:0:
342,23,41183,1,0,0:0:0:0:
340,30,41289,6,0,L|364:243,1,202.500007724762,4|0,1:0|0:0,0:0:0:0:
362,231,42134,1,8,0:0:0:0:
388,378,42768,5,0,0:0:0:0:
331,308,42979,2,0,P|362:264|451:269,3,135.000005149842,0|0|8|0,1:0|0:0|0:0|0:0,0:0:0:0:
420,172,44669,5,0,1:0:0:0:
420,172,44880,1,0,0:0:0:0:
463,91,45092,2,0,B|436:41|379:53|379:53|370:77|338:96,1,135.000005149842,0|8,0:0|0:0,0:0:0:0:
267,109,45726,1,0,0:0:0:0:
267,109,45937,2,0,L|182:104,1,67.5000025749208
161,183,46359,6,0,L|323:194,2,135.000005149842,4|4|4,1:2|0:0|0:0,0:0:0:0:
68,205,47416,2,0,P|64:166|54:121,1,67.5000025749208
21,17,47838,5,0,0:0:0:0:
13,20,47944,1,0,0:0:0:0:
5,23,48049,2,0,P|38:96|163:74,1,202.500007724762,0|0,1:0|0:0,0:0:0:0:
147,92,48895,1,8,0:0:0:0:
245,91,49528,5,0,0:0:0:0:
187,25,49740,2,0,P|191:82|203:166,3,135.000005149842,0|0|8|0,1:0|0:0|0:0|0:0,0:0:0:0:
230,240,51430,5,0,1:0:0:0:
292,175,51641,2,0,L|368:185,1,67.5000025749208
439,100,52064,5,0,0:0:0:0:
463,186,52275,2,0,L|415:246,1,67.5000025749208,8|0,0:0|0:0,0:0:0:0:
457,355,52697,5,0,0:0:0:0:
370,333,52909,2,0,L|339:260,1,67.5000025749208,0|0,1:0|0:0,0:0:0:0:
333,176,53331,5,0,1:0:0:0:
331,182,53437,1,0,0:0:0:0:
329,188,53542,2,0,P|286:182|228:181,1,90,12|0,0:0|0:0,0:0:0:0:
234,171,53859,1,0,0:0:0:0:
228,162,53965,2,0,P|183:163|138:169,1,90,4|4,0:0|0:0,0:0:0:0:
126,295,54387,6,0,P|82:290|80:218,1,101.250003862381,8|0,0:0|0:0,0:0:0:0:
72,225,54810,6,0,P|91:163|69:50,1,148.50000453186,4|0,1:0|0:0,0:0:0:0:
82,80,55233,1,8,0:0:0:0:
280,106,55549,1,0,1:0:0:0:
269,103,55655,2,0,P|250:174|259:247,1,148.50000453186,0|0,1:0|0:0,0:0:0:0:
259,247,56078,1,8,0:0:0:0:
331,318,56289,1,0,0:0:0:0:
251,370,56500,6,0,P|338:354|464:354,1,198.000006042481,0|8,1:0|0:0,0:0:0:0:
510,279,57134,1,0,0:0:0:0:
502,272,57240,1,0,1:0:0:0:
494,266,57345,2,0,L|503:202,2,49.5000015106202,0|0|0,1:0|1:0|1:0,0:0:0:0:
419,118,57768,6,0,P|404:180|351:145,1,148.50000453186,8|0,0:0|0:0,0:0:0:0:
352,146,58190,6,0,L|253:154,1,99.0000030212403,4|0,1:0|0:0,0:0:0:0:
261,247,58613,2,0,L|360:239,1,99.0000030212403,8|0,0:0|0:0,0:0:0:0:
428,191,59035,1,0,1:0:0:0:
433,192,59141,1,0,1:0:0:0:
438,193,59247,1,0,1:0:0:0:
505,245,59458,6,0,P|517:300|445:363,1,148.50000453186,8|0,0:0|0:0,0:0:0:0:
458,362,59880,6,0,B|396:370|379:318|379:318|363:265|302:272,3,198.000006042481,4|8|4|8,1:2|0:0|1:0|0:0,0:0:0:0:
142,276,61571,6,0,L|116:45,1,198.000006042481,4|8,1:2|0:0,0:0:0:0:
205,73,62204,1,0,0:0:0:0:
205,73,62416,2,0,L|227:269,1,198.000006042481,0|8,1:0|0:0,0:0:0:0:
184,345,63049,5,0,0:0:0:0:
142,276,63261,2,0,B|145:320|98:347|98:347|53:301|-11:310,2,198.000006042481,4|8|0,1:2|0:0|1:0,0:0:0:0:
299,188,64528,6,0,B|274:156|279:118|279:118|274:156|237:180,1,148.50000453186,8|0,0:0|0:0,0:0:0:0:
241,178,64951,6,0,P|294:171|371:168,1,99.0000030212403,4|0,1:0|0:0,0:0:0:0:
422,135,65373,1,8,0:0:0:0:
350,85,65585,1,0,0:0:0:0:
351,80,65690,1,0,1:0:0:0:
352,75,65796,2,0,P|256:70|143:60,1,198.000006042481,0|8,1:0|0:0,0:0:0:0:
162,154,66430,1,0,0:0:0:0:
65,144,66641,6,0,B|127:131|127:131|93:-27,3,198.000006042481,4|8|4|8,1:2|0:0|1:2|0:0,0:0:0:0:
251,105,68331,6,0,P|265:176|210:262,1,148.50000453186,4|0,1:0|0:0,0:0:0:0:
233,243,68754,1,8,0:0:0:0:
94,228,69071,1,0,1:0:0:0:
85,228,69176,2,0,P|71:157|126:71,1,148.50000453186,0|0,1:0|0:0,0:0:0:0:
102,90,69599,1,8,0:0:0:0:
136,8,69810,1,0,0:0:0:0:
43,35,70021,6,0,P|130:51|256:61,1,198.000006042481,0|8,1:0|0:0,0:0:0:0:
351,62,70655,1,0,0:0:0:0:
343,55,70761,1,0,1:0:0:0:
335,49,70866,2,0,L|344:-15,2,49.5000015106202,0|0|0,1:0|1:0|1:0,0:0:0:0:
295,133,71289,6,0,B|304:107|304:107|400:100|400:100|422:135,1,148.50000453186,8|0,0:0|0:0,0:0:0:0:
405,129,71711,6,0,L|414:245,1,99.0000030212403,4|0,1:0|0:0,0:0:0:0:
314,234,72134,2,0,L|306:135,1,99.0000030212403,8|0,0:0|0:0,0:0:0:0:
347,53,72556,1,0,1:0:0:0:
348,48,72662,1,0,1:0:0:0:
349,43,72768,1,0,1:0:0:0:
253,70,72979,6,0,P|235:144|196:110,1,148.50000453186,8|0,0:0|0:0,0:0:0:0:
190,130,73402,6,0,B|151:125|151:125|120:6|120:6|53:-1,3,198.000006042481,4|8|4|8,1:0|0:0|1:0|0:0,0:0:0:0:
79,150,75092,6,0,P|174:154|282:138,1,198.000006042481,4|8,1:2|0:0,0:0:0:0:
279,237,75726,1,0,0:0:0:0:
279,237,75937,2,0,P|184:233|76:249,1,198.000006042481,0|8,1:0|0:0,0:0:0:0:
48,342,76571,5,0,0:0:0:0:
143,384,76782,2,0,B|110:253|110:253|166:224,2,198.000006042481,4|8|0,1:2|0:0|1:0,0:0:0:0:
335,359,78049,6,0,B|293:298|293:298|263:369,1,148.50000453186,8|0,0:0|0:0,0:0:0:0:
265,367,78472,6,0,P|315:364|373:355,1,99.0000030212403,4|0,1:0|0:0,0:0:0:0:
418,285,78895,1,8,0:0:0:0:
360,219,79106,1,0,0:0:0:0:
355,220,79211,1,0,1:0:0:0:
350,221,79317,2,0,P|342:124|326:13,1,198.000006042481,0|8,1:0|0:0,0:0:0:0:
427,6,79951,1,0,0:0:0:0:
467,99,80162,6,0,B|430:107|415:140|415:140|411:104|380:84,2,135.000005149842,2|2|2,0:1|0:1|0:1,0:0:0:0:
