osu file format v14

[General]
AudioFilename: audio.mp3
AudioLeadIn: 0
PreviewTime: 53951
Countdown: 0
SampleSet: Soft
StackLeniency: 0.7
Mode: 0
LetterboxInBreaks: 0
EpilepsyWarning: 1
WidescreenStoryboard: 1

[Editor]
DistanceSpacing: 0.4
BeatDivisor: 4
GridSize: 8
TimelineZoom: 2.4

[Metadata]
Title:Charles (Arrange ver.)
TitleUnicode:シャルル (Arrange ver.)
Artist:Hanabasami Kyo
ArtistUnicode:花鋏キョウ
Creator:Heilia
Version:Garden's Insane
Source:
Tags:バルーン balloon vocaloid Vtuber syaruru re:act ハサミウタ hasami_uta japanese novelty 歌ってみた sharuru hehe handsome garden flask dh02
BeatmapID:2248566
BeatmapSetID:1069145

[Difficulty]
HPDrainRate:5
CircleSize:4
OverallDifficulty:7
ApproachRate:8.7
SliderMultiplier:1.8
SliderTickRate:1

[Events]
//Background and Video events
0,0,"charles.jpg",0,0
//Break Periods
//Storyboard Layer 0 (Background)
//Storyboard Layer 1 (Fail)
//Storyboard Layer 2 (Pass)
//Storyboard Layer 3 (Foreground)
//Storyboard Layer 4 (Overlay)
//Storyboard Sound Samples

[TimingPoints]
726,422.535211267606,4,2,1,40,1,0
726,-133.333333333333,4,2,1,40,0,0
7486,-100,4,2,1,50,0,0
9176,-100,4,2,1,50,0,0
13824,-100,4,2,1,50,0,0
14035,-100,4,2,1,60,0,0
14247,-80,4,2,1,60,0,0
14669,-133.333333333333,4,2,1,60,0,0
15514,-100,4,2,1,60,0,0
16359,-100,4,2,1,60,0,0
18049,-100,4,2,1,60,0,0
18472,-100,4,2,1,60,0,0
20162,-66.6666666666667,4,2,1,60,0,0
20585,-100,4,2,1,60,0,0
20796,-100,4,2,1,60,0,0
21007,-100,4,2,1,60,0,0
21430,-100,4,2,1,60,0,0
22275,-100,4,2,1,60,0,0
23542,-100,4,2,1,60,0,0
25233,-100,4,2,1,60,0,0
26711,-66.6666666666667,4,2,1,60,0,0
27028,-66.6666666666667,4,2,1,60,0,0
27345,-100,4,2,1,60,0,0
27768,-66.6666666666667,4,2,1,70,0,0
29669,-100,4,2,1,70,0,0
33895,-100,4,2,1,70,0,0
34528,-100,4,2,1,70,0,0
35796,-100,4,2,1,70,0,0
41289,-133.333333333333,4,2,1,50,0,0
46359,-66.6666666666667,4,2,1,50,0,0
48049,-133.333333333333,4,2,1,50,0,0
52909,-100,4,2,1,50,0,0
53120,-100,4,2,1,60,0,0
53542,-100,4,2,1,60,0,0
54387,-100,4,2,1,60,0,0
54810,-100,4,2,1,80,0,1
55233,-66.6666666666667,4,2,1,80,0,1
56500,-83.3333333333333,4,2,1,80,0,1
59458,-83.3333333333333,4,2,1,80,0,1
59880,-83.3333333333333,4,2,1,80,0,1
60303,-66.6666666666667,4,2,1,80,0,1
61148,-83.3333333333333,4,2,1,80,0,1
66218,-83.3333333333333,4,2,1,80,0,1
66641,-100,4,2,1,80,0,0
67064,-55.5555555555556,4,2,1,80,0,0
67909,-100,4,2,1,80,0,0
68331,-83.3333333333333,4,2,1,80,0,1
68754,-66.6666666666667,4,2,1,80,0,1
70021,-83.3333333333333,4,2,1,80,0,1
72979,-83.3333333333333,4,2,1,80,0,1
73402,-83.3333333333333,4,2,1,80,0,1
73824,-66.6666666666667,4,2,1,80,0,1
74669,-83.3333333333333,4,2,1,80,0,1
79740,-83.3333333333333,4,2,1,80,0,1
80162,-100,4,2,1,60,0,0

[Colours]
Combo1 : 251,230,155
Combo2 : 213,187,234

[HitObjects]
398,276,726,5,2,0:0:0:0:
372,266,831,1,2,0:0:0:0:
345,270,937,1,2,0:0:0:0:
322,284,1042,1,2,0:0:0:0:
308,307,1148,1,2,0:0:0:0:
223,280,1571,6,0,L|230:210,1,67.5000025749208,0|0,0:0|0:0,0:0:0:0:
355,158,1993,2,0,L|347:90,1,67.5000025749208,0|0,0:0|0:0,0:0:0:0:
165,93,2416,5,2,0:0:0:0:
191,83,2521,1,2,0:0:0:0:
218,87,2627,1,2,0:0:0:0:
241,101,2733,1,2,0:0:0:0:
255,124,2838,1,2,0:0:0:0:
413,102,3155,5,0,0:0:0:0:
413,102,3261,2,0,L|329:87,1,67.5000025749208,0|0,0:0|0:0,0:0:0:0:
229,212,3683,2,0,L|162:223,1,67.5000025749208,0|0,0:0|0:0,0:0:0:0:
308,307,4106,5,2,0:0:0:0:
331,293,4211,1,2,0:0:0:0:
345,270,4317,1,2,0:0:0:0:
349,243,4423,1,2,0:0:0:0:
339,217,4528,1,2,0:0:0:0:
215,309,4951,6,0,L|62:335,1,135.000005149842,0|0,0:0|0:0,0:0:0:0:
0,248,5585,2,0,L|72:236,1,67.5000025749208,0|2,0:0|0:0,0:0:0:0:
89,222,5902,1,2,0:0:0:0:
99,197,6007,1,2,0:0:0:0:
100,169,6113,1,2,0:0:0:0:
88,144,6218,1,2,0:0:0:0:
234,5,6852,6,0,P|185:49|187:115,1,135.000005149842,2|2,0:0|0:0,0:0:0:0:
296,234,7486,5,2,1:2:0:0:
296,234,7592,1,2,0:0:0:0:
296,234,7697,1,2,0:0:0:0:
296,234,7803,1,2,0:0:0:0:
296,234,7909,2,0,P|288:196|285:135,1,90,2|0,0:0|0:0,0:0:0:0:
300,124,8226,2,0,L|342:109,1,45,0|8,0:0|0:0,0:0:0:0:
394,32,8437,1,0,0:0:0:0:
394,32,8542,2,0,L|436:47,1,45,0|0,0:0|0:0,0:0:0:0:
497,124,8754,1,0,0:0:0:0:
497,124,8965,6,0,L|429:144,1,45,0|0,0:0|0:0,0:0:0:0:
371,210,9176,1,2,1:2:0:0:
399,223,9282,1,2,0:0:0:0:
416,248,9387,1,2,0:0:0:0:
419,279,9493,1,2,0:0:0:0:
407,308,9599,1,2,0:0:0:0:
307,327,9810,5,0,1:0:0:0:
307,327,9916,2,0,L|327:260,1,45,0|8,0:0|0:0,0:0:0:0:
206,356,10233,1,0,0:0:0:0:
407,308,10444,1,0,0:0:0:0:
246,183,10655,1,0,0:0:0:0:
307,327,10866,5,2,1:2:0:0:
314,305,10972,1,2,0:0:0:0:
320,283,11078,1,2,0:0:0:0:
326,261,11183,1,2,0:0:0:0:
333,239,11289,2,0,P|407:215|503:283,1,180,2|8,0:0|0:0,0:0:0:0:
512,117,11923,5,0,0:0:0:0:
486,126,12028,1,0,0:0:0:0:
461,136,12134,1,0,0:0:0:0:
301,38,12345,5,0,0:0:0:0:
327,47,12451,1,0,0:0:0:0:
352,57,12556,5,2,1:2:0:0:
371,86,12662,1,2,0:0:0:0:
375,121,12768,1,2,0:0:0:0:
357,152,12873,1,2,0:0:0:0:
324,168,12979,1,6,0:0:0:0:
324,168,13190,6,0,L|268:154,1,45,0|0,0:0|0:0,0:0:0:0:
69,133,13402,1,2,0:0:0:0:
89,103,13507,1,2,0:0:0:0:
122,89,13613,1,2,0:0:0:0:
157,91,13718,1,2,0:0:0:0:
189,106,13824,2,0,L|176:205,1,90,6|0,0:0|0:0,0:0:0:0:
65,319,14247,6,0,P|146:244|259:249,1,225,4|0,1:2|0:0,0:0:0:0:
352,219,14986,1,0,0:0:0:0:
352,219,15092,2,0,B|333:360,1,135.000005149842,8|0,0:0|0:0,0:0:0:0:
333,352,15726,1,0,0:0:0:0:
449,201,15937,5,2,1:2:0:0:
431,159,16042,1,2,0:0:0:0:
395,131,16148,1,2,0:0:0:0:
351,120,16254,1,2,0:0:0:0:
307,131,16359,1,2,0:0:0:0:
264,228,16571,5,0,1:0:0:0:
264,228,16676,1,0,0:0:0:0:
264,228,16782,2,0,L|377:218,1,90,8|0,0:0|0:0,0:0:0:0:
237,64,17204,2,0,L|102:74,1,135,0|0,0:0|0:0,0:0:0:0:
43,142,17627,5,2,1:2:0:0:
17,110,17733,1,2,0:0:0:0:
11,70,17838,1,2,0:0:0:0:
24,31,17944,1,2,0:0:0:0:
54,4,18049,1,2,0:0:0:0:
159,163,18261,5,0,0:0:0:0:
159,163,18366,1,0,0:0:0:0:
159,163,18472,2,0,P|160:213|131:260,1,90,8|0,0:0|0:0,0:0:0:0:
0,351,18895,2,0,P|42:325|98:326,1,90,0|0,0:0|0:0,0:0:0:0:
265,363,19317,5,2,1:2:0:0:
304,373,19423,1,2,0:0:0:0:
342,360,19528,1,2,0:0:0:0:
369,329,19634,1,2,0:0:0:0:
370,288,19740,2,0,P|362:251|345:186,1,90,2|0,0:0|1:0,0:0:0:0:
349,200,20162,6,0,L|423:206,1,67.5000025749208,8|0,0:0|0:0,0:0:0:0:
475,102,20373,2,0,L|407:96,1,67.5000025749208,8|0,0:0|0:0,0:0:0:0:
238,0,20585,5,8,0:0:0:0:
305,39,20726,5,0,0:0:0:0:
319,115,20866,5,0,0:0:0:0:
264,171,21007,6,0,P|225:250|249:337,1,180,4|0,1:2|0:0,0:0:0:0:
46,384,21641,1,0,1:0:0:0:
46,384,21747,1,0,0:0:0:0:
46,384,21852,2,0,P|62:341|57:298,1,90,8|0,0:0|0:0,0:0:0:0:
127,227,22275,2,0,P|92:201|43:196,1,90
249,335,22697,5,2,1:2:0:0:
273,301,22803,1,2,0:0:0:0:
310,286,22909,1,2,0:0:0:0:
349,284,23014,1,2,0:0:0:0:
386,299,23120,1,2,0:0:0:0:
494,276,23331,5,0,1:0:0:0:
494,276,23437,1,0,0:0:0:0:
494,276,23542,2,0,L|477:387,1,90,8|0,0:0|0:0,0:0:0:0:
408,209,23965,2,0,L|430:68,1,135,0|0,0:0|0:0,0:0:0:0:
363,18,24387,5,2,1:2:0:0:
343,53,24493,1,2,0:0:0:0:
308,74,24599,1,2,0:0:0:0:
269,77,24704,1,2,0:0:0:0:
234,57,24810,1,2,0:0:0:0:
214,158,25021,5,0,1:0:0:0:
214,158,25127,1,0,0:0:0:0:
214,158,25233,2,0,L|116:173,1,90,8|0,0:0|0:0,0:0:0:0:
23,211,25655,2,0,L|33:121,1,90,0|0,0:0|0:0,0:0:0:0:
169,257,26078,5,2,1:2:0:0:
184,283,26183,1,2,0:0:0:0:
186,314,26289,1,2,0:0:0:0:
178,344,26395,1,2,0:0:0:0:
157,367,26500,1,2,0:0:0:0:
21,313,26711,5,0,0:0:0:0:
21,313,26817,1,0,0:0:0:0:
21,313,26923,2,0,L|99:301,1,67.5000025749208,4|0,0:0|0:0,0:0:0:0:
289,277,27345,2,0,L|275:383,1,90,0|0,0:0|0:0,0:0:0:0:
277,366,27768,6,0,L|355:354,1,67.5000025749208,2|2,1:2|0:0,0:0:0:0:
459,317,27979,1,2,0:0:0:0:
447,303,28085,1,2,0:0:0:0:
429,302,28190,1,2,0:0:0:0:
366,228,28507,5,0,0:0:0:0:
380,222,28613,1,8,0:0:0:0:
459,137,28824,1,0,0:0:0:0:
414,30,29035,1,0,0:0:0:0:
334,117,29247,1,0,0:0:0:0:
334,117,29458,6,0,L|261:129,1,67.5000025749208,2|2,1:2|0:0,0:0:0:0:
81,178,29669,1,2,0:0:0:0:
93,165,29775,1,2,0:0:0:0:
109,158,29880,2,0,B|222:148|160:223|274:222,1,180,2|8,0:0|0:0,0:0:0:0:
122,257,30514,5,0,0:0:0:0:
122,257,30726,1,0,0:0:0:0:
122,257,30937,2,0,L|108:369,1,90,0|2,0:0|1:2,0:0:0:0:
131,370,31254,5,2,0:0:0:0:
160,379,31359,1,2,0:0:0:0:
191,375,31465,1,2,0:0:0:0:
214,353,31571,1,2,0:0:0:0:
266,254,31782,5,0,0:0:0:0:
266,254,31887,1,0,0:0:0:0:
266,254,31993,2,0,L|193:265,2,45,8|0|0,0:0|0:0|0:0,0:0:0:0:
436,304,32416,2,0,L|347:318,1,90,0|0,0:0|0:0,0:0:0:0:
400,209,32838,5,2,1:2:0:0:
414,180,32944,1,2,0:0:0:0:
412,148,33049,1,2,0:0:0:0:
393,122,33155,1,2,0:0:0:0:
364,108,33261,1,2,0:0:0:0:
503,44,33472,5,0,1:0:0:0:
502,50,33578,1,0,0:0:0:0:
500,56,33895,6,0,B|395:76|449:-17|303:25,1,180,0|0,3:0|3:0,0:0:0:0:
333,17,34528,6,0,L|340:78,1,45,2|2,1:2|0:0,0:0:0:0:
267,142,34740,1,2,0:0:0:0:
264,128,34845,1,2,0:0:0:0:
261,114,34951,1,2,0:0:0:0:
155,15,35162,2,0,L|260:29,1,90,0|8,1:0|0:0,0:0:0:0:
425,40,35585,5,0,0:0:0:0:
261,114,35796,1,0,0:0:0:0:
384,178,36007,5,0,0:0:0:0:
384,178,36113,1,0,0:0:0:0:
384,178,36218,2,0,L|376:127,1,45,2|2,1:2|0:0,0:0:0:0:
283,212,36430,1,2,0:0:0:0:
286,225,36535,1,2,0:0:0:0:
289,237,36641,1,2,0:0:0:0:
476,288,36852,2,0,L|368:270,1,90,0|8,0:0|0:0,0:0:0:0:
185,247,37275,5,0,0:0:0:0:
331,351,37486,1,0,0:0:0:0:
384,178,37697,1,0,0:0:0:0:
237,70,37909,5,2,1:2:0:0:
235,87,38014,1,2,0:0:0:0:
232,104,38120,1,2,0:0:0:0:
229,121,38226,1,2,0:0:0:0:
226,138,38331,1,2,0:0:0:0:
13,82,38542,5,0,1:0:0:0:
13,82,38648,1,0,0:0:0:0:
13,82,38754,2,0,L|116:63,1,90,8|0,0:0|0:0,0:0:0:0:
138,85,39071,1,0,0:0:0:0:
138,85,39176,2,0,L|119:189,1,90,0|0,0:0|0:0,0:0:0:0:
141,207,39493,5,0,0:0:0:0:
141,206,39599,2,0,L|192:197,1,45,2|2,1:2|0:0,0:0:0:0:
291,103,39810,2,0,L|247:111,1,45,2|2,0:0|0:0,0:0:0:0:
238,283,40021,1,10,0:0:0:0:
238,283,40233,6,0,L|229:331,1,45,0|0,0:0|0:0,0:0:0:0:
442,249,40444,2,0,P|383:188|275:228,1,180,0|0,0:0|1:0,0:0:0:0:
361,290,41078,5,0,0:0:0:0:
361,290,41183,1,0,0:0:0:0:
361,290,41289,2,0,B|402:226|402:226|375:96,1,202.500007724762,4|0,1:0|0:0,0:0:0:0:
406,77,42028,1,0,0:0:0:0:
406,77,42134,2,0,B|286:90|347:8|210:25,1,202.500007724762,8|0,0:0|0:0,0:0:0:0:
220,24,42979,6,0,P|220:90|173:144,1,135.000005149842,0|0,1:0|0:0,0:0:0:0:
251,206,43824,2,0,P|193:238|123:225,1,135.000005149842,8|0,0:0|0:0,0:0:0:0:
27,330,44669,5,0,1:0:0:0:
27,330,44880,2,0,L|36:254,2,67.5000025749208,0|0|0,0:0|0:0|0:0,0:0:0:0:
106,375,45514,2,0,P|139:373|165:353,1,67.5000025749208,8|0,0:0|0:0,0:0:0:0:
281,298,45937,2,0,P|247:296|221:276,1,67.5000025749208,0|0,0:0|0:0,0:0:0:0:
162,156,46359,6,0,L|150:231,1,67.5000025749208,4|0,1:2|0:0,0:0:0:0:
263,66,46782,6,0,L|273:132,1,67.5000025749208,4|0,0:0|0:0,0:0:0:0:
99,6,47204,6,0,L|87:81,1,67.5000025749208,4|0,0:0|0:0,0:0:0:0:
273,132,47416,5,0,0:0:0:0:
181,53,47627,1,0,0:0:0:0:
327,20,47838,1,0,0:0:0:0:
327,20,47944,1,0,0:0:0:0:
327,20,48049,2,0,P|415:24|496:115,1,202.500007724762,0|0,1:0|0:0,0:0:0:0:
488,137,48789,1,0,0:0:0:0:
488,137,48895,2,0,B|426:178|426:178|472:320,1,202.500007724762,8|0,0:0|0:0,0:0:0:0:
466,300,49740,6,0,P|403:302|346:361,1,135.000005149842,0|0,1:0|0:0,0:0:0:0:
243,260,50373,1,0,0:0:0:0:
243,260,50479,1,0,0:0:0:0:
243,260,50585,2,0,L|317:252,1,67.5000025749208,8|0,0:0|0:0,0:0:0:0:
186,383,51007,2,0,L|260:375,1,67.5000025749208,0|0,0:0|0:0,0:0:0:0:
149,229,51430,5,0,1:0:0:0:
149,229,51641,2,0,L|133:317,2,67.5000025749208,0|0|0,0:0|0:0|0:0,0:0:0:0:
66,123,52275,2,0,L|54:189,2,67.5000025749208,8|0|0,0:0|0:0|0:0,0:0:0:0:
237,187,52909,6,0,P|330:194|388:131,1,180,0|0,1:0|1:0,0:0:0:0:
383,102,53437,1,0,0:0:0:0:
383,102,53542,2,0,L|278:82,1,90,12|0,0:0|0:0,0:0:0:0:
267,66,53859,5,0,0:0:0:0:
267,66,53965,2,0,L|261:22,1,45,4|0,0:0|0:0,0:0:0:0:
76,0,54176,2,0,L|82:44,1,45,4|0,0:0|0:0,0:0:0:0:
183,181,54387,1,8,0:0:0:0:
183,181,54810,6,0,L|169:79,1,90,4|0,1:0|0:0,0:0:0:0:
12,222,55233,2,0,B|142:207|74:303|209:280,1,202.500007724762,8|0,0:0|1:0,0:0:0:0:
265,229,55655,5,0,1:0:0:0:
282,265,55761,1,0,1:0:0:0:
279,305,55866,1,0,1:0:0:0:
14,343,56078,6,0,B|129:354|73:257|195:282,1,202.500007724762,8|0,0:0|0:0,0:0:0:0:
279,305,56500,6,0,P|312:345|378:337,1,107.999996704102,0|0,1:0|0:0,0:0:0:0:
444,311,56817,1,0,0:0:0:0:
444,311,56923,1,8,0:0:0:0:
415,171,57134,1,0,0:0:0:0:
389,180,57240,1,0,1:0:0:0:
363,188,57345,2,0,L|352:246,2,53.9999983520508,0|0|0,1:0|1:0|1:0,0:0:0:0:
512,51,57768,2,0,L|407:79,1,107.999996704102,8|0,0:0|0:0,0:0:0:0:
176,29,58190,6,0,P|273:43|292:116,1,161.999995056153,4|0,1:0|0:0,0:0:0:0:
210,108,58613,2,0,P|173:160|193:225,1,107.999996704102,8|0,0:0|0:0,0:0:0:0:
238,263,58930,1,0,1:0:0:0:
259,232,59035,1,0,1:0:0:0:
295,222,59141,1,0,1:0:0:0:
332,232,59247,1,0,1:0:0:0:
332,232,59458,6,0,L|351:310,1,53.9999983520508,8|0,0:0|0:0,0:0:0:0:
289,384,59669,1,0,0:0:0:0:
267,367,59775,1,0,0:0:0:0:
272,340,59880,2,0,P|233:290|127:312,1,161.999995056153,4|0,1:2|0:0,0:0:0:0:
74,349,60303,6,0,B|114:289|114:289|85:216,1,135.000005149842,8|0,0:0|0:0,0:0:0:0:
59,149,60620,1,0,1:0:0:0:
75,111,60726,1,4,1:0:0:0:
111,93,60831,1,0,1:0:0:0:
151,93,60937,1,0,1:0:0:0:
300,27,61148,2,0,P|248:19|194:10,1,107.999996704102,8|0,0:0|0:0,0:0:0:0:
256,234,61571,6,0,P|328:205|323:130,1,161.999995056153,4|0,1:2|0:0,0:0:0:0:
323,130,61993,2,0,P|374:137|429:147,1,107.999996704102,8|0,0:0|0:0,0:0:0:0:
465,136,62310,1,0,1:0:0:0:
465,136,62416,2,0,L|449:70,2,53.9999983520508,0|0|0,1:0|1:0|0:0,0:0:0:0:
512,258,62838,2,0,P|458:248|405:240,1,107.999996704102,8|0,0:0|0:0,0:0:0:0:
196,371,63261,6,0,P|252:300|319:313,1,161.999995056153,4|0,1:2|0:0,0:0:0:0:
314,309,63683,2,0,L|292:181,1,107.999996704102,8|0,0:0|0:0,0:0:0:0:
319,175,64000,1,0,1:0:0:0:
319,175,64106,2,0,L|376:186,2,53.9999983520508,0|0|0,1:0|1:0|0:0,0:0:0:0:
487,34,64528,1,8,0:0:0:0:
487,34,64951,5,4,1:0:0:0:
394,88,65162,2,0,L|274:66,1,107.999996704102,0|8,0:0|0:0,0:0:0:0:
149,23,65585,1,0,0:0:0:0:
168,14,65690,1,0,1:0:0:0:
188,7,65796,2,0,L|171:82,2,53.9999983520508,0|0|0,1:0|1:0|0:0,0:0:0:0:
292,169,66218,2,0,L|277:235,1,53.9999983520508,8|0,0:0|0:0,0:0:0:0:
191,158,66430,1,0,0:0:0:0:
191,158,66641,6,0,P|112:161|76:226,1,135,4|0,1:2|0:0,0:0:0:0:
18,137,67064,6,0,P|49:203|65:303,1,161.999995056153,8|0,0:0|0:0,0:0:0:0:
125,356,67380,1,0,1:0:0:0:
172,367,67486,1,4,1:2:0:0:
217,350,67592,1,0,1:0:0:0:
240,307,67697,1,0,1:0:0:0:
404,253,67909,2,0,P|354:249|318:206,1,90,8|0,0:0|0:0,0:0:0:0:
291,142,68226,1,0,0:0:0:0:
291,142,68331,6,0,L|179:156,1,107.999996704102,4|0,1:0|0:0,0:0:0:0:
444,0,68754,2,0,B|376:33|376:33|400:179,1,202.500007724762,8|0,0:0|1:0,0:0:0:0:
475,196,69176,5,0,1:0:0:0:
491,159,69282,1,0,1:0:0:0:
477,121,69387,1,0,1:0:0:0:
302,14,69599,6,0,B|376:33|376:33|396:158,1,202.500007724762,8|0,0:0|0:0,0:0:0:0:
325,223,70021,6,0,P|262:217|234:170,1,107.999996704102,0|0,1:0|0:0,0:0:0:0:
228,106,70338,1,0,0:0:0:0:
228,106,70444,1,8,0:0:0:0:
137,9,70655,1,0,0:0:0:0:
124,39,70761,1,0,1:0:0:0:
111,68,70866,2,0,L|125:143,2,53.9999983520508,0|0|0,1:0|1:0|1:0,0:0:0:0:
0,204,71289,2,0,L|106:223,1,107.999996704102,8|0,0:0|0:0,0:0:0:0:
354,347,71711,6,0,P|314:276|214:280,1,161.999995056153,4|0,1:0|0:0,0:0:0:0:
155,294,72134,2,0,P|153:241|188:199,1,107.999996704102,8|0,0:0|0:0,0:0:0:0:
270,178,72451,1,0,1:0:0:0:
297,152,72556,1,0,1:0:0:0:
302,114,72662,1,0,1:0:0:0:
288,78,72768,1,0,1:0:0:0:
288,78,72979,6,0,L|212:59,1,53.9999983520508,8|0,0:0|0:0,0:0:0:0:
360,0,73190,1,0,0:0:0:0:
382,15,73296,1,0,0:0:0:0:
384,41,73402,2,0,P|333:76|356:186,1,161.999995056153,4|0,1:0|0:0,0:0:0:0:
390,244,73824,6,0,B|338:203|338:203|257:233,1,135.000005149842,8|0,0:0|0:0,0:0:0:0:
215,292,74141,1,0,1:0:0:0:
215,332,74247,1,4,1:0:0:0:
197,368,74352,1,0,1:0:0:0:
159,384,74458,1,0,1:0:0:0:
11,315,74669,2,0,P|63:307|117:298,1,107.999996704102,8|0,0:0|0:0,0:0:0:0:
309,246,75092,6,0,P|209:243|172:154,1,161.999995056153,4|0,1:2|0:0,0:0:0:0:
86,209,75514,2,0,P|99:157|114:91,1,107.999996704102,8|0,0:0|0:0,0:0:0:0:
55,41,75831,1,0,1:0:0:0:
55,41,75937,2,0,L|-13:60,2,53.9999983520508,0|0|0,1:0|1:0|0:0,0:0:0:0:
311,80,76359,2,0,P|259:92|207:106,1,107.999996704102,8|0,0:0|0:0,0:0:0:0:
410,11,76782,6,0,P|481:67|468:134,1,161.999995056153,4|0,1:2|0:0,0:0:0:0:
385,141,77204,2,0,P|397:196|403:247,1,107.999996704102,8|0,0:0|0:0,0:0:0:0:
459,316,77521,1,0,1:0:0:0:
459,316,77627,2,0,L|516:327,2,53.9999983520508,0|0|0,1:0|1:0|1:0,0:0:0:0:
182,384,78049,1,8,0:0:0:0:
182,384,78472,5,4,1:0:0:0:
403,247,78683,1,0,0:0:0:0:
286,384,78895,2,0,L|302:277,1,107.999996704102,8|0,0:0|0:0,0:0:0:0:
299,194,79211,1,0,1:0:0:0:
275,157,79317,1,0,1:0:0:0:
232,146,79423,1,0,1:0:0:0:
190,156,79528,1,0,1:0:0:0:
190,156,79740,6,0,L|179:227,1,53.9999983520508,8|0,0:0|0:0,0:0:0:0:
109,57,79951,2,0,L|100:110,1,53.9999983520508,0|0,0:0|0:0,0:0:0:0:
262,27,80162,5,2,0:1:0:0:
267,6,80585,1,2,0:1:0:0:
262,27,81007,1,2,0:1:0:0:
