osu file format v14

[General]
AudioFilename: audio.mp3
AudioLeadIn: 0
PreviewTime: 54694
Countdown: 0
SampleSet: Normal
StackLeniency: 0.7
Mode: 1
LetterboxInBreaks: 0
WidescreenStoryboard: 1

[Editor]
Bookmarks: 712,7472,14233,27758,80997
DistanceSpacing: 1.4
BeatDivisor: 4
GridSize: 32
TimelineZoom: 2

[Metadata]
Title:Charles (Arrange ver.) (Cut Ver.)
TitleUnicode:シャルル (Arrange ver.) (Cut Ver.)
Artist:Hanabasami Kyo
ArtistUnicode:花鋏キョウ
Creator:_DUSK_
Version:Muzukashii
Source:
Tags:バルーン balloon vocaloid Vtuber virtual youtuber syaruru re:act ハサミウタ hasami_uta japanese pop jpop 歌ってみた
BeatmapID:2257688
BeatmapSetID:1078723

[Difficulty]
HPDrainRate:6
CircleSize:5
OverallDifficulty:5
ApproachRate:9
SliderMultiplier:1.4
SliderTickRate:1

[Events]
//Background and Video events
0,0,"maxresdefault.jpg",0,80
//Break Periods
//Storyboard Layer 0 (Background)
//Storyboard Layer 1 (Fail)
//Storyboard Layer 2 (Pass)
//Storyboard Layer 3 (Foreground)
//Storyboard Layer 4 (Overlay)
//Storyboard Sound Samples

[TimingPoints]
716,422.535211267606,4,1,0,70,1,0
716,-125,4,1,0,70,0,0
6737,-125,4,1,0,80,0,0
7265,-120.481927710843,4,1,0,80,0,0
7476,-117.647058823529,4,1,0,80,0,0
12546,-116.279069767442,4,1,0,80,0,0
12969,-111.111111111111,4,1,0,80,0,0
13392,-108.695652173913,4,1,0,80,0,0
13603,-106.382978723404,4,1,0,80,0,0
13814,-104.166666666667,4,1,0,80,0,0
14237,-102.040816326531,4,1,0,80,0,0
14659,-117.647058823529,4,1,0,80,0,0
27335,-125,4,1,0,80,0,0
27758,-117.647058823529,4,1,0,80,0,0
34307,-116.279069767442,4,1,0,80,0,0
34413,-114.942528735632,4,1,0,80,0,0
34518,-113.636363636364,4,1,0,80,0,0
41701,-133.333333333333,4,1,0,80,0,0
46349,-129.87012987013,4,1,0,80,0,0
46772,-126.582278481013,4,1,0,80,0,0
47194,-123.456790123457,4,1,0,80,0,0
47828,-121.951219512195,4,1,0,80,0,0
48039,-119.047619047619,4,1,0,80,0,0
53216,-117.647058823529,4,1,0,80,0,0
53321,-116.279069767442,4,1,0,80,0,0
53532,-113.636363636364,4,1,0,80,0,0
53744,-112.359550561798,4,1,0,80,0,0
53955,-109.89010989011,4,1,0,80,0,0
54061,-108.695652173913,4,1,0,80,0,0
54166,-107.52688172043,4,1,0,80,0,0
54377,-106.382978723404,4,1,0,80,0,0
54800,-100,4,1,0,80,0,1
80152,-100,4,1,0,80,0,0
80575,-105.263157894737,4,1,0,80,0,0
80997,-111.111111111111,4,1,0,80,0,0

[HitObjects]
256,192,716,5,0,0:0:0:0:
256,192,1772,1,8,0:0:0:0:
256,192,1983,1,8,0:0:0:0:
256,192,2194,1,8,0:0:0:0:
256,192,2406,1,0,0:0:0:0:
256,192,3251,1,8,0:0:0:0:
256,192,3462,1,8,0:0:0:0:
256,192,3673,1,8,0:0:0:0:
256,192,4096,1,0,0:0:0:0:
256,192,4941,1,8,0:0:0:0:
256,192,5363,1,8,0:0:0:0:
256,192,5575,1,8,0:0:0:0:
256,192,5786,1,0,0:0:0:0:
256,192,6842,1,8,0:0:0:0:
256,192,7265,1,8,0:0:0:0:
256,192,7476,1,4,0:0:0:0:
256,192,8321,1,8,0:0:0:0:
256,192,8744,1,8,0:0:0:0:
256,192,8955,1,8,0:0:0:0:
256,192,9166,1,0,0:0:0:0:
256,192,9377,1,8,0:0:0:0:
256,192,9589,1,8,0:0:0:0:
256,192,10011,1,8,0:0:0:0:
256,192,10434,1,8,0:0:0:0:
256,192,10645,1,8,0:0:0:0:
256,192,10856,1,0,0:0:0:0:
256,192,11068,1,0,0:0:0:0:
256,192,11279,1,8,0:0:0:0:
256,192,11701,1,8,0:0:0:0:
256,192,11913,1,8,0:0:0:0:
256,192,12018,1,8,0:0:0:0:
256,192,12124,1,8,0:0:0:0:
256,192,12335,1,8,0:0:0:0:
256,192,12546,1,0,0:0:0:0:
256,192,12969,1,8,0:0:0:0:
256,192,13392,1,0,0:0:0:0:
256,192,13603,1,8,0:0:0:0:
256,192,13814,1,0,0:0:0:0:
256,192,14237,1,12,0:0:0:0:
256,192,14659,1,0,0:0:0:0:
256,192,15082,1,8,0:0:0:0:
256,192,15504,1,8,0:0:0:0:
256,192,15927,1,0,0:0:0:0:
256,192,16561,1,8,0:0:0:0:
256,192,16666,1,8,0:0:0:0:
256,192,16772,1,8,0:0:0:0:
256,192,16983,1,0,0:0:0:0:
256,192,17194,1,8,0:0:0:0:
256,192,17617,1,8,0:0:0:0:
256,192,18251,1,0,0:0:0:0:
256,192,18356,1,0,0:0:0:0:
256,192,18462,1,0,0:0:0:0:
256,192,18673,1,0,0:0:0:0:
256,192,18885,1,8,0:0:0:0:
256,192,19307,1,0,0:0:0:0:
256,192,19730,1,8,0:0:0:0:
256,192,19941,1,8,0:0:0:0:
256,192,20152,1,0,0:0:0:0:
256,192,20575,1,0,0:0:0:0:
256,192,20786,1,0,0:0:0:0:
256,192,20997,1,12,0:0:0:0:
256,192,21420,1,8,0:0:0:0:
256,192,21842,1,8,0:0:0:0:
256,192,22265,1,8,0:0:0:0:
256,192,22687,1,0,0:0:0:0:
256,192,23321,1,8,0:0:0:0:
256,192,23427,1,8,0:0:0:0:
256,192,23532,1,8,0:0:0:0:
256,192,23744,1,0,0:0:0:0:
256,192,23955,1,8,0:0:0:0:
256,192,24377,1,0,0:0:0:0:
256,192,25011,1,0,0:0:0:0:
256,192,25117,1,0,0:0:0:0:
256,192,25223,1,0,0:0:0:0:
256,192,25434,1,0,0:0:0:0:
256,192,25645,1,8,0:0:0:0:
256,192,26068,1,0,0:0:0:0:
256,192,26490,1,8,0:0:0:0:
256,192,26701,1,8,0:0:0:0:
256,192,26913,1,0,0:0:0:0:
256,192,27335,1,8,0:0:0:0:
256,192,27758,1,4,0:0:0:0:
256,192,27969,1,8,0:0:0:0:
256,192,28180,1,0,0:0:0:0:
256,192,28814,1,8,0:0:0:0:
256,192,29025,1,8,0:0:0:0:
256,192,29237,1,8,0:0:0:0:
256,192,29448,1,0,0:0:0:0:
256,192,29659,1,8,0:0:0:0:
256,192,29870,1,8,0:0:0:0:
256,192,30293,1,8,0:0:0:0:
256,192,30716,1,8,0:0:0:0:
256,192,30927,1,8,0:0:0:0:
256,192,31138,1,0,0:0:0:0:
256,192,31349,1,0,0:0:0:0:
256,192,31561,1,8,0:0:0:0:
256,192,31983,1,8,0:0:0:0:
256,192,32406,1,8,0:0:0:0:
256,192,32617,1,8,0:0:0:0:
256,192,32828,1,0,0:0:0:0:
256,192,33039,1,0,0:0:0:0:
256,192,33251,1,8,0:0:0:0:
256,192,33462,1,0,0:0:0:0:
256,192,33885,1,8,0:0:0:0:
256,192,34307,1,8,0:0:0:0:
256,192,34518,1,0,0:0:0:0:
256,192,34730,1,0,0:0:0:0:
256,192,34941,1,8,0:0:0:0:
256,192,35152,1,0,0:0:0:0:
256,192,35258,1,0,0:0:0:0:
256,192,35363,1,0,0:0:0:0:
256,192,35997,1,8,0:0:0:0:
256,192,36103,1,8,0:0:0:0:
256,192,36208,1,8,0:0:0:0:
256,192,36420,1,0,0:0:0:0:
256,192,36631,1,8,0:0:0:0:
256,192,36842,1,0,0:0:0:0:
256,192,36948,1,0,0:0:0:0:
256,192,37265,1,8,0:0:0:0:
256,192,37476,1,0,0:0:0:0:
256,192,37687,1,8,0:0:0:0:
256,192,37899,1,0,0:0:0:0:
256,192,38110,1,8,0:0:0:0:
256,192,38216,1,8,0:0:0:0:
256,192,38321,1,8,0:0:0:0:
256,192,38744,1,8,0:0:0:0:
256,192,38955,1,8,0:0:0:0:
256,192,39061,1,8,0:0:0:0:
256,192,39166,1,8,0:0:0:0:
256,192,39377,1,8,0:0:0:0:
256,192,39589,1,0,0:0:0:0:
256,192,39800,1,0,0:0:0:0:
256,192,40011,1,8,0:0:0:0:
256,192,40645,1,8,0:0:0:0:
256,192,40856,1,0,0:0:0:0:
256,192,41068,1,0,0:0:0:0:
256,192,41279,1,8,0:0:0:0:
256,192,42124,1,8,0:0:0:0:
256,192,42969,1,0,0:0:0:0:
256,192,43814,1,8,0:0:0:0:
256,192,44659,1,0,0:0:0:0:
256,192,45082,1,0,0:0:0:0:
256,192,45504,1,8,0:0:0:0:
256,192,46349,1,4,0:0:0:0:
256,192,46772,1,12,0:0:0:0:
256,192,47194,1,4,0:0:0:0:
256,192,47828,1,8,0:0:0:0:
256,192,48039,1,0,0:0:0:0:
256,192,48251,1,8,0:0:0:0:
256,192,48356,1,8,0:0:0:0:
256,192,48673,1,0,0:0:0:0:
256,192,48885,1,8,0:0:0:0:
256,192,49518,1,8,0:0:0:0:
256,192,49730,1,0,0:0:0:0:
256,192,49835,1,0,0:0:0:0:
256,192,49941,1,0,0:0:0:0:
256,192,50152,1,8,0:0:0:0:
256,192,50575,1,8,0:0:0:0:
256,192,50997,1,0,0:0:0:0:
256,192,51420,1,8,0:0:0:0:
256,192,51525,1,8,0:0:0:0:
256,192,51631,1,8,0:0:0:0:
256,192,51842,1,8,0:0:0:0:
256,192,52265,1,8,0:0:0:0:
256,192,52899,1,8,0:0:0:0:
256,192,53216,1,0,0:0:0:0:
256,192,53321,1,0,0:0:0:0:
256,192,53532,1,8,0:0:0:0:
256,192,53744,1,0,0:0:0:0:
256,192,53955,1,8,0:0:0:0:
256,192,54061,1,8,0:0:0:0:
256,192,54166,1,8,0:0:0:0:
256,192,54377,1,8,0:0:0:0:
256,192,54800,1,12,0:0:0:0:
256,192,55223,1,8,0:0:0:0:
256,192,55539,1,0,0:0:0:0:
256,192,55645,1,0,0:0:0:0:
256,192,55856,1,0,0:0:0:0:
256,192,56068,1,8,0:0:0:0:
256,192,56490,1,8,0:0:0:0:
256,192,56807,1,8,0:0:0:0:
256,192,56913,1,8,0:0:0:0:
256,192,57124,1,0,0:0:0:0:
256,192,57335,1,8,0:0:0:0:
256,192,57758,1,8,0:0:0:0:
256,192,57969,1,0,0:0:0:0:
256,192,58180,1,12,0:0:0:0:
256,192,58603,1,8,0:0:0:0:
256,192,58920,1,0,0:0:0:0:
256,192,59025,1,8,0:0:0:0:
256,192,59237,1,0,0:0:0:0:
256,192,59448,1,8,0:0:0:0:
256,192,59659,1,0,0:0:0:0:
256,192,59870,1,12,0:0:0:0:
256,192,60293,1,8,0:0:0:0:
256,192,60610,1,0,0:0:0:0:
256,192,60716,1,8,0:0:0:0:
256,192,60927,1,0,0:0:0:0:
256,192,61138,1,8,0:0:0:0:
256,192,61561,1,12,0:0:0:0:
256,192,62194,1,8,0:0:0:0:
256,192,62406,1,0,0:0:0:0:
256,192,62511,1,0,0:0:0:0:
256,192,62617,1,0,0:0:0:0:
256,192,62828,1,8,0:0:0:0:
256,192,63039,1,0,0:0:0:0:
256,192,63251,1,12,0:0:0:0:
256,192,63673,1,8,0:0:0:0:
256,192,63885,1,0,0:0:0:0:
256,192,64096,1,0,0:0:0:0:
256,192,64201,1,0,0:0:0:0:
256,192,64307,1,0,0:0:0:0:
256,192,64518,1,8,0:0:0:0:
256,192,64730,1,0,0:0:0:0:
256,192,64941,1,12,0:0:0:0:
256,192,65363,1,8,0:0:0:0:
256,192,65680,1,0,0:0:0:0:
256,192,65786,1,0,0:0:0:0:
256,192,65997,1,0,0:0:0:0:
256,192,66208,1,8,0:0:0:0:
256,192,66420,1,0,0:0:0:0:
256,192,66631,1,12,0:0:0:0:
256,192,67054,1,8,0:0:0:0:
256,192,67370,1,0,0:0:0:0:
256,192,67476,1,8,0:0:0:0:
256,192,67687,1,0,0:0:0:0:
256,192,67899,1,8,0:0:0:0:
256,192,68321,1,12,0:0:0:0:
256,192,68744,1,8,0:0:0:0:
256,192,69061,1,0,0:0:0:0:
256,192,69166,1,0,0:0:0:0:
256,192,69377,1,0,0:0:0:0:
256,192,69589,1,8,0:0:0:0:
256,192,70011,1,0,0:0:0:0:
256,192,70328,1,8,0:0:0:0:
256,192,70434,1,8,0:0:0:0:
256,192,70645,1,0,0:0:0:0:
256,192,70856,1,0,0:0:0:0:
256,192,70962,1,0,0:0:0:0:
256,192,71068,1,0,0:0:0:0:
256,192,71279,1,8,0:0:0:0:
256,192,71701,1,12,0:0:0:0:
256,192,72124,1,8,0:0:0:0:
256,192,72441,1,0,0:0:0:0:
256,192,72546,1,8,0:0:0:0:
256,192,72758,1,0,0:0:0:0:
256,192,72969,1,8,0:0:0:0:
256,192,73075,1,8,0:0:0:0:
256,192,73180,1,8,0:0:0:0:
256,192,73392,1,12,0:0:0:0:
256,192,73814,1,8,0:0:0:0:
256,192,74131,1,0,0:0:0:0:
256,192,74237,1,8,0:0:0:0:
256,192,74448,1,0,0:0:0:0:
256,192,74659,1,8,0:0:0:0:
256,192,75082,1,12,0:0:0:0:
256,192,75504,1,8,0:0:0:0:
256,192,75716,1,0,0:0:0:0:
256,192,75927,1,0,0:0:0:0:
256,192,76032,1,0,0:0:0:0:
256,192,76138,1,0,0:0:0:0:
256,192,76349,1,8,0:0:0:0:
256,192,76772,1,12,0:0:0:0:
256,192,77089,1,8,0:0:0:0:
256,192,77194,1,8,0:0:0:0:
256,192,77406,1,0,0:0:0:0:
256,192,77617,1,0,0:0:0:0:
256,192,77723,1,0,0:0:0:0:
256,192,77828,1,0,0:0:0:0:
256,192,78039,1,8,0:0:0:0:
256,192,78462,1,12,0:0:0:0:
256,192,78885,1,8,0:0:0:0:
256,192,79096,1,0,0:0:0:0:
256,192,79307,1,0,0:0:0:0:
256,192,79413,1,0,0:0:0:0:
256,192,79518,1,0,0:0:0:0:
256,192,79730,1,8,0:0:0:0:
256,192,79941,1,8,0:0:0:0:
256,192,80152,1,0,0:0:0:0:
256,192,80575,1,8,0:0:0:0:
256,192,80997,1,8,0:0:0:0:
