osu file format v14

[General]
AudioFilename: audio.mp3
AudioLeadIn: 0
PreviewTime: 53965
Countdown: 0
SampleSet: Normal
StackLeniency: 0.7
Mode: 1
LetterboxInBreaks: 0
WidescreenStoryboard: 0

[Editor]
Bookmarks: 7486,14247,27768,41289,54810,81852
DistanceSpacing: 0.1
BeatDivisor: 4
GridSize: 32
TimelineZoom: 1.78

[Metadata]
Title:Charles (Arrange ver.) (Cut Ver.)
TitleUnicode:シャルル (Arrange ver.) (Cut Ver.)
Artist:Hanabasami Kyo
ArtistUnicode:花鋏キョウ
Creator:Wanpachi
Version:Oni
Source:
Tags:バルーン balloon vocaloid Vtuber syaruru re:act ハサミウタ hasami_uta japanese pop jpop j-pop 歌ってみた sharuru short version cycopton hivie hoshikuz [karcher] 2 karcher mintong89 mint
BeatmapID:2780562
BeatmapSetID:1243513

[Difficulty]
HPDrainRate:5
CircleSize:5
OverallDifficulty:6
ApproachRate:5
SliderMultiplier:1.4
SliderTickRate:1

[Events]
//Background and Video events
0,0,"ok gggggggggggggg.jpg",0,-131
//Break Periods
//Storyboard Layer 0 (Background)
//Storyboard Layer 1 (Fail)
//Storyboard Layer 2 (Pass)
//Storyboard Layer 3 (Foreground)
//Storyboard Layer 4 (Overlay)
//Storyboard Sound Samples

[TimingPoints]
-964,422.535211267606,4,1,0,40,1,8
303,-125,4,1,0,40,0,0
726,422.535211267606,4,1,0,40,1,0
726,-125,4,1,0,40,0,0
7275,-117.647058823529,4,1,0,40,0,0
7486,-111.111111111111,4,1,0,60,0,0
14035,-105.263157894737,4,1,0,60,0,0
14247,-100,4,1,0,60,0,0
27486,-103.448275862069,4,1,0,60,0,0
27627,-107.142857142857,4,1,0,60,0,0
27768,-111.111111111111,4,1,0,50,0,0
40761,-114.942528735632,4,1,0,50,0,0
40972,-120,4,1,0,50,0,0
41289,-125,4,1,0,50,0,0
53226,-105.263157894737,4,1,0,60,0,0
54810,-90.9090909090909,4,1,0,70,0,1
79951,-95.2380952380952,4,1,0,70,0,1
80162,-100,4,1,0,40,0,0
80585,-111.111111111111,4,1,0,40,0,0
81007,-125,4,1,0,40,0,0

[HitObjects]
256,192,303,5,0,0:0:0:0:
256,192,514,1,0,0:0:0:0:
256,192,726,1,8,0:0:0:0:
256,192,937,1,0,0:0:0:0:
256,192,1148,1,8,0:0:0:0:
256,192,1571,1,8,0:0:0:0:
256,192,1782,1,8,0:0:0:0:
256,192,1993,1,0,0:0:0:0:
256,192,2204,1,0,0:0:0:0:
256,192,2416,1,8,0:0:0:0:
256,192,2838,1,0,0:0:0:0:
256,192,3155,1,0,0:0:0:0:
256,192,3261,1,8,0:0:0:0:
256,192,3472,1,8,0:0:0:0:
256,192,3683,1,0,0:0:0:0:
256,192,3895,1,0,0:0:0:0:
256,192,4317,1,8,0:0:0:0:
256,192,4740,1,8,0:0:0:0:
256,192,4951,1,0,0:0:0:0:
256,192,5373,1,0,0:0:0:0:
256,192,5585,1,0,0:0:0:0:
256,192,5796,1,8,0:0:0:0:
256,192,6113,1,0,0:0:0:0:
256,192,6852,1,8,0:0:0:0:
256,192,7275,1,0,0:0:0:0:
256,192,7486,1,4,0:0:0:0:
256,192,7697,1,8,0:0:0:0:
256,192,7803,1,0,0:0:0:0:
256,192,7909,1,8,0:0:0:0:
256,192,8120,1,0,0:0:0:0:
256,192,8226,1,8,0:0:0:0:
256,192,8437,1,0,0:0:0:0:
256,192,8542,1,8,0:0:0:0:
256,192,8648,1,8,0:0:0:0:
256,192,8754,1,0,0:0:0:0:
256,192,8965,1,8,0:0:0:0:
256,192,9176,1,0,0:0:0:0:
256,192,9282,1,8,0:0:0:0:
256,192,9387,1,8,0:0:0:0:
256,192,9493,1,0,0:0:0:0:
256,192,9599,1,8,0:0:0:0:
256,192,9810,1,0,0:0:0:0:
256,192,9916,1,8,0:0:0:0:
256,192,10233,1,0,0:0:0:0:
256,192,10444,1,8,0:0:0:0:
256,192,10655,1,0,0:0:0:0:
256,192,10866,1,0,0:0:0:0:
256,192,10972,1,0,0:0:0:0:
256,192,11078,1,8,0:0:0:0:
256,192,11183,1,0,0:0:0:0:
256,192,11289,1,8,0:0:0:0:
256,192,11711,1,0,0:0:0:0:
256,192,11923,1,0,0:0:0:0:
256,192,12028,1,0,0:0:0:0:
256,192,12134,1,8,0:0:0:0:
256,192,12345,1,8,0:0:0:0:
256,192,12451,1,8,0:0:0:0:
256,192,12556,1,0,0:0:0:0:
256,192,12662,1,0,0:0:0:0:
256,192,12768,1,0,0:0:0:0:
256,192,12873,1,0,0:0:0:0:
256,192,12979,1,8,0:0:0:0:
256,192,13190,1,0,0:0:0:0:
256,192,13402,1,0,0:0:0:0:
256,192,13507,1,0,0:0:0:0:
256,192,13613,1,8,0:0:0:0:
256,192,13718,1,8,0:0:0:0:
256,192,13824,1,0,0:0:0:0:
256,192,14035,1,8,0:0:0:0:
256,192,14247,1,4,0:0:0:0:
256,192,14669,1,8,0:0:0:0:
256,192,14986,1,0,0:0:0:0:
256,192,15092,1,8,0:0:0:0:
256,192,15514,1,8,0:0:0:0:
256,192,15937,1,0,0:0:0:0:
256,192,16042,1,8,0:0:0:0:
256,192,16148,1,8,0:0:0:0:
256,192,16254,1,0,0:0:0:0:
256,192,16359,1,8,0:0:0:0:
256,192,16571,1,0,0:0:0:0:
256,192,16676,1,0,0:0:0:0:
256,192,16782,1,8,0:0:0:0:
256,192,16993,1,0,0:0:0:0:
256,192,17204,1,8,0:0:0:0:
256,192,17627,1,0,0:0:0:0:
256,192,17733,1,0,0:0:0:0:
256,192,17838,1,8,0:0:0:0:
256,192,17944,1,0,0:0:0:0:
256,192,18049,1,8,0:0:0:0:
256,192,18261,1,8,0:0:0:0:
256,192,18366,1,8,0:0:0:0:
256,192,18472,1,0,0:0:0:0:
256,192,18895,1,8,0:0:0:0:
256,192,19317,1,0,0:0:0:0:
256,192,19423,1,8,0:0:0:0:
256,192,19528,1,8,0:0:0:0:
256,192,19634,1,0,0:0:0:0:
256,192,19740,1,8,0:0:0:0:
256,192,19951,1,0,0:0:0:0:
256,192,20056,1,0,0:0:0:0:
256,192,20162,1,8,0:0:0:0:
256,192,20373,1,0,0:0:0:0:
256,192,20585,1,8,0:0:0:0:
256,192,20726,1,8,0:0:0:0:
256,192,20866,1,8,0:0:0:0:
256,192,21007,1,4,0:0:0:0:
256,192,21430,1,8,0:0:0:0:
256,192,21641,1,0,0:0:0:0:
256,192,21747,1,0,0:0:0:0:
256,192,21852,1,8,0:0:0:0:
256,192,22275,1,0,0:0:0:0:
256,192,22697,1,0,0:0:0:0:
256,192,22803,1,8,0:0:0:0:
256,192,22909,1,8,0:0:0:0:
256,192,23014,1,0,0:0:0:0:
256,192,23120,1,8,0:0:0:0:
256,192,23331,1,0,0:0:0:0:
256,192,23437,1,0,0:0:0:0:
256,192,23542,1,8,0:0:0:0:
256,192,23754,1,0,0:0:0:0:
256,192,23965,1,8,0:0:0:0:
256,192,24387,1,0,0:0:0:0:
256,192,24493,1,0,0:0:0:0:
256,192,24599,1,8,0:0:0:0:
256,192,24704,1,0,0:0:0:0:
256,192,24810,1,8,0:0:0:0:
256,192,25021,1,8,0:0:0:0:
256,192,25127,1,8,0:0:0:0:
256,192,25233,1,0,0:0:0:0:
256,192,25655,1,8,0:0:0:0:
256,192,26078,1,0,0:0:0:0:
256,192,26183,1,8,0:0:0:0:
256,192,26289,1,8,0:0:0:0:
256,192,26395,1,0,0:0:0:0:
256,192,26500,1,8,0:0:0:0:
256,192,26711,1,8,0:0:0:0:
256,192,26817,1,8,0:0:0:0:
256,192,26923,1,0,0:0:0:0:
256,192,27345,1,8,0:0:0:0:
256,192,27486,1,8,0:0:0:0:
256,192,27627,1,8,0:0:0:0:
256,192,27768,1,4,0:0:0:0:
256,192,27979,1,8,0:0:0:0:
256,192,28084,1,0,0:0:0:0:
256,192,28190,1,8,0:0:0:0:
256,192,28507,1,0,0:0:0:0:
256,192,28613,1,8,0:0:0:0:
256,192,29035,1,0,0:0:0:0:
256,192,29246,1,8,0:0:0:0:
256,192,29458,1,0,0:0:0:0:
256,192,29563,1,0,0:0:0:0:
256,192,29669,1,8,0:0:0:0:
256,192,29775,1,0,0:0:0:0:
256,192,29880,1,8,0:0:0:0:
256,192,30303,1,8,0:0:0:0:
256,192,30514,1,8,0:0:0:0:
256,192,30725,1,0,0:0:0:0:
256,192,30937,1,8,0:0:0:0:
256,192,31148,1,0,0:0:0:0:
256,192,31253,1,8,0:0:0:0:
256,192,31359,1,8,0:0:0:0:
256,192,31465,1,0,0:0:0:0:
256,192,31570,1,8,0:0:0:0:
256,192,31782,1,8,0:0:0:0:
256,192,31993,1,0,0:0:0:0:
256,192,32204,1,0,0:0:0:0:
256,192,32415,1,8,0:0:0:0:
256,192,32627,1,0,0:0:0:0:
256,192,32838,1,0,0:0:0:0:
256,192,32944,1,0,0:0:0:0:
256,192,33049,1,8,0:0:0:0:
256,192,33155,1,0,0:0:0:0:
256,192,33260,1,8,0:0:0:0:
256,192,33472,1,0,0:0:0:0:
256,192,33895,1,8,0:0:0:0:
256,192,34317,1,0,0:0:0:0:
256,192,34528,1,4,0:0:0:0:
256,192,34739,1,8,0:0:0:0:
256,192,34844,1,0,0:0:0:0:
256,192,34950,1,8,0:0:0:0:
256,192,35162,1,0,0:0:0:0:
256,192,35268,1,8,0:0:0:0:
256,192,35479,1,0,0:0:0:0:
256,192,35585,1,0,0:0:0:0:
256,192,35690,1,8,0:0:0:0:
256,192,35795,1,0,0:0:0:0:
256,192,36006,1,8,0:0:0:0:
256,192,36113,1,8,0:0:0:0:
256,192,36218,1,0,0:0:0:0:
256,192,36323,1,0,0:0:0:0:
256,192,36429,1,0,0:0:0:0:
256,192,36535,1,0,0:0:0:0:
256,192,36640,1,8,0:0:0:0:
256,192,36852,1,0,0:0:0:0:
256,192,36958,1,8,0:0:0:0:
256,192,37274,1,0,0:0:0:0:
256,192,37485,1,8,0:0:0:0:
256,192,37697,1,8,0:0:0:0:
256,192,37908,1,0,0:0:0:0:
256,192,38013,1,8,0:0:0:0:
256,192,38119,1,8,0:0:0:0:
256,192,38225,1,0,0:0:0:0:
256,192,38330,1,8,0:0:0:0:
256,192,38753,1,0,0:0:0:0:
256,192,38964,1,0,0:0:0:0:
256,192,39071,1,0,0:0:0:0:
256,192,39175,1,8,0:0:0:0:
256,192,39387,1,8,0:0:0:0:
256,192,39493,1,8,0:0:0:0:
256,192,39598,1,0,0:0:0:0:
256,192,39704,1,0,0:0:0:0:
256,192,39809,1,0,0:0:0:0:
256,192,39915,1,0,0:0:0:0:
256,192,40020,1,8,0:0:0:0:
256,192,40233,1,0,0:0:0:0:
256,192,40444,1,0,0:0:0:0:
256,192,40866,1,0,0:0:0:0:
256,192,41078,1,0,0:0:0:0:
256,192,41289,1,12,0:0:0:0:
256,192,41923,1,8,0:0:0:0:
256,192,42134,1,0,0:0:0:0:
256,192,42768,1,0,0:0:0:0:
256,192,42873,1,0,0:0:0:0:
256,192,42979,1,8,0:0:0:0:
256,192,43402,1,0,0:0:0:0:
256,192,43824,1,8,0:0:0:0:
256,192,44141,1,0,0:0:0:0:
256,192,44247,1,8,0:0:0:0:
256,192,44669,1,0,0:0:0:0:
256,192,44880,1,0,0:0:0:0:
256,192,45092,1,8,0:0:0:0:
256,192,45514,1,8,0:0:0:0:
256,192,45726,1,8,0:0:0:0:
256,192,45937,1,0,0:0:0:0:
256,192,46148,1,0,0:0:0:0:
256,192,46359,1,12,0:0:0:0:
256,192,46782,1,4,0:0:0:0:
256,192,47204,1,12,0:0:0:0:
256,192,47416,1,0,0:0:0:0:
256,192,47627,1,0,0:0:0:0:
256,192,47838,1,0,0:0:0:0:
256,192,48049,1,12,0:0:0:0:
256,192,48683,1,8,0:0:0:0:
256,192,48895,1,0,0:0:0:0:
256,192,49528,1,0,0:0:0:0:
256,192,49740,1,8,0:0:0:0:
256,192,50162,1,0,0:0:0:0:
256,192,50585,1,8,0:0:0:0:
256,192,51007,1,8,0:0:0:0:
256,192,51430,1,0,0:0:0:0:
256,192,51641,1,0,0:0:0:0:
256,192,51852,1,8,0:0:0:0:
256,192,52064,1,0,0:0:0:0:
256,192,52275,1,8,0:0:0:0:
256,192,52486,1,8,0:0:0:0:
256,192,52697,1,0,0:0:0:0:
256,192,52909,1,8,0:0:0:0:
256,192,53226,1,0,0:0:0:0:
256,192,53331,1,0,0:0:0:0:
256,192,53437,1,8,0:0:0:0:
256,192,53542,1,8,0:0:0:0:
256,192,53754,1,0,0:0:0:0:
256,192,53859,1,0,0:0:0:0:
256,192,53965,1,8,0:0:0:0:
256,192,54071,1,8,0:0:0:0:
256,192,54176,1,0,0:0:0:0:
256,192,54282,1,0,0:0:0:0:
256,192,54387,1,8,0:0:0:0:
256,192,54810,1,4,0:0:0:0:
256,192,55233,1,8,0:0:0:0:
256,192,55444,1,0,0:0:0:0:
256,192,55549,1,0,0:0:0:0:
256,192,55655,1,8,0:0:0:0:
256,192,55761,1,0,0:0:0:0:
256,192,55866,1,0,0:0:0:0:
256,192,56078,1,8,0:0:0:0:
256,192,56289,1,0,0:0:0:0:
256,192,56500,1,8,0:0:0:0:
256,192,56711,1,8,0:0:0:0:
256,192,56923,1,0,0:0:0:0:
256,192,57134,1,0,0:0:0:0:
256,192,57240,1,0,0:0:0:0:
256,192,57345,1,8,0:0:0:0:
256,192,57451,1,8,0:0:0:0:
256,192,57556,1,0,0:0:0:0:
256,192,57768,1,8,0:0:0:0:
256,192,57979,1,8,0:0:0:0:
256,192,58190,1,4,0:0:0:0:
256,192,58613,1,0,0:0:0:0:
256,192,58824,1,8,0:0:0:0:
256,192,58930,1,0,0:0:0:0:
256,192,59035,1,8,0:0:0:0:
256,192,59141,1,0,0:0:0:0:
256,192,59247,1,0,0:0:0:0:
256,192,59458,1,8,0:0:0:0:
256,192,59669,1,8,0:0:0:0:
256,192,59880,1,4,0:0:0:0:
256,192,60303,1,8,0:0:0:0:
256,192,60514,1,0,0:0:0:0:
256,192,60620,1,0,0:0:0:0:
256,192,60726,1,12,0:0:0:0:
256,192,61148,1,0,0:0:0:0:
256,192,61359,1,0,0:0:0:0:
256,192,61571,1,12,0:0:0:0:
256,192,61993,1,0,0:0:0:0:
256,192,62204,1,8,0:0:0:0:
256,192,62310,1,0,0:0:0:0:
256,192,62416,1,8,0:0:0:0:
256,192,62521,1,8,0:0:0:0:
256,192,62627,1,0,0:0:0:0:
256,192,62838,1,0,0:0:0:0:
256,192,63049,1,8,0:0:0:0:
256,192,63261,1,4,0:0:0:0:
256,192,63683,1,8,0:0:0:0:
256,192,63895,1,0,0:0:0:0:
256,192,64000,1,0,0:0:0:0:
256,192,64106,1,8,0:0:0:0:
256,192,64211,1,8,0:0:0:0:
256,192,64317,1,0,0:0:0:0:
256,192,64528,1,8,0:0:0:0:
256,192,64740,1,0,0:0:0:0:
256,192,64951,1,4,0:0:0:0:
256,192,65373,1,0,0:0:0:0:
256,192,65585,1,8,0:0:0:0:
256,192,65690,1,0,0:0:0:0:
256,192,65796,1,8,0:0:0:0:
256,192,65902,1,0,0:0:0:0:
256,192,66007,1,0,0:0:0:0:
256,192,66218,1,8,0:0:0:0:
256,192,66430,1,8,0:0:0:0:
256,192,66641,1,4,0:0:0:0:
256,192,67064,1,8,0:0:0:0:
256,192,67275,1,0,0:0:0:0:
256,192,67380,1,0,0:0:0:0:
256,192,67486,1,12,0:0:0:0:
256,192,67909,1,8,0:0:0:0:
256,192,68120,1,8,0:0:0:0:
256,192,68226,1,8,0:0:0:0:
256,192,68331,1,4,0:0:0:0:
256,192,68754,1,8,0:0:0:0:
256,192,68965,1,0,0:0:0:0:
256,192,69070,1,0,0:0:0:0:
256,192,69176,1,8,0:0:0:0:
256,192,69282,1,8,0:0:0:0:
256,192,69387,1,0,0:0:0:0:
256,192,69599,1,8,0:0:0:0:
256,192,69810,1,0,0:0:0:0:
256,192,70021,1,8,0:0:0:0:
256,192,70233,1,8,0:0:0:0:
256,192,70444,1,0,0:0:0:0:
256,192,70655,1,0,0:0:0:0:
256,192,70761,1,0,0:0:0:0:
256,192,70866,1,8,0:0:0:0:
256,192,70972,1,0,0:0:0:0:
256,192,71077,1,0,0:0:0:0:
256,192,71289,1,8,0:0:0:0:
256,192,71500,1,8,0:0:0:0:
256,192,71711,1,4,0:0:0:0:
256,192,72134,1,0,0:0:0:0:
256,192,72345,1,8,0:0:0:0:
256,192,72451,1,0,0:0:0:0:
256,192,72556,1,8,0:0:0:0:
256,192,72662,1,0,0:0:0:0:
256,192,72768,1,0,0:0:0:0:
256,192,72979,1,8,0:0:0:0:
256,192,73190,1,8,0:0:0:0:
256,192,73401,1,4,0:0:0:0:
256,192,73824,1,8,0:0:0:0:
256,192,74035,1,0,0:0:0:0:
256,192,74141,1,0,0:0:0:0:
256,192,74247,1,12,0:0:0:0:
256,192,74669,1,0,0:0:0:0:
256,192,74880,1,0,0:0:0:0:
256,192,75092,1,12,0:0:0:0:
256,192,75514,1,0,0:0:0:0:
256,192,75725,1,8,0:0:0:0:
256,192,75831,1,0,0:0:0:0:
256,192,75937,1,8,0:0:0:0:
256,192,76042,1,8,0:0:0:0:
256,192,76148,1,0,0:0:0:0:
256,192,76359,1,0,0:0:0:0:
256,192,76570,1,8,0:0:0:0:
256,192,76782,1,4,0:0:0:0:
256,192,77204,1,8,0:0:0:0:
256,192,77416,1,0,0:0:0:0:
256,192,77521,1,0,0:0:0:0:
256,192,77627,1,8,0:0:0:0:
256,192,77732,1,8,0:0:0:0:
256,192,77838,1,0,0:0:0:0:
256,192,78049,1,8,0:0:0:0:
256,192,78261,1,0,0:0:0:0:
256,192,78472,1,4,0:0:0:0:
256,192,78894,1,0,0:0:0:0:
256,192,79106,1,8,0:0:0:0:
256,192,79211,1,0,0:0:0:0:
256,192,79317,1,8,0:0:0:0:
256,192,79423,1,0,0:0:0:0:
256,192,79528,1,0,0:0:0:0:
256,192,79739,1,8,0:0:0:0:
256,192,79951,1,0,0:0:0:0:
256,192,80162,1,8,0:0:0:0:
256,192,80585,1,0,0:0:0:0:
256,192,81007,1,8,0:0:0:0:
