osu file format v14

[General]
AudioFilename: audio.mp3
AudioLeadIn: 0
PreviewTime: 54983
Countdown: 0
SampleSet: Soft
StackLeniency: 0.7
Mode: 0
LetterboxInBreaks: 0
WidescreenStoryboard: 1

[Editor]
Bookmarks: 8610
DistanceSpacing: 1.4
BeatDivisor: 2
GridSize: 8
TimelineZoom: 1.5

[Metadata]
Title:Charles (Arrange ver.)
TitleUnicode:シャルル (Arrange ver.)
Artist:Hanabasami Kyo
ArtistUnicode:花鋏キョウ
Creator:Asuka_-
Version:Normal
Source:
Tags:バルーン balloon vocaloid Vtuber syaruru re:act ハサミウタ hasami_uta hypercyte hypercute dkblaze japanese novelty 歌ってみた sharuru
BeatmapID:2113450
BeatmapSetID:1001673

[Difficulty]
HPDrainRate:4
CircleSize:3.5
OverallDifficulty:3
ApproachRate:5
SliderMultiplier:1.1
SliderTickRate:1

[Events]
//Background and Video events
0,0,"maxresdefault.jpg",0,0
//Break Periods
//Storyboard Layer 0 (Background)
//Storyboard Layer 1 (Fail)
//Storyboard Layer 2 (Pass)
//Storyboard Layer 3 (Foreground)
//Storyboard Layer 4 (Overlay)
//Storyboard Sound Samples

[TimingPoints]
712,422.535211267606,4,2,1,60,1,0
14233,-100,4,2,1,70,0,0
27754,-100,4,2,1,60,0,0
34514,-100,4,2,1,70,0,0
41275,-100,4,2,1,60,0,0
43282,-100,4,2,1,5,0,0
43388,-100,4,2,1,60,0,0
43704,-100,4,2,1,5,0,0
43810,-100,4,2,1,60,0,0
44127,-100,4,2,1,5,0,0
44233,-100,4,2,1,60,0,0
44550,-100,4,2,1,5,0,0
44655,-100,4,2,1,60,0,0
52895,-100,4,2,1,75,0,0
54796,-100,4,2,1,95,0,1
80148,-100,4,2,1,65,0,0

[Colours]
Combo1 : 150,150,203
Combo2 : 255,171,87

[HitObjects]
362,360,712,6,0,P|354:298|350:227,1,110,2|2,3:0|0:0,0:0:0:0:
448,111,1557,2,0,P|418:124|375:121,1,55,0|2,3:0|0:0,0:0:0:0:
324,96,1979,1,2,0:0:0:0:
181,36,2402,2,0,P|174:94|163:171,1,110,2|2,3:0|0:0,0:0:0:0:
93,280,3247,2,0,P|121:264|166:268,1,55,2|2,0:0|0:0,0:0:0:0:
214,290,3669,1,2,0:0:0:0:
315,175,4092,6,0,P|365:204|430:185,1,110,2|2,3:0|0:0,0:0:0:0:
496,65,4937,2,0,P|445:74|376:73,1,110,2|2,0:0|0:0,0:0:0:0:
322,31,5571,1,2,0:0:0:0:
322,31,5782,2,0,P|267:31|196:38,1,110,2|2,3:0|0:0,0:0:0:0:
211,35,7472,6,0,P|206:62|204:110,1,55,6|0,3:0|3:0,0:0:0:0:
249,153,7895,1,0,3:0:0:0:
196,208,8106,2,0,P|256:194|299:219,1,110,0|2,3:0|0:0,0:0:0:0:
331,285,8740,1,2,0:0:0:0:
482,255,9162,2,0,P|491:199|497:129,1,110,6|2,3:0|0:0,0:0:0:0:
413,15,10007,2,0,P|387:18|349:36,1,55
307,85,10430,1,0,0:0:0:0:
169,16,10852,6,0,P|162:73|150:148,1,110,2|2,3:0|0:0,0:0:0:0:
85,262,11697,2,0,P|120:278|158:272,1,55,10|2,0:0|0:0,0:0:0:0:
209,254,12120,2,0,P|241:246|289:256,1,55,2|2,0:0|0:0,0:0:0:0:
313,305,12542,2,0,P|319:250|330:184,1,110,6|8,0:3|0:0,0:0:0:0:
372,133,13176,1,0,3:0:0:0:
372,133,13388,2,0,P|324:154|250:118,1,110,2|0,3:0|3:0,0:0:0:0:
161,30,14233,6,0,P|155:82|149:151,1,110,6|2,3:0|0:0,0:0:0:0:
34,242,15078,2,0,P|26:307|26:366,1,110,8|2,0:0|0:0,0:0:0:0:
179,345,15923,2,0,P|236:347|291:297,1,110,2|2,0:0|0:0,0:0:0:0:
333,263,16557,1,0,3:0:0:0:
333,263,16768,2,0,P|319:292|326:328,1,55,10|2,0:0|0:0,0:0:0:0:
376,367,17190,1,2,0:0:0:0:
488,261,17613,6,0,B|512:218|512:218|496:180|457:169,1,110
431,108,18247,1,2,0:0:0:0:
431,108,18458,2,0,P|395:146|397:211,1,110,8|2,0:0|3:0,0:0:0:0:
298,79,19303,1,2,0:0:0:0:
207,203,19726,1,2,0:0:0:0:
144,62,20148,2,0,P|101:36|35:47,1,110,2|2,0:3|0:0,0:0:0:0:
10,192,20993,6,0,P|15:245|26:333,1,110,6|2,0:0|0:0,0:0:0:0:
165,358,21838,2,0,P|170:307|185:220,1,110,8|0,0:0|3:0,0:0:0:0:
315,176,22683,2,0,P|324:229|336:307,1,110,2|2,0:0|0:0,0:0:0:0:
303,356,23317,1,0,3:0:0:0:
303,356,23528,2,0,P|337:361|383:345,1,55,8|2,0:0|0:0,0:0:0:0:
409,300,23951,1,2,0:0:0:0:
504,179,24373,6,0,P|441:175|380:164,1,110
334,118,25007,1,2,0:0:0:0:
334,118,25219,2,0,P|320:138|315:171,1,55,8|0,0:0|0:0,0:0:0:0:
241,189,25641,2,0,P|263:224|301:242,1,55,2|0,3:0|0:0,0:0:0:0:
349,243,26064,2,0,P|339:307|329:370,2,110,2|2|0,0:0|0:0|3:0,0:0:0:0:
208,304,27331,1,0,3:0:0:0:
56,330,27754,6,0,P|68:282|79:208,1,110,2|2,3:0|3:0,0:0:0:0:
31,74,28599,2,0,P|55:60|98:61,1,55
142,104,29021,1,2,0:0:0:0:
276,28,29444,2,0,P|265:88|252:159,1,110,6|0,3:0|3:0,0:0:0:0:
206,195,30078,1,4,3:0:0:0:
206,195,30289,2,0,P|257:179|313:213,1,110,8|2,0:0|0:0,0:0:0:0:
396,327,31134,6,0,P|404:266|415:209,1,110
492,86,31979,2,0,P|443:116|365:86,1,110,10|2,0:0|0:0,0:0:0:0:
336,56,32613,1,2,0:0:0:0:
336,56,32824,2,0,P|271:47|211:34,1,110,6|0,3:0|3:0,0:0:0:0:
156,69,33458,1,4,3:0:0:0:
11,16,33881,2,0,B|0:65|0:65|18:141,1,110,2|2,0:0|0:0,0:0:0:0:
1,199,34514,6,0,P|49:168|119:192,1,110,4|2,3:0|0:0,0:0:0:0:
171,201,35148,2,0,P|186:138|194:79,1,110
164,21,35782,1,0,0:0:0:0:
306,77,36204,2,0,P|358:70|424:61,1,110,2|2,3:0|0:0,0:0:0:0:
463,1,36838,1,4,3:0:0:0:
463,1,37050,2,0,P|490:38|468:114,1,110,8|2,0:0|3:0,0:0:0:0:
423,149,37683,1,2,3:0:0:0:
423,149,37895,6,0,B|401:176|390:212|390:212|415:260,1,110,6|2,3:0|3:0,0:0:0:0:
300,356,38740,2,0,P|285:325|277:296,1,55,10|2,0:0|0:0,0:0:0:0:
217,259,39162,2,0,P|224:218|236:195,1,55
207,131,39585,2,0,P|259:123|319:109,1,110,6|4,3:0|3:0,0:0:0:0:
391,139,40219,1,2,0:0:0:0:
391,139,40430,2,0,P|419:87|392:20,1,110,0|10,3:0|0:0,0:0:0:0:
254,30,41275,6,0,P|198:23|135:20,1,110,6|0,3:0|0:0,0:0:0:0:
67,11,41909,1,2,0:0:0:0:
67,11,42120,2,0,P|93:57|68:125,1,110,8|0,0:0|0:0,0:0:0:0:
11,248,42965,2,0,B|49:209|49:209|118:245,1,110,2|0,0:0|3:0,0:0:0:0:
252,236,43810,2,0,B|297:198|297:198|362:241,1,110,8|0,0:0|3:0,0:0:0:0:
476,297,44655,6,0,P|485:239|494:179,1,110,2|2,0:0|0:0,0:0:0:0:
484,111,45289,1,0,3:0:0:0:
484,111,45500,2,0,P|455:78|375:90,1,110,8|0,0:0|3:0,0:0:0:0:
320,105,46134,1,0,0:0:0:0:
320,105,46345,2,0,B|277:75|277:75|194:93,2,110,8|8|0,0:0|0:0|0:0,0:0:0:0:
394,239,47613,1,0,0:0:0:0:
289,352,48035,6,0,P|231:359|183:308,1,110,2|0,0:0|0:0,0:0:0:0:
147,266,48669,1,2,0:0:0:0:
147,266,48881,2,0,L|130:377,1,110,8|0,0:0|0:0,0:0:0:0:
29,258,49726,2,0,B|20:203|20:203|78:141,1,110,2|2,0:0|0:0,0:0:0:0:
130,27,50571,2,0,B|185:39|185:39|210:98,1,110,8|0,0:0|3:0,0:0:0:0:
251,235,51416,5,2,0:0:0:0:
251,235,51627,2,0,P|303:243|356:200,1,110,2|0,0:0|3:0,0:0:0:0:
397,153,52261,2,0,P|405:207|413:277,1,110,8|0,0:0|3:0,0:0:0:0:
360,320,52895,1,6,3:0:0:0:
76,59,53951,5,10,0:0:0:0:
76,59,54796,6,0,L|148:51,1,55,2|6,3:0|3:0,0:0:0:0:
207,42,55219,1,8,0:0:0:0:
167,190,55641,2,0,L|97:199,1,55,6|4,3:0|3:0,0:0:0:0:
36,209,56064,1,10,0:0:0:0:
104,346,56486,2,0,L|233:331,1,110,6|8,3:0|0:0,0:0:0:0:
283,376,57120,1,2,0:0:0:0:
283,376,57331,2,0,P|292:348|286:308,1,55,6|4,3:0|0:3,0:0:0:0:
246,259,57754,1,8,0:0:0:0:
413,276,58176,6,0,P|420:223|430:154,1,110,6|10,3:0|0:0,0:0:0:0:
394,97,58810,1,4,3:0:0:0:
394,97,59021,2,0,P|374:86|332:89,1,55,6|2,3:0|0:0,0:0:0:0:
278,128,59444,2,0,P|244:137|210:136,1,55,8|2,0:0|0:0,0:0:0:0:
149,119,59866,2,0,B|128:76|128:76|126:40|166:-3,2,110,6|10|6,3:0|0:0|3:0,0:0:0:0:
6,177,61134,1,8,0:0:0:0:
54,323,61557,6,0,P|105:288|168:307,1,110,6|8,3:0|0:0,0:0:0:0:
216,344,62190,1,2,3:0:0:0:
216,344,62402,2,0,P|194:288|230:224,1,110,6|8,3:0|0:0,0:0:0:0:
250,177,63035,1,2,3:0:0:0:
250,177,63247,2,0,P|205:202|135:174,2,110,6|8|4,3:0|0:0|3:0,0:0:0:0:
336,49,64514,1,8,0:0:0:0:
458,143,64937,5,6,3:0:0:0:
458,143,65148,2,0,P|446:206|441:268,1,110,2|2,0:0|0:0,0:0:0:0:
454,327,65782,2,0,P|427:328|387:306,1,55,6|4,3:0|3:0,0:0:0:0:
340,271,66204,2,0,P|312:262|261:273,1,55,8|2,0:0|3:0,0:0:0:0:
210,275,66627,2,0,B|184:298|179:317|179:317|199:384,2,110,6|6|6,3:0|3:0|3:0,0:0:0:0:
82,188,67895,1,2,3:0:0:0:
236,146,68317,6,0,L|227:79,1,55,6|2,3:0|3:0,0:0:0:0:
244,15,68740,1,8,0:0:0:0:
389,65,69162,2,0,L|399:145,1,55,6|4,3:0|0:3,0:0:0:0:
373,193,69585,1,8,0:0:0:0:
478,305,70007,6,0,B|443:277|412:286|412:286|355:335,1,110,6|8,3:0|0:0,0:0:0:0:
321,358,70641,1,2,3:0:0:0:
321,358,70852,2,0,P|306:321|315:282,1,55,6|4,3:0|3:0,0:0:0:0:
342,238,71275,1,8,0:0:0:0:
273,100,71697,6,0,P|336:98|394:89,1,110,6|8,3:0|0:0,0:0:0:0:
444,45,72331,1,2,3:0:0:0:
444,45,72542,2,0,P|457:69|458:101,1,55,6|4,3:0|0:3,0:0:0:0:
416,160,72965,2,0,P|407:194|418:239,1,55,8|2,0:0|0:0,0:0:0:0:
468,261,73388,6,0,P|427:290|352:266,2,110,6|6|6,3:0|3:0|3:0,0:0:0:0:
360,371,74655,1,8,0:0:0:0:
220,304,75078,6,0,P|228:248|239:168,1,110,6|8,3:0|0:0,0:0:0:0:
293,144,75712,1,2,0:0:0:0:
293,144,75923,2,0,P|242:137|177:130,1,110,6|8,3:0|0:0,0:0:0:0:
137,68,76557,1,2,0:0:0:0:
137,68,76768,6,0,P|128:127|117:208,2,110,6|6|6,3:0|3:0|3:0,0:0:0:0:
13,159,78035,1,8,0:0:0:0:
60,305,78458,5,6,3:0:0:0:
60,305,78669,2,0,P|112:274|170:294,1,110,4|2,3:0|0:0,0:0:0:0:
224,323,79303,2,0,P|234:299|233:268,1,55,6|6,3:0|3:0,0:0:0:0:
185,210,79726,2,0,P|174:177|184:138,1,55,6|2,3:0|0:0,0:0:0:0:
215,91,80148,5,2,0:0:0:0:
347,170,80571,1,2,0:0:0:0:
451,56,80993,1,2,0:0:0:0:
