osu file format v14

[General]
AudioFilename: audio.mp3
AudioLeadIn: 0
PreviewTime: 54983
Countdown: 0
SampleSet: Soft
StackLeniency: 0.7
Mode: 0
LetterboxInBreaks: 0
WidescreenStoryboard: 0

[Editor]
DistanceSpacing: 0.5
BeatDivisor: 4
GridSize: 8
TimelineZoom: 2.3

[Metadata]
Title:Charles (Arrange ver.)
TitleUnicode:シャルル (Arrange ver.)
Artist:Hanabasami Kyo
ArtistUnicode:花鋏キョウ
Creator:Asuka_-
Version:Insane
Source:
Tags:バルーン balloon vocaloid Vtuber syaruru re:act ハサミウタ hasami_uta hypercyte hypercute dkblaze japanese novelty 歌ってみた sharuru
BeatmapID:2096832
BeatmapSetID:1001673

[Difficulty]
HPDrainRate:6
CircleSize:4.2
OverallDifficulty:7
ApproachRate:9.3
SliderMultiplier:1.7
SliderTickRate:1

[Events]
//Background and Video events
0,0,"maxresdefault.jpg",0,0
//Break Periods
//Storyboard Layer 0 (Background)
//Storyboard Layer 1 (Fail)
//Storyboard Layer 2 (Pass)
//Storyboard Layer 3 (Foreground)
//Storyboard Layer 4 (Overlay)
//Storyboard Sound Samples

[TimingPoints]
712,422.535211267606,4,2,1,60,1,0
712,-142.857142857143,4,2,1,60,0,0
12542,-100,4,2,1,60,0,0
14233,-125,4,2,1,70,0,0
27754,-142.857142857143,4,2,1,60,0,0
34514,-142.857142857143,4,2,1,70,0,0
41275,-111.111111111111,4,2,1,60,0,0
43282,-111.111111111111,4,2,1,5,0,0
43388,-111.111111111111,4,2,1,60,0,0
43704,-111.111111111111,4,2,1,5,0,0
43810,-111.111111111111,4,2,1,60,0,0
44127,-111.111111111111,4,2,1,5,0,0
44233,-111.111111111111,4,2,1,60,0,0
44550,-111.111111111111,4,2,1,5,0,0
44655,-111.111111111111,4,2,1,60,0,0
52895,-111.111111111111,4,2,1,75,0,0
54796,-250,4,2,1,95,0,1
55219,-66.6666666666667,4,2,1,95,0,1
55641,-250,4,2,1,95,0,1
56064,-66.6666666666667,4,2,1,95,0,1
56486,-76.9230769230769,4,2,1,95,0,1
56909,-200,4,2,1,95,0,1
57331,-66.6666666666667,4,2,1,95,0,1
57754,-62.5,4,2,1,95,0,1
58176,-166.666666666667,4,2,1,95,0,1
58388,-111.111111111111,4,2,1,95,0,1
58599,-83.3333333333333,4,2,1,95,0,1
58810,-76.9230769230769,4,2,1,95,0,1
59021,-66.6666666666667,4,2,1,95,0,1
59444,-200,4,2,1,95,0,1
59866,-58.8235294117647,4,2,1,95,0,1
60289,-43.4782608695652,4,2,1,95,0,1
60712,-200,4,2,1,95,0,1
61134,-111.111111111111,4,2,1,95,0,1
61345,-83.3333333333333,4,2,1,95,0,1
61557,-66.6666666666667,4,2,1,95,0,1
61979,-200,4,2,1,95,0,1
62402,-66.6666666666667,4,2,1,95,0,1
62824,-200,4,2,1,95,0,1
63247,-66.6666666666667,4,2,1,95,0,1
63669,-52.6315789473684,4,2,1,95,0,1
64092,-200,4,2,1,95,0,1
64514,-111.111111111111,4,2,1,95,0,1
64726,-76.9230769230769,4,2,1,95,0,1
64937,-200,4,2,1,95,0,1
65571,-125,4,2,1,95,0,1
65782,-83.3333333333333,4,2,1,95,0,1
65993,-66.6666666666667,4,2,1,95,0,1
66204,-58.8235294117647,4,2,1,95,0,1
66416,-52.6315789473684,4,2,1,95,0,1
66627,-50,4,2,1,95,0,1
67050,-45.4545454545455,4,2,1,95,0,1
67472,-41.6666666666667,4,2,1,95,0,1
67895,-40,4,2,1,95,0,1
68317,-200,4,2,1,95,0,1
68740,-66.6666666666667,4,2,1,95,0,1
69162,-200,4,2,1,95,0,1
69585,-66.6666666666667,4,2,1,95,0,1
70007,-76.9230769230769,4,2,1,95,0,1
70430,-200,4,2,1,95,0,1
70852,-66.6666666666667,4,2,1,95,0,1
71697,-200,4,2,1,95,0,1
71909,-125,4,2,1,95,0,1
72120,-90.9090909090909,4,2,1,95,0,1
72331,-76.9230769230769,4,2,1,95,0,1
72542,-66.6666666666667,4,2,1,95,0,1
72965,-200,4,2,1,95,0,1
73388,-66.6666666666667,4,2,1,95,0,1
73810,-47.6190476190476,4,2,1,95,0,1
74233,-200,4,2,1,95,0,1
74655,-125,4,2,1,95,0,1
74866,-100,4,2,1,95,0,1
75078,-66.6666666666667,4,2,1,95,0,1
75500,-200,4,2,1,95,0,1
75923,-66.6666666666667,4,2,1,95,0,1
76345,-200,4,2,1,95,0,1
76768,-52.6315789473684,4,2,1,95,0,1
77190,-45.4545454545455,4,2,1,95,0,1
77824,-200,4,2,1,95,0,1
78035,-125,4,2,1,95,0,1
78247,-90.9090909090909,4,2,1,95,0,1
78458,-100,4,2,1,95,0,1
80148,-100,4,2,1,95,0,0

[Colours]
Combo1 : 150,150,203
Combo2 : 255,171,87

[HitObjects]
70,72,712,6,0,L|79:33,4,29.7499990921021,2|2|2|2|2,3:0|0:0|0:0|0:0|0:0,0:0:0:0:
40,187,1557,1,0,3:0:0:0:
182,137,1768,1,2,0:0:0:0:
70,152,1979,1,2,0:0:0:0:
143,173,2190,1,2,0:0:0:0:
84,309,2402,6,0,L|89:351,4,29.7499990921021,2|2|2|2|2,3:0|0:0|0:0|0:0|0:0,0:0:0:0:
218,179,3141,1,0,3:0:0:0:
217,186,3247,1,2,0:0:0:0:
192,348,3458,1,2,0:0:0:0:
203,232,3669,1,2,0:0:0:0:
217,312,3881,1,2,0:0:0:0:
338,247,4092,6,0,L|331:292,4,29.7499990921021,2|2|2|2|2,3:0|0:0|0:0|0:0|0:0,0:0:0:0:
419,200,4726,1,0,3:0:0:0:
285,163,4937,2,0,P|281:93|327:53,1,118.999996368408,2|2,0:0|0:0,0:0:0:0:
416,18,5571,1,2,0:0:0:0:
459,133,5782,6,0,L|471:89,4,29.7499990921021,2|2|2|2|2,3:0|0:0|0:0|0:0|0:0,0:0:0:0:
383,334,6838,1,2,0:0:0:0:
249,290,7261,1,2,0:0:0:0:
153,346,7472,5,6,3:0:0:0:
152,329,7578,1,0,3:0:0:0:
151,313,7683,1,0,3:0:0:0:
218,204,7895,1,0,3:0:0:0:
114,95,8106,1,0,3:0:0:0:
127,108,8212,2,0,L|208:99,1,59.4999981842042,0|0,3:0|3:0,0:0:0:0:
287,89,8528,2,0,L|341:81,1,29.7499990921021,2|2,0:0|0:0,0:0:0:0:
420,71,8740,1,2,0:0:0:0:
315,191,8951,1,2,0:0:0:0:
458,191,9162,6,0,L|452:243,1,29.7499990921021,6|2,3:0|0:0,0:0:0:0:
337,284,9373,2,0,L|388:291,1,29.7499990921021,2|2,0:0|0:0,0:0:0:0:
431,379,9585,1,2,3:0:0:0:
256,370,9796,1,4,3:0:0:0:
242,368,9902,1,0,3:0:0:0:
228,366,10007,1,10,0:0:0:0:
239,271,10219,1,2,0:0:0:0:
141,262,10430,1,2,0:0:0:0:
130,357,10641,1,2,0:0:0:0:
51,221,10852,6,0,L|43:252,4,29.7499990921021,2|2|2|2|2,3:0|0:0|0:0|0:0|0:0,0:0:0:0:
17,136,11486,1,0,3:0:0:0:
32,132,11592,1,0,3:0:0:0:
47,128,11697,1,10,0:0:0:0:
209,231,11909,1,2,0:0:0:0:
181,226,12014,1,2,0:0:0:0:
154,221,12120,1,2,0:0:0:0:
208,30,12331,1,2,0:0:0:0:
244,23,12437,1,2,0:0:0:0:
281,17,12542,6,0,L|272:122,1,85,6|2,0:3|0:0,0:0:0:0:
355,50,12859,1,0,3:0:0:0:
364,64,12965,2,0,L|354:161,1,85,8|0,0:0|3:0,0:0:0:0:
473,269,13388,1,2,3:0:0:0:
431,241,13493,1,0,3:0:0:0:
383,266,13599,1,0,3:0:0:0:
327,264,13704,1,0,3:0:0:0:
278,233,13810,1,0,3:0:0:0:
461,133,14021,1,2,0:0:0:0:
357,368,14233,6,0,L|243:353,1,102,6|0,3:0|0:0,0:0:0:0:
181,326,14655,2,0,L|177:277,1,34,2|0,0:0|0:0,0:0:0:0:
269,234,14866,1,2,0:0:0:0:
112,150,15078,2,0,L|207:138,1,68,8|0,0:0|0:0,0:0:0:0:
358,91,15500,1,2,0:0:0:0:
269,234,15712,1,0,3:0:0:0:
112,150,15923,5,2,0:0:0:0:
115,166,16028,1,2,0:0:0:0:
118,182,16134,1,2,0:0:0:0:
121,198,16240,1,2,0:0:0:0:
125,214,16345,1,2,0:0:0:0:
102,49,16557,1,0,3:0:0:0:
102,49,16662,1,0,3:0:0:0:
102,49,16768,1,10,0:0:0:0:
223,119,16979,1,2,0:0:0:0:
125,214,17190,2,0,L|55:206,1,68,2|0,0:0|0:0,0:0:0:0:
147,338,17613,5,2,0:0:0:0:
164,336,17719,1,2,0:0:0:0:
180,334,17824,1,2,0:0:0:0:
196,331,17930,1,2,0:0:0:0:
212,328,18035,1,2,0:0:0:0:
385,278,18247,1,2,0:0:0:0:
381,310,18352,1,2,0:0:0:0:
377,341,18458,2,0,L|282:326,1,68,8|0,0:0|0:0,0:0:0:0:
488,197,18881,2,0,L|476:285,1,68,2|0,3:0|0:0,0:0:0:0:
251,201,19303,5,2,0:0:0:0:
250,183,19409,1,2,0:0:0:0:
249,166,19514,1,2,0:0:0:0:
246,145,19620,1,2,0:0:0:0:
245,127,19726,1,2,0:0:0:0:
351,211,19937,1,0,3:0:0:0:
168,278,20148,1,2,0:3:0:0:
314,355,20359,1,8,0:0:0:0:
84,243,20571,2,0,L|76:306,2,45.3333333333333,2|2|2,0:0|0:0|0:0,0:0:0:0:
105,101,20993,5,6,0:0:0:0:
88,104,21099,1,2,0:0:0:0:
71,106,21204,1,2,0:0:0:0:
54,109,21310,1,2,0:0:0:0:
37,110,21416,1,2,0:0:0:0:
194,14,21627,1,0,3:0:0:0:
292,196,21838,2,0,L|307:104,1,68,8|0,0:0|0:0,0:0:0:0:
176,344,22261,2,0,L|168:277,1,68,0|0,3:0|0:0,0:0:0:0:
373,362,22683,5,2,0:0:0:0:
356,358,22789,1,2,0:0:0:0:
339,354,22895,1,2,0:0:0:0:
322,350,23000,1,2,0:0:0:0:
305,345,23106,1,2,0:0:0:0:
482,174,23317,1,0,3:0:0:0:
396,273,23528,1,8,0:0:0:0:
287,191,23740,1,2,0:0:0:0:
173,249,23951,2,0,L|164:168,1,68,2|0,0:0|0:0,0:0:0:0:
70,24,24373,5,2,0:0:0:0:
70,41,24479,1,2,0:0:0:0:
69,58,24585,1,2,0:0:0:0:
69,74,24690,1,2,0:0:0:0:
69,91,24796,1,2,0:0:0:0:
284,49,25007,1,2,0:0:0:0:
243,24,25113,1,2,0:0:0:0:
199,39,25219,2,0,P|185:64|187:111,1,68,8|0,0:0|0:0,0:0:0:0:
348,236,25641,2,0,L|336:151,1,68,2|0,3:0|0:0,0:0:0:0:
209,353,26064,5,2,0:0:0:0:
225,350,26169,1,2,0:0:0:0:
242,348,26275,1,2,0:0:0:0:
258,345,26381,1,2,0:0:0:0:
274,342,26486,1,2,0:0:0:0:
113,277,26697,1,2,0:0:0:0:
253,160,26909,1,0,3:0:0:0:
207,254,27120,1,2,3:0:0:0:
100,117,27331,1,0,0:0:0:0:
253,160,27542,1,0,0:0:0:0:
166,172,27754,6,0,L|156:219,3,29.7499990921021,2|2|2|2,3:0|3:0|3:0|0:0,0:0:0:0:
162,155,28176,1,2,3:0:0:0:
259,26,28493,1,0,3:0:0:0:
273,36,28599,2,0,L|350:27,1,59.4999981842042,8|2,0:0|0:0,0:0:0:0:
483,149,29021,1,2,0:0:0:0:
398,94,29233,1,2,0:0:0:0:
316,165,29444,6,0,L|299:122,3,29.7499990921021,2|2|2|2,3:0|3:0|3:0|0:0,0:0:0:0:
312,180,29866,1,0,3:0:0:0:
171,344,30183,1,2,0:0:0:0:
181,336,30289,1,8,0:0:0:0:
216,265,30500,1,2,0:0:0:0:
140,206,30712,1,2,0:0:0:0:
224,125,30923,1,2,0:0:0:0:
108,77,31134,6,0,L|115:43,3,29.7499990921021,6|2|2|2,3:0|3:0|3:0|0:0,0:0:0:0:
97,89,31557,1,0,3:0:0:0:
140,206,31768,1,0,3:0:0:0:
58,291,31979,2,0,L|-8:280,1,59.4999981842042,10|0,0:0|0:0,0:0:0:0:
157,194,32402,1,2,0:0:0:0:
73,301,32613,1,2,0:0:0:0:
204,335,32824,2,0,L|199:365,3,29.7499990921021,6|2|2|2,3:0|3:0|3:0|0:0,0:0:0:0:
214,324,33247,1,0,3:0:0:0:
345,355,33458,1,4,3:0:0:0:
345,355,33881,6,0,B|384:312|384:312|405:375,1,118.999996368408,2|2,0:0|0:0,0:0:0:0:
481,172,34514,6,0,L|439:157,1,29.7499990921021,6|0,3:0|0:0,0:0:0:0:
303,209,34726,2,0,L|296:162,1,29.7499990921021,2|0,0:0|0:0,0:0:0:0:
179,99,34937,1,0,3:0:0:0:
315,34,35148,5,6,0:3:0:0:
329,57,35254,2,0,L|293:81,1,29.7499990921021,0|0,3:0|0:0,0:0:0:0:
303,209,35465,1,2,0:0:0:0:
287,237,35571,2,0,L|238:222,1,29.7499990921021,2|0,0:0|0:0,0:0:0:0:
142,327,35782,1,2,3:0:0:0:
79,191,35993,5,0,3:0:0:0:
97,174,36099,1,0,3:0:0:0:
120,166,36204,2,0,L|110:222,1,29.7499990921021,6|0,3:0|0:0,0:0:0:0:
258,228,36416,2,0,L|221:255,1,29.7499990921021,0|0,3:0|0:0,0:0:0:0:
281,383,36627,2,0,L|241:372,1,29.7499990921021,2|0,0:0|0:0,0:0:0:0:
142,327,36838,1,4,3:0:0:0:
331,180,37050,5,8,0:0:0:0:
233,245,37261,2,0,L|276:219,1,29.7499990921021,2|0,3:0|0:0,0:0:0:0:
344,65,37472,2,0,L|338:117,1,29.7499990921021,2|0,3:0|0:0,0:0:0:0:
425,257,37683,2,0,L|383:226,1,29.7499990921021,2|0,3:0|0:0,0:0:0:0:
345,195,37895,5,2,3:0:0:0:
345,195,38000,1,0,3:0:0:0:
345,195,38106,1,2,3:0:0:0:
345,195,38212,1,0,3:0:0:0:
345,195,38317,1,2,3:0:0:0:
314,279,38528,1,6,0:3:0:0:
250,68,38740,5,10,0:0:0:0:
159,124,38951,1,2,0:0:0:0:
159,124,39057,1,2,0:0:0:0:
159,124,39162,1,2,0:0:0:0:
60,84,39373,1,2,0:0:0:0:
60,84,39479,1,2,0:0:0:0:
60,84,39585,2,0,L|53:36,3,29.7499990921021,6|2|2|2,3:0|3:0|3:0|3:0,0:0:0:0:
55,107,40007,1,4,3:0:0:0:
81,224,40219,1,2,0:0:0:0:
35,338,40430,5,0,3:0:0:0:
186,267,40641,1,2,3:0:0:0:
81,224,40852,1,10,0:0:0:0:
159,382,41064,1,10,0:0:0:0:
146,166,41275,6,0,P|185:113|289:138,1,152.999995330811,6|0,3:0|0:0,0:0:0:0:
326,37,41909,1,2,0:0:0:0:
389,180,42120,2,0,L|422:21,1,152.999995330811,8|0,0:0|0:0,0:0:0:0:
326,37,42754,1,2,0:0:0:0:
227,208,42965,6,0,P|169:215|131:178,1,114.749996498108,2|0,0:0|0:0,0:0:0:0:
38,217,43388,6,0,P|77:174|130:178,1,114.749996498108,0|0,3:0|0:0,0:0:0:0:
142,78,43810,6,0,P|158:133|129:177,1,114.749996498108,8|0,0:0|0:0,0:0:0:0:
227,208,44233,6,0,P|169:215|131:178,1,114.749996498108,0|0,3:0|0:0,0:0:0:0:
104,306,44655,5,2,0:0:0:0:
117,304,44761,1,2,0:0:0:0:
128,302,44866,1,2,0:0:0:0:
138,301,44972,1,2,0:0:0:0:
148,299,45078,1,2,0:0:0:0:
229,337,45289,1,0,3:0:0:0:
319,309,45500,1,8,0:0:0:0:
411,354,45712,1,0,3:0:0:0:
503,304,45923,1,0,3:0:0:0:
486,190,46134,1,0,3:0:0:0:
363,108,46345,5,8,0:0:0:0:
233,227,46768,5,8,0:0:0:0:
338,377,47190,5,8,0:0:0:0:
338,377,47402,5,0,3:0:0:0:
233,227,47613,1,0,3:0:0:0:
363,108,47824,1,8,0:0:0:0:
209,307,48035,6,0,L|198:147,1,152.999995330811,2|0,0:0|0:0,0:0:0:0:
99,173,48669,1,2,0:0:0:0:
32,35,48881,2,0,P|85:82|160:58,1,152.999995330811,8|0,0:0|0:0,0:0:0:0:
222,1,49514,1,0,3:0:0:0:
271,163,49726,5,2,0:0:0:0:
283,161,49831,1,2,0:0:0:0:
295,159,49937,1,2,0:0:0:0:
306,158,50042,1,2,0:0:0:0:
317,156,50148,1,2,0:0:0:0:
404,208,50359,1,6,3:0:0:0:
490,56,50571,2,0,L|476:141,1,76.4999976654053,8|0,0:0|0:0,0:0:0:0:
399,276,50993,2,0,L|388:178,1,76.4999976654053,0|0,3:0|0:0,0:0:0:0:
502,365,51416,5,2,0:0:0:0:
471,348,51521,1,2,0:0:0:0:
430,345,51627,1,2,0:0:0:0:
396,358,51733,1,2,0:0:0:0:
369,382,51838,1,2,0:0:0:0:
503,269,52050,1,0,3:0:0:0:
304,222,52261,1,8,0:0:0:0:
499,153,52472,1,0,3:0:0:0:
381,348,52683,1,0,3:0:0:0:
271,133,52895,6,0,L|256:285,1,152.999995330811,6|8,3:0|0:0,0:0:0:0:
221,34,53528,1,8,0:0:0:0:
355,102,53740,1,8,0:0:0:0:
355,102,53845,1,8,0:0:0:0:
355,102,53951,1,10,0:0:0:0:
184,165,54162,1,0,3:0:0:0:
360,236,54373,1,0,3:0:0:0:
161,314,54585,1,0,3:0:0:0:
2,136,54796,6,0,L|0:106,1,17,2|2,3:0|0:0,0:0:0:0:
86,1,55007,2,0,L|82:30,1,17,6|0,3:0|0:0,0:0:0:0:
43,225,55219,2,0,P|86:200|168:244,1,127.500004863739,8|0,0:0|0:0,0:0:0:0:
161,314,55535,1,4,3:0:0:0:
176,327,55641,2,0,L|207:319,1,17,6|4,3:0|0:3,0:0:0:0:
250,171,55852,2,0,L|276:183,1,17,4|0,3:0|0:0,0:0:0:0:
347,379,56064,2,0,L|365:222,1,127.500004863739,10|0,0:0|0:0,0:0:0:0:
446,281,56381,1,0,3:0:0:0:
458,272,56486,6,0,L|470:156,1,110.499994941712,6|0,3:0|0:0,0:0:0:0:
446,18,56803,1,0,3:0:0:0:
432,30,56909,2,0,L|396:18,1,21.25,8|0,0:0|0:0,0:0:0:0:
323,154,57120,2,0,L|302:135,1,21.25,2|0,0:0|0:0,0:0:0:0:
190,7,57331,6,0,L|168:164,1,127.500004863739,6|4,3:0|0:3,0:0:0:0:
85,31,57648,1,2,3:0:0:0:
80,39,57754,2,0,L|60:188,1,136,8|0,0:0|3:0,0:0:0:0:
49,328,58071,1,0,3:0:0:0:
56,316,58176,6,0,L|95:309,1,25.4999992218018,6|0,3:0|0:0,0:0:0:0:
144,223,58388,2,0,L|173:282,1,38.2499988327027,6|0,3:0|0:0,0:0:0:0:
233,371,58599,2,0,L|257:316,1,50.9999984436036,10|0,0:0|0:0,0:0:0:0:
385,274,58810,2,0,L|343:213,1,55.2499974708558,4|4,3:0|0:3,0:0:0:0:
290,45,59021,6,0,P|252:86|285:169,1,127.500004863739,6|2,3:0|0:0,0:0:0:0:
387,59,59338,1,2,0:0:0:0:
404,65,59444,2,0,L|436:57,1,21.25,8|0,0:0|0:0,0:0:0:0:
490,159,59655,2,0,L|457:152,1,21.25,2|0,0:0|0:0,0:0:0:0:
289,45,59866,6,0,P|197:19|145:115,1,216.750004134178,6|0,3:0|0:0,0:0:0:0:
82,158,60289,6,0,P|84:60|224:111,1,293.2500055933,10|4,0:0|0:3,0:0:0:0:
194,187,60712,5,6,3:0:0:0:
180,192,60817,1,4,3:0:0:0:
167,198,60923,2,0,L|158:233,1,21.25,4|0,3:0|0:0,0:0:0:0:
159,350,61134,2,0,L|213:338,1,38.2499988327027,8|0,0:0|0:0,0:0:0:0:
333,266,61345,2,0,L|272:250,1,50.9999984436036,2|0,3:0|0:0,0:0:0:0:
144,110,61557,6,0,P|188:137|271:119,1,127.500004863739,6|0,3:0|0:0,0:0:0:0:
293,7,61873,1,2,3:0:0:0:
307,20,61979,2,0,L|301:47,1,21.25,8|0,0:0|0:0,0:0:0:0:
373,185,62190,2,0,L|366:157,1,21.25,2|4,3:0|0:3,0:0:0:0:
471,15,62402,6,0,L|449:161,1,127.500004863739,6|4,3:0|0:3,0:0:0:0:
478,314,62719,1,2,0:0:0:0:
467,321,62824,2,0,L|435:310,1,21.25,8|0,0:0|0:0,0:0:0:0:
367,164,63035,2,0,L|334:181,1,21.25,2|0,3:0|0:0,0:0:0:0:
245,357,63247,6,0,B|217:324|223:264|223:264|201:318|139:328,1,191.250007295609,6|0,3:0|0:0,0:0:0:0:
309,290,63669,2,0,P|271:196|138:237,1,242.249993531227,8|4,0:0|0:3,0:0:0:0:
69,259,64092,5,4,3:0:0:0:
73,269,64197,1,4,3:0:0:0:
79,279,64303,2,0,L|87:253,1,21.25,4|0,3:0|0:0,0:0:0:0:
17,136,64514,2,0,L|24:177,1,38.2499988327027,8|0,0:0|0:0,0:0:0:0:
163,31,64726,2,0,L|152:96,1,55.2499974708558,2|0,3:0|0:0,0:0:0:0:
0,14,64937,5,6,3:0:0:0:
145,182,65148,1,2,0:0:0:0:
166,177,65254,1,2,0:0:0:0:
188,170,65359,2,0,L|182:204,1,21.25,8|0,0:0|0:0,0:0:0:0:
118,329,65571,2,0,L|111:284,1,34,2|4,0:0|0:3,0:0:0:0:
19,171,65782,6,0,L|9:241,1,50.9999984436036,6|4,3:0|0:3,0:0:0:0:
118,329,65993,2,0,L|104:256,1,63.7500024318696,4|0,3:0|0:0,0:0:0:0:
197,119,66204,2,0,L|179:213,1,72.2500013780594,8|0,0:0|0:0,0:0:0:0:
310,348,66416,2,0,L|284:244,1,80.7499978437424,2|0,3:0|0:0,0:0:0:0:
442,92,66627,6,0,L|418:281,1,170,6|2,3:0|0:0,0:0:0:0:
86,92,67050,6,0,L|111:284,1,187.000005706787,6|0,3:0|0:0,0:0:0:0:
455,81,67472,6,0,L|426:308,1,203.999993774414,6|0,3:0|0:0,0:0:0:0:
72,76,67895,6,0,L|100:295,1,212.5,2|0,3:0|0:0,0:0:0:0:
151,364,68212,5,2,0:0:0:0:
170,365,68317,2,0,L|177:329,1,21.25,6|0,3:0|0:0,0:0:0:0:
351,310,68528,2,0,L|339:275,1,21.25,2|2,3:0|0:0,0:0:0:0:
167,170,68740,2,0,P|215:208|280:182,1,127.500004863739,8|0,0:0|0:0,0:0:0:0:
357,108,69057,1,4,3:0:0:0:
363,96,69162,6,0,L|404:100,1,21.25,6|4,3:0|0:3,0:0:0:0:
471,256,69373,2,0,L|440:262,1,21.25,4|0,0:3|0:0,0:0:0:0:
353,7,69585,2,0,L|485:18,1,127.500004863739,8|2,0:0|0:0,0:0:0:0:
363,96,69902,1,2,3:0:0:0:
368,107,70007,6,0,L|251:96,1,110.499994941712,6|0,3:0|3:0,0:0:0:0:
179,15,70324,1,2,0:0:0:0:
167,23,70430,2,0,L|161:47,1,21.25,8|0,0:0|0:0,0:0:0:0:
0,71,70641,2,0,L|5:91,1,21.25,2|4,3:0|0:3,0:0:0:0:
195,251,70852,6,0,P|121:241|79:296,1,127.500004863739,6|4,3:0|3:0,0:0:0:0:
92,355,71169,1,2,3:0:0:0:
104,364,71275,2,0,P|178:374|220:319,1,127.500004863739,8|0,0:0|0:0,0:0:0:0:
284,265,71592,1,0,3:0:0:0:
294,280,71697,6,0,L|287:307,1,21.25,6|0,3:0|0:0,0:0:0:0:
398,356,71909,2,0,L|388:304,1,34,6|0,3:0|0:0,0:0:0:0:
473,225,72120,2,0,L|406:214,1,46.7500014266968,8|0,0:0|0:0,0:0:0:0:
247,131,72331,2,0,L|314:120,1,55.2499974708558,2|4,3:0|0:3,0:0:0:0:
469,0,72542,6,0,P|504:56|475:121,1,127.500004863739,6|4,3:0|0:3,0:0:0:0:
392,36,72859,1,2,3:0:0:0:
382,44,72965,2,0,L|355:32,1,21.25,8|0,0:0|0:0,0:0:0:0:
247,131,73176,2,0,L|231:97,1,21.25,2|0,0:0|0:0,0:0:0:0:
83,4,73388,6,0,L|66:223,1,191.250007295609,6|0,3:0|0:0,0:0:0:0:
0,168,73810,6,0,P|117:137|104:255,1,267.749991828919,6|4,3:0|0:3,0:0:0:0:
29,257,74233,5,6,3:0:0:0:
33,267,74338,1,4,3:0:0:0:
39,276,74444,2,0,L|28:313,1,21.25,6|0,3:0|0:0,0:0:0:0:
183,379,74655,2,0,L|174:335,1,34,8|0,0:0|0:0,0:0:0:0:
300,199,74866,2,0,L|286:250,1,42.5,2|0,3:0|0:0,0:0:0:0:
446,379,75078,6,0,P|484:328|466:259,1,127.500004863739,6|2,3:0|0:0,0:0:0:0:
412,180,75395,1,2,3:0:0:0:
402,193,75500,2,0,L|366:183,1,21.25,8|0,0:0|0:0,0:0:0:0:
295,338,75712,2,0,L|330:331,1,21.25,2|4,0:0|0:3,0:0:0:0:
243,99,75923,6,0,P|207:143|231:227,1,127.500004863739,6|4,3:0|3:0,0:0:0:0:
316,158,76240,1,2,0:0:0:0:
306,172,76345,2,0,L|285:169,1,21.25,8|0,0:0|0:0,0:0:0:0:
129,83,76557,2,0,L|97:89,1,21.25,2|0,0:0|0:0,0:0:0:0:
0,295,76768,6,0,P|99:252|158:353,1,242.249993531227,6|0,3:0|0:0,0:0:0:0:
69,335,77190,6,0,P|188:266|247:373,1,280.500008560181,6|4,3:0|0:3,0:0:0:0:
328,378,77613,5,6,3:0:0:0:
339,375,77719,1,6,3:0:0:0:
352,370,77824,2,0,L|360:341,1,21.25,6|0,3:0|0:0,0:0:0:0:
461,272,78035,2,0,L|435:240,1,34,8|0,0:0|0:0,0:0:0:0:
499,127,78247,2,0,L|434:106,1,46.7500014266968,2|0,3:0|0:0,0:0:0:0:
392,0,78458,5,6,3:0:0:0:
156,84,78669,1,4,3:0:0:0:
336,136,78881,1,8,0:0:0:0:
280,0,79092,1,2,0:0:0:0:
136,234,79303,5,6,3:0:0:0:
173,203,79409,1,6,3:0:0:0:
224,193,79514,1,6,3:0:0:0:
274,217,79620,1,6,3:0:0:0:
300,271,79726,1,6,3:0:0:0:
213,284,79937,1,2,0:0:0:0:
414,154,80148,5,2,0:0:0:0:
284,384,80571,5,2,0:0:0:0:
436,310,80993,5,2,0:0:0:0:
