osu file format v14

[General]
AudioFilename: audio.mp3
AudioLeadIn: 0
PreviewTime: 118839
Countdown: 0
SampleSet: Normal
StackLeniency: 0.7
Mode: 1
LetterboxInBreaks: 0
WidescreenStoryboard: 1

[Editor]
Bookmarks: 775,18194,25936,33678,49162,64645,80129,95613,103355,111097,118839,136137,149807,167226,174968,185129,198678
DistanceSpacing: 0.5
BeatDivisor: 4
GridSize: 32
TimelineZoom: 0.9999996

[Metadata]
Title:Ariadne
TitleUnicode:アリアドネ
Artist:Hana to Onyx
ArtistUnicode:はなとオニキス
Creator:gaston_2199
Version:Shoshinsha
Source:
Tags:japanese j-rock rock jrock BLACK×WHITE BLACK × WHITE forest 黒うさP Kurousa P 倉内達矢 Kurauchi Tatsuya WhiteFlame vocaloid cover 初音ミク hatsune miku usa うさ 月岡月穂 月岡 マクー gram6design
BeatmapID:2722766
BeatmapSetID:1255970

[Difficulty]
HPDrainRate:9
CircleSize:2
OverallDifficulty:2
ApproachRate:10
SliderMultiplier:1.4
SliderTickRate:1

[Events]
//Background and Video events
0,0,"BG.jpg",0,80
Video,-1250,"TaikoVideo.mp4"
//Break Periods
//Storyboard Layer 0 (Background)
//Storyboard Layer 1 (Fail)
//Storyboard Layer 2 (Pass)
//Storyboard Layer 3 (Foreground)
//Storyboard Layer 4 (Overlay)
//Storyboard Sound Samples

[TimingPoints]
775,241.935483870968,4,1,0,90,1,0
775,-125,4,1,0,90,0,0
2704,-125,4,1,0,80,0,0
14801,-125,4,1,0,70,0,0
16252,-125,4,1,0,90,0,0
17220,-125,4,1,0,70,0,0
18188,-125,4,1,0,90,0,0
35610,-125,4,1,0,80,0,0
37546,-125,4,1,0,90,0,0
39481,-125,4,1,0,80,0,0
49156,-125,4,1,0,70,0,0
62704,-125,4,1,0,90,0,0
64645,-125,4,1,0,100,0,1
80129,-125,4,1,0,90,0,0
87865,-125,4,1,0,80,0,0
88591,-125,4,1,0,70,0,0
91736,-125,4,1,0,80,0,0
92704,-125,4,1,0,70,0,0
93672,-125,4,1,0,80,0,0
115446,-125,4,1,0,70,0,0
116898,-125,4,1,0,90,0,0
118839,-125,4,1,0,100,0,1
134323,-125,4,1,0,90,0,0
149801,-125,4,1,0,70,0,0
151739,-125,4,1,0,80,0,0
152707,-125,4,1,0,70,0,0
155126,-125,4,1,0,80,0,0
156578,-125,4,1,0,70,0,0
161898,-125,4,1,0,90,0,0
162381,-125,4,1,0,70,0,0
162865,-125,4,1,0,90,0,0
163352,-125,4,1,0,70,0,0
165288,-125,4,1,0,90,0,0
167220,-125,4,1,0,80,0,0
181742,241.935483870968,6,1,0,80,1,0
181742,-125,4,1,0,80,0,0
183193,241.935483870968,4,1,0,90,1,0
183193,-125,6,1,0,90,0,0
185128,-125,4,1,0,100,0,1
198676,-125,4,1,0,90,0,0
212225,-125,4,1,0,70,0,0
214159,-125,4,1,0,80,0,0

[HitObjects]
256,192,775,5,12,0:0:0:0:
256,192,2226,1,0,0:0:0:0:
256,192,2710,1,8,0:0:0:0:
256,192,3678,1,0,0:0:0:0:
416,32,4645,1,8,0:0:0:0:
320,96,6581,1,0,0:0:0:0:
96,96,7549,1,8,0:0:0:0:
128,192,8516,1,0,0:0:0:0:
352,160,10452,1,12,0:0:0:0:
352,160,11420,1,8,0:0:0:0:
288,96,12387,1,0,0:0:0:0:
288,96,13355,1,0,0:0:0:0:
288,96,14323,1,0,0:0:0:0:
288,96,15291,1,8,0:0:0:0:
288,96,15775,1,8,0:0:0:0:
288,96,16258,1,4,0:0:0:0:
288,128,18194,5,0,0:0:0:0:
288,96,19645,1,8,0:0:0:0:
288,96,20129,1,0,0:0:0:0:
195,15,21097,1,0,0:0:0:0:
320,128,21581,1,8,0:0:0:0:
320,128,22065,1,0,0:0:0:0:
288,96,23516,1,8,0:0:0:0:
288,96,24000,1,0,0:0:0:0:
207,50,25210,1,12,0:0:0:0:
288,128,25936,1,0,0:0:0:0:
288,96,27387,1,8,0:0:0:0:
288,96,27871,1,0,0:0:0:0:
195,34,28839,1,0,0:0:0:0:
320,128,29323,1,8,0:0:0:0:
320,128,29807,1,0,0:0:0:0:
288,96,31258,1,8,0:0:0:0:
288,96,31742,1,4,0:0:0:0:
224,64,33678,1,4,0:0:0:0:
384,224,35613,1,0,0:0:0:0:
352,160,36581,1,8,0:0:0:0:
352,160,37549,1,4,0:0:0:0:
320,96,39484,1,8,0:0:0:0:
320,96,40452,1,0,0:0:0:0:
320,96,41420,1,12,0:0:0:0:
288,96,43355,1,0,0:0:0:0:
288,96,44323,1,0,0:0:0:0:
288,96,45291,1,12,0:0:0:0:
256,64,47226,1,0,0:0:0:0:
256,64,48194,1,8,0:0:0:0:
256,64,49162,1,4,0:0:0:0:
256,64,51097,1,0,0:0:0:0:
256,64,53033,1,0,0:0:0:0:
256,64,54000,1,8,0:0:0:0:
256,64,54968,1,0,0:0:0:0:
256,64,56904,1,4,0:0:0:0:
288,96,58839,1,4,0:0:0:0:
224,64,60775,1,4,0:0:0:0:
224,64,61742,1,0,0:0:0:0:
224,64,62710,1,12,0:0:0:0:
384,64,64645,1,0,0:0:0:0:
320,96,65129,1,12,0:0:0:0:
320,96,66581,1,0,0:0:0:0:
320,96,67065,1,8,0:0:0:0:
320,96,67549,1,0,0:0:0:0:
320,96,68516,1,4,0:0:0:0:
288,96,69484,1,8,0:0:0:0:
288,96,70452,1,0,0:0:0:0:
162,104,70936,1,8,0:0:0:0:
288,96,72387,1,0,0:0:0:0:
288,96,72871,1,12,0:0:0:0:
288,96,74323,1,0,0:0:0:0:
288,96,74807,1,8,0:0:0:0:
261,69,75291,1,0,0:0:0:0:
288,96,76258,1,0,0:0:0:0:
256,96,77226,1,8,0:0:0:0:
256,96,78194,1,4,0:0:0:0:
157,133,79162,1,8,0:0:0:0:
256,32,80129,1,4,0:0:0:0:
288,64,81097,1,8,0:0:0:0:
288,64,82065,1,0,0:0:0:0:
288,64,83516,1,8,0:0:0:0:
288,64,84000,1,0,0:0:0:0:
288,64,84968,1,8,0:0:0:0:
288,64,85936,1,4,0:0:0:0:
224,224,87871,1,4,0:0:0:0:
219,22,89807,1,0,0:0:0:0:
288,160,91742,1,12,0:0:0:0:
288,128,93678,5,12,0:0:0:0:
288,128,94645,1,0,0:0:0:0:
320,96,95613,1,12,0:0:0:0:
288,96,97549,1,0,0:0:0:0:
288,96,98516,1,0,0:0:0:0:
288,96,99484,1,12,0:0:0:0:
256,64,101420,1,0,0:0:0:0:
256,64,102871,1,0,0:0:0:0:
256,64,103355,1,12,0:0:0:0:
256,96,105291,1,0,0:0:0:0:
256,96,107226,1,0,0:0:0:0:
256,96,108194,1,0,0:0:0:0:
288,64,109162,1,0,0:0:0:0:
256,64,111097,5,4,0:0:0:0:
288,96,113033,1,4,0:0:0:0:
224,64,114968,1,4,0:0:0:0:
224,64,115936,1,0,0:0:0:0:
224,64,116904,1,12,0:0:0:0:
384,64,118839,1,0,0:0:0:0:
320,96,119323,1,12,0:0:0:0:
320,96,120775,1,0,0:0:0:0:
320,96,121258,1,8,0:0:0:0:
244,60,121742,1,0,0:0:0:0:
320,96,122710,1,4,0:0:0:0:
288,96,123678,1,8,0:0:0:0:
288,96,124645,1,0,0:0:0:0:
288,96,125129,1,8,0:0:0:0:
288,96,126581,1,0,0:0:0:0:
288,96,127065,1,12,0:0:0:0:
288,96,128516,1,0,0:0:0:0:
288,96,129000,1,8,0:0:0:0:
261,69,129484,1,0,0:0:0:0:
288,96,130452,1,0,0:0:0:0:
256,96,131420,1,8,0:0:0:0:
256,96,132387,1,4,0:0:0:0:
181,76,133355,1,8,0:0:0:0:
256,32,134323,1,4,0:0:0:0:
256,32,136137,1,4,0:0:0:0:
256,32,137226,1,0,0:0:0:0:
256,32,138194,1,8,0:0:0:0:
184,57,139645,1,8,0:0:0:0:
256,32,140129,1,0,0:0:0:0:
256,32,141097,1,8,0:0:0:0:
256,32,142065,1,8,0:0:0:0:
184,61,143516,1,8,0:0:0:0:
256,32,144000,1,0,0:0:0:0:
256,96,144968,1,0,0:0:0:0:
256,96,145936,1,8,0:0:0:0:
197,81,147387,1,8,0:0:0:0:
256,64,147871,1,0,0:0:0:0:
256,64,149081,1,12,0:0:0:0:
256,64,149807,1,0,0:0:0:0:
256,96,151742,1,0,0:0:0:0:
256,96,152468,1,12,0:0:0:0:
256,96,153678,1,0,0:0:0:0:
256,64,155613,1,8,0:0:0:0:
256,64,156339,1,12,0:0:0:0:
256,64,157549,1,12,0:0:0:0:
224,64,159484,1,0,0:0:0:0:
224,64,160452,1,8,0:0:0:0:
224,64,161904,1,12,0:0:0:0:
224,64,162871,1,12,0:0:0:0:
224,64,163355,1,0,0:0:0:0:
256,192,165291,5,12,0:0:0:0:
256,192,166742,1,0,0:0:0:0:
256,192,167226,1,8,0:0:0:0:
256,192,168194,1,0,0:0:0:0:
416,32,169162,1,8,0:0:0:0:
256,160,171097,1,0,0:0:0:0:
192,64,172065,1,8,0:0:0:0:
352,224,173033,1,0,0:0:0:0:
256,128,174968,1,4,0:0:0:0:
224,96,175936,1,8,0:0:0:0:
224,96,176904,1,0,0:0:0:0:
145,106,177871,1,0,0:0:0:0:
224,96,178839,1,8,0:0:0:0:
224,96,179807,1,0,0:0:0:0:
224,96,180775,1,8,0:0:0:0:
224,96,181742,1,8,0:0:0:0:
224,96,183193,1,12,0:0:0:0:
320,96,185128,1,4,0:0:0:0:
287,86,186096,1,0,0:0:0:0:
320,96,186580,1,8,0:0:0:0:
320,96,187063,1,4,0:0:0:0:
288,96,188031,1,8,0:0:0:0:
288,96,188999,1,0,0:0:0:0:
288,96,189483,1,8,0:0:0:0:
288,96,190934,1,0,0:0:0:0:
288,96,191418,1,12,0:0:0:0:
288,96,192870,1,0,0:0:0:0:
288,96,193354,1,8,0:0:0:0:
261,69,193838,1,0,0:0:0:0:
288,96,194805,1,0,0:0:0:0:
256,96,195773,1,8,0:0:0:0:
256,96,196741,1,4,0:0:0:0:
177,124,197709,1,8,0:0:0:0:
236,24,198676,1,4,0:0:0:0:
288,96,199644,1,8,0:0:0:0:
288,96,200612,1,0,0:0:0:0:
270,260,201096,1,8,0:0:0:0:
270,260,201580,1,0,0:0:0:0:
320,128,202547,1,0,0:0:0:0:
288,96,203515,1,8,0:0:0:0:
288,96,204483,1,0,0:0:0:0:
248,58,205693,1,12,0:0:0:0:
288,128,206418,1,0,0:0:0:0:
288,96,207386,1,0,0:0:0:0:
288,96,207870,1,8,0:0:0:0:
288,96,208354,1,0,0:0:0:0:
320,128,209322,1,8,0:0:0:0:
320,128,210289,1,0,0:0:0:0:
288,96,211257,1,8,0:0:0:0:
288,96,211741,1,8,0:0:0:0:
288,96,212225,1,0,0:0:0:0:
288,96,214160,1,0,0:0:0:0:
288,96,215007,1,12,0:0:0:0:
