osu file format v14

[General]
AudioFilename: audio.mp3
AudioLeadIn: 0
PreviewTime: 118839
Countdown: 0
SampleSet: Normal
StackLeniency: 0.7
Mode: 1
LetterboxInBreaks: 0
WidescreenStoryboard: 1

[Editor]
Bookmarks: 775,18194,25936,33678,41420,49162,64645,80129,95613,103355,111097,118839,136137,149807,167226,174968,185129,198678
DistanceSpacing: 0.5
BeatDivisor: 4
GridSize: 32
TimelineZoom: 2.1

[Metadata]
Title:Ariadne
TitleUnicode:アリアドネ
Artist:Hana to Onyx
ArtistUnicode:はなとオニキス
Creator:gaston_2199
Version:Muzukashii
Source:
Tags:japanese j-rock rock jrock BLACK×WHITE BLACK × WHITE forest 黒うさP Kurousa P 倉内達矢 Kurauchi Tatsuya WhiteFlame vocaloid cover 初音ミク hatsune miku usa うさ 月岡月穂 月岡 マクー gram6design
BeatmapID:2721409
BeatmapSetID:1255970

[Difficulty]
HPDrainRate:6
CircleSize:2
OverallDifficulty:5
ApproachRate:10
SliderMultiplier:1.4
SliderTickRate:1

[Events]
//Background and Video events
0,0,"BG.jpg",0,80
Video,-1250,"TaikoVideo.mp4"
//Break Periods
//Storyboard Layer 0 (Background)
//Storyboard Layer 1 (Fail)
//Storyboard Layer 2 (Pass)
//Storyboard Layer 3 (Foreground)
//Storyboard Layer 4 (Overlay)
//Storyboard Sound Samples

[TimingPoints]
775,241.935483870968,4,1,0,90,1,0
1981,-106.060606060606,4,1,0,90,0,0
2223,-112.903225806452,4,1,0,90,0,0
2465,-116.666666666667,4,1,0,90,0,0
2704,-125,4,1,0,80,0,0
9720,-121.231224314134,4,1,0,80,0,0
10083,-115.985599228,4,1,0,80,0,0
10207,-114.336545046884,4,1,0,80,0,0
10446,-111.175098556725,4,1,0,80,0,0
14317,-111.111111111111,4,1,0,80,0,0
14801,-108.108108108108,4,1,0,70,0,0
15043,-106.666666666667,4,1,0,70,0,0
15285,-105.263157894737,4,1,0,70,0,0
15527,-103.896103896104,4,1,0,70,0,0
15769,-102.564102564103,4,1,0,70,0,0
16010,-101.26582278481,4,1,0,70,0,0
16252,-100,4,1,0,90,0,0
17220,-133.333333333333,4,1,0,70,0,0
18188,-100,4,1,0,90,0,0
35607,-110.856264875525,4,1,0,80,0,0
37543,-100,4,1,0,90,0,0
39478,-111.111111111111,4,1,0,80,0,0
47341,-111.886108892037,4,1,0,80,0,0
47462,-112.671993798533,4,1,0,80,0,0
47704,-114.27722512042,4,1,0,80,0,0
47946,-115.928991174326,4,1,0,80,0,0
48067,-116.772774194151,4,1,0,80,0,0
48188,-117.629068495407,4,1,0,80,0,0
48430,-119.379893083368,4,1,0,80,0,0
48672,-121.183477844631,4,1,0,80,0,0
48914,-123.042546882286,4,1,0,80,0,0
49156,-125,4,1,0,70,0,0
61252,-123.076923076923,4,1,0,70,0,0
61494,-121.212121212121,4,1,0,70,0,0
61736,-119.402985074627,4,1,0,70,0,0
61978,-117.647058823529,4,1,0,70,0,0
62220,-115.942028985507,4,1,0,70,0,0
62462,-112.676056338028,4,1,0,70,0,0
62704,-100,4,1,0,90,0,0
63799,-111.111111111111,4,1,0,90,0,0
63914,-107.142895408177,4,1,0,90,0,0
64035,-105.88240276819,4,1,0,90,0,0
64156,-104.651114115761,4,1,0,90,0,0
64277,-103.448240190262,4,1,0,90,0,0
64398,-102.272704028931,4,1,0,90,0,0
64645,-100,4,1,0,100,0,1
80129,-100,4,1,0,90,0,0
87865,-100,4,1,0,80,0,0
88591,-125,4,1,0,70,0,0
91736,-100,4,1,0,80,0,0
92704,-133.333333333333,4,1,0,70,0,0
93672,-100,4,1,0,80,0,0
93914,-100.77519379845,4,1,0,80,0,0
94156,-101.5625,4,1,0,80,0,0
94401,-102.362204724409,4,1,0,80,0,0
94884,-104,4,1,0,80,0,0
95123,-108.333333333333,4,1,0,80,0,0
95365,-110.169491525424,4,1,0,80,0,0
95607,-111.111111111111,4,1,0,80,0,0
101659,-113.04347826087,4,1,0,80,0,0
101898,-115.044247787611,4,1,0,80,0,0
102019,-116.071428571429,4,1,0,80,0,0
102139,-117.117117117117,4,1,0,80,0,0
102381,-118.181818181818,4,1,0,80,0,0
102623,-119.266055045872,4,1,0,80,0,0
102865,-120.37037037037,4,1,0,80,0,0
103110,-123.076923076923,4,1,0,80,0,0
103352,-125,4,1,0,80,0,0
115446,-123.076923076923,4,1,0,70,0,0
115688,-121.212121212121,4,1,0,70,0,0
115930,-119.402985074627,4,1,0,70,0,0
116172,-117.647058823529,4,1,0,70,0,0
116414,-115.942028985507,4,1,0,70,0,0
116656,-112.676056338028,4,1,0,70,0,0
116898,-100,4,1,0,90,0,0
117992,-111.111111111111,4,1,0,90,0,0
118107,-107.142895408177,4,1,0,90,0,0
118228,-105.88240276819,4,1,0,90,0,0
118349,-104.651114115761,4,1,0,90,0,0
118470,-103.448240190262,4,1,0,90,0,0
118591,-102.272704028931,4,1,0,90,0,0
118839,-100,4,1,0,100,0,1
134323,-100,4,1,0,90,0,0
135285,-111.111111111111,4,1,0,90,0,0
135406,-108.695652173913,4,1,0,90,0,0
135527,-107.52688172043,4,1,0,90,0,0
135648,-106.382978723404,4,1,0,90,0,0
135769,-104.166666666667,4,1,0,90,0,0
135889,-103.092783505155,4,1,0,90,0,0
136131,-100,4,1,0,90,0,0
136978,-111.111111111111,4,1,0,90,0,0
147865,-110.004103153048,4,1,0,90,0,0
148107,-107.855085906576,4,1,0,90,0,0
148349,-105.788425265238,4,1,0,90,0,0
148591,-103.799476020245,4,1,0,90,0,0
148833,-101.883935857949,4,1,0,90,0,0
149075,-100,4,1,0,90,0,0
149801,-111.111111111111,4,1,0,70,0,0
151739,-100,4,1,0,80,0,0
152707,-111.111111111111,4,1,0,70,0,0
155610,-100,4,1,0,80,0,0
156578,-111.111111111111,4,1,0,70,0,0
161898,-100.103206405804,4,1,0,90,0,0
162381,-111.111111111111,4,1,0,70,0,0
162865,-100.103206405804,4,1,0,90,0,0
163352,-111.111111111111,4,1,0,70,0,0
165288,-100,4,1,0,90,0,0
166497,-106.060606060606,4,1,0,90,0,0
166739,-112.903225806452,4,1,0,90,0,0
166981,-116.666666666667,4,1,0,90,0,0
167220,-125,4,1,0,80,0,0
174236,-121.231224314134,4,1,0,80,0,0
174723,-113.636363636364,4,1,0,80,0,0
174962,-111.175098556725,4,1,0,80,0,0
181742,241.935483870968,6,1,0,80,1,0
181742,-112.892428191949,4,1,0,80,0,0
182099,-118.596528679606,6,1,0,80,0,0
182462,-124.907568399384,6,1,0,80,0,0
183193,241.935483870968,4,1,0,90,1,0
183672,-111.111111111111,4,1,0,90,0,0
184277,-109.58904109589,4,1,0,90,0,0
184519,-106.666666666667,4,1,0,90,0,0
184760,-103.896103896104,4,1,0,90,0,0
184881,-102.564102564103,4,1,0,90,0,0
185002,-101.26582278481,4,1,0,90,0,0
185128,-100,4,1,0,100,0,1
198676,-100,4,1,0,90,0,0
212223,-101.449275362319,4,1,0,70,0,0
212341,-102.564102564103,4,1,0,70,0,0
212704,-108.108108108108,4,1,0,70,0,0
212946,-111.111111111111,4,1,0,70,0,0
213067,-114.285714285715,4,1,0,70,0,0
213430,-121.212121212121,4,1,0,70,0,0
213672,-125,4,1,0,70,0,0
214157,-100,4,1,0,80,0,0

[HitObjects]
256,192,775,5,12,0:0:0:0:
242,164,895,1,4,0:0:0:0:
235,163,1258,1,12,0:0:0:0:
256,192,1500,1,12,0:0:0:0:
245,165,1621,1,4,0:0:0:0:
256,192,1984,1,12,0:0:0:0:
256,192,2226,1,12,0:0:0:0:
256,192,2468,1,0,0:0:0:0:
256,192,2710,1,12,0:0:0:0:
416,32,3678,1,4,0:0:0:0:
256,192,4645,1,12,0:0:0:0:
384,64,5613,1,0,0:0:0:0:
352,96,5855,1,8,0:0:0:0:
320,96,6218,1,0,0:0:0:0:
174,133,6339,1,0,0:0:0:0:
320,96,6581,1,12,0:0:0:0:
96,96,7549,1,12,0:0:0:0:
128,192,8516,1,4,0:0:0:0:
352,160,9484,1,0,0:0:0:0:
352,160,9726,1,8,0:0:0:0:
352,160,10089,1,0,0:0:0:0:
174,133,10210,1,0,0:0:0:0:
352,160,10452,1,12,0:0:0:0:
178,121,10815,1,8,0:0:0:0:
352,160,10936,1,0,0:0:0:0:
174,133,11178,1,8,0:0:0:0:
352,160,11420,1,0,0:0:0:0:
145,123,11541,1,0,0:0:0:0:
204,6,11662,1,8,0:0:0:0:
352,160,11904,1,0,0:0:0:0:
197,56,12145,1,8,0:0:0:0:
288,96,12387,1,0,0:0:0:0:
199,33,12750,1,8,0:0:0:0:
288,96,12871,1,0,0:0:0:0:
199,33,13113,1,8,0:0:0:0:
288,96,13355,1,0,0:0:0:0:
199,33,13476,1,0,0:0:0:0:
288,96,13597,1,8,0:0:0:0:
288,96,13839,1,0,0:0:0:0:
288,96,13960,1,8,0:0:0:0:
288,96,14323,1,4,0:0:0:0:
288,96,14807,1,0,0:0:0:0:
288,96,15049,1,0,0:0:0:0:
288,96,15291,1,8,0:0:0:0:
288,96,15533,1,0,0:0:0:0:
288,96,15775,1,8,0:0:0:0:
288,96,16016,1,8,0:0:0:0:
288,96,16258,1,4,0:0:0:0:
288,96,16500,1,4,0:0:0:0:
288,96,16742,1,12,0:0:0:0:
288,128,18194,5,4,0:0:0:0:
288,128,18436,1,0,0:0:0:0:
288,96,18678,1,12,0:0:0:0:
226,21,19041,1,0,0:0:0:0:
288,96,19162,1,8,0:0:0:0:
288,96,19404,1,8,0:0:0:0:
229,31,19525,1,0,0:0:0:0:
288,96,19645,1,8,0:0:0:0:
288,96,20129,1,0,0:0:0:0:
288,96,20371,1,0,0:0:0:0:
320,128,20613,1,8,0:0:0:0:
183,13,20734,1,0,0:0:0:0:
320,128,20855,1,8,0:0:0:0:
320,128,21097,1,0,0:0:0:0:
276,98,21339,1,8,0:0:0:0:
320,96,21460,1,8,0:0:0:0:
320,128,21581,1,0,0:0:0:0:
176,56,21702,1,0,0:0:0:0:
320,128,21823,1,8,0:0:0:0:
320,128,22065,1,4,0:0:0:0:
288,128,22307,1,0,0:0:0:0:
138,26,22428,1,0,0:0:0:0:
288,96,22549,1,8,0:0:0:0:
229,17,22791,1,0,0:0:0:0:
288,96,23033,1,8,0:0:0:0:
220,47,23154,1,0,0:0:0:0:
288,96,23275,1,8,0:0:0:0:
197,35,23395,1,0,0:0:0:0:
288,96,23516,1,8,0:0:0:0:
288,96,24000,1,0,0:0:0:0:
288,96,24242,1,8,0:0:0:0:
288,96,24484,1,8,0:0:0:0:
288,96,24605,1,0,0:0:0:0:
216,6,24847,1,0,0:0:0:0:
304,67,24968,1,8,0:0:0:0:
288,96,25210,1,12,0:0:0:0:
288,96,25694,1,8,0:0:0:0:
288,128,25936,1,4,0:0:0:0:
288,128,26178,1,0,0:0:0:0:
288,96,26420,1,12,0:0:0:0:
228,22,26783,1,0,0:0:0:0:
288,96,26904,1,8,0:0:0:0:
288,96,27145,1,8,0:0:0:0:
255,20,27266,1,0,0:0:0:0:
288,96,27387,1,8,0:0:0:0:
288,96,27871,1,0,0:0:0:0:
288,96,28113,1,0,0:0:0:0:
320,128,28355,1,8,0:0:0:0:
172,127,28476,1,0,0:0:0:0:
320,128,28597,1,8,0:0:0:0:
320,128,28839,1,0,0:0:0:0:
320,128,29081,1,8,0:0:0:0:
320,96,29202,1,8,0:0:0:0:
320,128,29323,1,0,0:0:0:0:
189,92,29444,1,0,0:0:0:0:
320,128,29565,1,8,0:0:0:0:
320,128,29807,1,4,0:0:0:0:
288,128,30049,1,0,0:0:0:0:
288,96,30170,1,0,0:0:0:0:
288,96,30291,1,8,0:0:0:0:
288,96,30533,1,0,0:0:0:0:
288,96,30775,1,8,0:0:0:0:
202,15,30895,1,0,0:0:0:0:
288,96,31016,1,8,0:0:0:0:
176,46,31137,1,0,0:0:0:0:
288,96,31258,1,8,0:0:0:0:
184,112,31379,1,8,0:0:0:0:
288,96,31500,1,8,0:0:0:0:
288,96,31742,1,4,0:0:0:0:
288,96,31984,1,12,0:0:0:0:
288,96,32226,1,4,0:0:0:0:
288,96,32468,1,12,0:0:0:0:
288,96,32710,1,4,0:0:0:0:
288,96,32952,1,12,0:0:0:0:
224,64,33678,1,4,0:0:0:0:
288,160,34162,1,4,0:0:0:0:
288,32,34645,1,4,0:0:0:0:
320,128,35129,1,12,0:0:0:0:
384,224,35613,1,0,0:0:0:0:
129,136,35855,1,0,0:0:0:0:
352,160,36097,1,8,0:0:0:0:
179,107,36339,1,0,0:0:0:0:
352,160,36581,1,8,0:0:0:0:
146,118,36702,1,8,0:0:0:0:
352,160,36823,1,0,0:0:0:0:
352,160,37065,1,8,0:0:0:0:
352,160,37549,1,4,0:0:0:0:
352,160,38033,1,4,0:0:0:0:
352,160,38516,1,4,0:0:0:0:
352,160,39000,1,12,0:0:0:0:
320,96,39484,1,8,0:0:0:0:
208,44,39726,1,0,0:0:0:0:
320,96,39968,1,8,0:0:0:0:
208,58,40210,1,8,0:0:0:0:
320,96,40452,1,0,0:0:0:0:
320,96,40573,1,8,0:0:0:0:
320,96,40936,1,8,0:0:0:0:
320,96,41178,1,0,0:0:0:0:
320,96,41420,1,12,0:0:0:0:
320,96,41904,1,8,0:0:0:0:
320,96,42387,1,8,0:0:0:0:
320,96,42508,1,0,0:0:0:0:
320,96,42871,1,8,0:0:0:0:
288,96,43355,1,0,0:0:0:0:
163,42,43597,1,0,0:0:0:0:
288,96,43839,1,8,0:0:0:0:
206,17,44081,1,0,0:0:0:0:
288,96,44323,1,8,0:0:0:0:
265,109,44444,1,8,0:0:0:0:
288,96,44565,1,0,0:0:0:0:
288,96,44807,1,8,0:0:0:0:
288,96,45291,1,12,0:0:0:0:
288,96,45775,1,8,0:0:0:0:
256,64,46258,1,8,0:0:0:0:
256,64,46379,1,0,0:0:0:0:
256,64,46742,1,8,0:0:0:0:
256,64,47226,1,0,0:0:0:0:
256,64,47347,1,8,0:0:0:0:
256,64,47468,1,0,0:0:0:0:
256,64,47710,1,8,0:0:0:0:
256,64,47952,1,0,0:0:0:0:
256,64,48073,1,0,0:0:0:0:
256,64,48194,1,8,0:0:0:0:
256,64,48436,1,0,0:0:0:0:
256,64,48678,1,8,0:0:0:0:
256,64,48920,1,8,0:0:0:0:
256,64,49162,1,4,0:0:0:0:
256,64,49645,1,8,0:0:0:0:
256,64,50008,1,0,0:0:0:0:
157,91,50371,1,0,0:0:0:0:
256,64,50613,1,8,0:0:0:0:
256,64,51097,1,0,0:0:0:0:
110,127,51581,1,8,0:0:0:0:
256,64,51823,1,4,0:0:0:0:
256,64,52549,1,0,0:0:0:0:
256,64,52791,1,8,0:0:0:0:
256,64,53033,1,4,0:0:0:0:
256,64,53516,1,0,0:0:0:0:
256,64,54000,1,8,0:0:0:0:
256,64,54484,1,8,0:0:0:0:
256,64,54968,1,0,0:0:0:0:
256,64,55452,1,8,0:0:0:0:
256,64,55694,1,4,0:0:0:0:
256,64,56420,1,0,0:0:0:0:
256,64,56662,1,8,0:0:0:0:
256,64,56904,1,4,0:0:0:0:
256,64,57387,1,0,0:0:0:0:
256,64,57750,1,12,0:0:0:0:
288,96,58355,1,8,0:0:0:0:
288,96,58597,1,0,0:0:0:0:
288,96,58839,1,4,0:0:0:0:
256,64,59323,1,8,0:0:0:0:
256,64,59565,1,0,0:0:0:0:
256,64,59686,1,12,0:0:0:0:
224,64,60291,1,8,0:0:0:0:
224,64,60533,1,8,0:0:0:0:
224,64,60775,1,4,0:0:0:0:
224,64,61258,1,0,0:0:0:0:
224,64,61500,1,0,0:0:0:0:
224,64,61742,1,8,0:0:0:0:
224,64,61984,1,0,0:0:0:0:
224,64,62226,1,8,0:0:0:0:
224,64,62468,1,0,0:0:0:0:
224,64,62710,1,12,0:0:0:0:
224,64,63194,1,4,0:0:0:0:
224,64,63315,1,4,0:0:0:0:
224,64,63557,1,12,0:0:0:0:
288,64,63920,1,0,0:0:0:0:
320,64,64041,1,0,0:0:0:0:
384,64,64162,1,8,0:0:0:0:
416,64,64283,1,0,0:0:0:0:
416,64,64404,1,8,0:0:0:0:
384,64,64645,1,0,0:0:0:0:
320,96,64887,1,0,0:0:0:0:
320,96,65129,1,12,0:0:0:0:
320,96,65613,1,8,0:0:0:0:
320,96,65734,1,0,0:0:0:0:
320,96,65976,1,8,0:0:0:0:
320,96,66097,1,0,0:0:0:0:
320,96,66218,1,0,0:0:0:0:
320,96,66339,1,8,0:0:0:0:
320,96,66581,1,0,0:0:0:0:
320,96,66823,1,8,0:0:0:0:
320,96,67065,1,0,0:0:0:0:
320,96,67186,1,0,0:0:0:0:
320,96,67428,1,8,0:0:0:0:
157,74,67549,1,0,0:0:0:0:
320,96,67670,1,8,0:0:0:0:
244,4,67791,1,0,0:0:0:0:
320,96,68033,1,8,0:0:0:0:
320,96,68275,1,8,0:0:0:0:
320,96,68395,1,8,0:0:0:0:
320,96,68516,1,4,0:0:0:0:
288,96,69000,1,8,0:0:0:0:
288,96,69121,1,0,0:0:0:0:
288,96,69363,1,8,0:0:0:0:
288,96,69484,1,8,0:0:0:0:
288,96,69605,1,0,0:0:0:0:
288,96,69726,1,8,0:0:0:0:
288,96,69968,1,8,0:0:0:0:
288,96,70089,1,0,0:0:0:0:
288,96,70331,1,0,0:0:0:0:
288,96,70452,1,0,0:0:0:0:
185,34,70573,1,0,0:0:0:0:
288,96,70694,1,8,0:0:0:0:
288,96,70936,1,8,0:0:0:0:
288,96,71057,1,0,0:0:0:0:
288,96,71299,1,8,0:0:0:0:
288,96,71662,1,12,0:0:0:0:
288,96,72387,1,8,0:0:0:0:
288,96,72629,1,0,0:0:0:0:
288,96,72871,1,12,0:0:0:0:
288,96,73355,1,8,0:0:0:0:
288,96,73476,1,0,0:0:0:0:
288,96,73718,1,8,0:0:0:0:
288,96,73839,1,0,0:0:0:0:
288,96,73960,1,0,0:0:0:0:
288,96,74081,1,8,0:0:0:0:
288,96,74323,1,0,0:0:0:0:
288,96,74565,1,8,0:0:0:0:
288,96,74807,1,8,0:0:0:0:
288,96,74928,1,0,0:0:0:0:
288,96,75049,1,8,0:0:0:0:
261,69,75291,1,0,0:0:0:0:
175,30,75412,1,0,0:0:0:0:
203,45,75533,1,8,0:0:0:0:
288,96,75775,1,8,0:0:0:0:
288,96,75895,1,0,0:0:0:0:
288,96,76258,1,4,0:0:0:0:
256,96,76984,1,8,0:0:0:0:
256,96,77226,1,8,0:0:0:0:
256,96,77347,1,0,0:0:0:0:
256,96,77589,1,8,0:0:0:0:
236,27,77831,1,0,0:0:0:0:
256,96,77952,1,8,0:0:0:0:
256,96,78194,1,4,0:0:0:0:
256,96,78436,1,4,0:0:0:0:
256,96,78678,1,12,0:0:0:0:
256,32,79162,1,8,0:0:0:0:
256,32,79525,1,8,0:0:0:0:
256,32,79766,1,0,0:0:0:0:
256,32,80129,1,4,0:0:0:0:
288,64,80613,1,8,0:0:0:0:
288,64,80976,1,8,0:0:0:0:
288,64,81218,1,0,0:0:0:0:
288,64,81339,1,8,0:0:0:0:
288,64,81581,1,0,0:0:0:0:
288,64,81702,1,8,0:0:0:0:
288,64,82065,1,4,0:0:0:0:
288,64,82549,1,8,0:0:0:0:
288,64,82912,1,8,0:0:0:0:
288,64,83154,1,0,0:0:0:0:
288,64,83275,1,8,0:0:0:0:
288,64,83516,1,8,0:0:0:0:
288,64,83758,1,0,0:0:0:0:
288,64,84000,1,4,0:0:0:0:
288,64,84484,1,8,0:0:0:0:
288,64,84847,1,8,0:0:0:0:
288,64,85089,1,0,0:0:0:0:
288,64,85210,1,8,0:0:0:0:
288,64,85452,1,8,0:0:0:0:
338,39,85573,1,8,0:0:0:0:
288,64,85694,1,8,0:0:0:0:
288,64,85936,1,4,0:0:0:0:
288,64,86178,1,12,0:0:0:0:
288,64,86420,1,4,0:0:0:0:
288,64,86662,1,12,0:0:0:0:
288,64,86904,1,4,0:0:0:0:
288,64,87145,1,12,0:0:0:0:
224,224,87871,1,4,0:0:0:0:
256,192,88113,1,4,0:0:0:0:
288,128,88839,1,8,0:0:0:0:
288,160,89202,1,0,0:0:0:0:
288,160,89565,1,8,0:0:0:0:
288,160,89807,1,0,0:0:0:0:
170,132,90049,1,0,0:0:0:0:
288,160,90291,1,8,0:0:0:0:
288,160,90775,1,0,0:0:0:0:
288,160,91137,1,8,0:0:0:0:
288,160,91500,1,0,0:0:0:0:
288,160,91742,1,12,0:0:0:0:
288,160,91984,1,12,0:0:0:0:
288,128,93678,5,12,0:0:0:0:
268,67,93920,1,0,0:0:0:0:
288,128,94162,1,8,0:0:0:0:
137,117,94404,1,0,0:0:0:0:
219,12,94887,1,0,0:0:0:0:
320,96,95129,1,8,0:0:0:0:
320,96,95371,1,0,0:0:0:0:
320,96,95613,1,12,0:0:0:0:
320,96,96097,1,8,0:0:0:0:
320,96,96581,1,8,0:0:0:0:
320,96,96702,1,0,0:0:0:0:
320,96,97065,1,8,0:0:0:0:
288,96,97549,1,0,0:0:0:0:
204,52,97791,1,0,0:0:0:0:
288,96,98033,1,8,0:0:0:0:
170,72,98275,1,0,0:0:0:0:
288,96,98516,1,8,0:0:0:0:
275,73,98637,1,8,0:0:0:0:
288,96,98758,1,0,0:0:0:0:
288,96,99000,1,8,0:0:0:0:
288,96,99484,1,12,0:0:0:0:
288,96,99968,1,8,0:0:0:0:
256,64,100452,1,8,0:0:0:0:
256,64,100573,1,0,0:0:0:0:
256,64,100936,1,8,0:0:0:0:
256,64,101420,1,0,0:0:0:0:
256,64,101662,1,8,0:0:0:0:
256,64,101904,1,0,0:0:0:0:
256,64,102025,1,8,0:0:0:0:
256,64,102145,1,0,0:0:0:0:
256,64,102387,1,8,0:0:0:0:
123,143,102629,1,0,0:0:0:0:
256,64,102871,1,8,0:0:0:0:
100,130,103113,1,0,0:0:0:0:
256,64,103355,1,12,0:0:0:0:
256,160,103839,1,0,0:0:0:0:
256,96,104202,1,8,0:0:0:0:
159,93,104565,1,8,0:0:0:0:
256,96,104807,1,0,0:0:0:0:
256,96,105291,1,4,0:0:0:0:
190,2,105775,1,8,0:0:0:0:
256,96,106016,1,4,0:0:0:0:
256,96,106742,1,0,0:0:0:0:
256,96,106984,1,8,0:0:0:0:
256,96,107226,1,4,0:0:0:0:
256,96,107710,1,8,0:0:0:0:
256,96,107952,1,0,0:0:0:0:
256,96,108194,1,8,0:0:0:0:
288,64,108678,1,0,0:0:0:0:
288,64,108920,1,8,0:0:0:0:
288,64,109162,1,0,0:0:0:0:
288,64,109404,1,8,0:0:0:0:
288,64,109645,1,8,0:0:0:0:
288,64,109887,1,4,0:0:0:0:
416,64,110371,1,0,0:0:0:0:
416,64,110613,1,8,0:0:0:0:
416,64,110855,1,8,0:0:0:0:
256,64,111097,5,4,0:0:0:0:
256,64,111581,1,0,0:0:0:0:
256,64,111944,1,12,0:0:0:0:
288,96,112549,1,8,0:0:0:0:
288,96,112791,1,0,0:0:0:0:
288,96,113033,1,4,0:0:0:0:
256,64,113516,1,8,0:0:0:0:
256,64,113758,1,0,0:0:0:0:
256,64,113879,1,12,0:0:0:0:
224,64,114484,1,8,0:0:0:0:
224,64,114726,1,8,0:0:0:0:
224,64,114968,1,4,0:0:0:0:
224,64,115452,1,0,0:0:0:0:
224,64,115694,1,0,0:0:0:0:
224,64,115936,1,8,0:0:0:0:
224,64,116178,1,0,0:0:0:0:
224,64,116420,1,8,0:0:0:0:
224,64,116662,1,0,0:0:0:0:
224,64,116904,1,12,0:0:0:0:
224,64,117387,1,4,0:0:0:0:
224,64,117508,1,4,0:0:0:0:
224,64,117750,1,12,0:0:0:0:
288,64,118113,1,0,0:0:0:0:
224,64,118234,1,0,0:0:0:0:
384,64,118355,1,8,0:0:0:0:
416,64,118476,1,0,0:0:0:0:
416,64,118597,1,8,0:0:0:0:
384,64,118839,1,0,0:0:0:0:
320,96,119081,1,0,0:0:0:0:
320,96,119323,1,12,0:0:0:0:
320,96,119807,1,8,0:0:0:0:
320,96,119928,1,0,0:0:0:0:
320,96,120170,1,8,0:0:0:0:
320,96,120291,1,0,0:0:0:0:
320,96,120412,1,0,0:0:0:0:
320,96,120533,1,8,0:0:0:0:
320,96,120775,1,0,0:0:0:0:
320,96,121016,1,8,0:0:0:0:
320,96,121258,1,0,0:0:0:0:
320,96,121379,1,0,0:0:0:0:
320,96,121621,1,8,0:0:0:0:
129,86,121742,1,0,0:0:0:0:
320,96,121863,1,8,0:0:0:0:
273,78,121984,1,0,0:0:0:0:
320,96,122226,1,8,0:0:0:0:
320,96,122468,1,8,0:0:0:0:
320,96,122589,1,8,0:0:0:0:
320,96,122710,1,4,0:0:0:0:
288,96,123194,1,8,0:0:0:0:
288,96,123315,1,0,0:0:0:0:
288,96,123557,1,8,0:0:0:0:
288,96,123678,1,8,0:0:0:0:
288,96,123799,1,0,0:0:0:0:
288,96,123920,1,8,0:0:0:0:
288,96,124162,1,8,0:0:0:0:
288,96,124283,1,0,0:0:0:0:
288,96,124525,1,0,0:0:0:0:
288,96,124645,1,0,0:0:0:0:
136,77,124766,1,0,0:0:0:0:
288,96,124887,1,8,0:0:0:0:
288,96,125129,1,8,0:0:0:0:
288,96,125250,1,0,0:0:0:0:
288,96,125492,1,8,0:0:0:0:
288,96,125855,1,12,0:0:0:0:
288,96,126581,1,8,0:0:0:0:
288,96,126823,1,0,0:0:0:0:
288,96,127065,1,12,0:0:0:0:
288,96,127549,1,8,0:0:0:0:
288,96,127670,1,0,0:0:0:0:
288,96,127912,1,8,0:0:0:0:
288,96,128033,1,0,0:0:0:0:
288,96,128154,1,0,0:0:0:0:
288,96,128275,1,8,0:0:0:0:
288,96,128516,1,0,0:0:0:0:
288,96,128758,1,8,0:0:0:0:
288,96,129000,1,8,0:0:0:0:
288,96,129121,1,0,0:0:0:0:
288,96,129242,1,8,0:0:0:0:
261,69,129484,1,0,0:0:0:0:
199,27,129605,1,0,0:0:0:0:
257,78,129726,1,8,0:0:0:0:
288,96,129968,1,8,0:0:0:0:
288,96,130089,1,0,0:0:0:0:
288,96,130452,1,4,0:0:0:0:
256,96,131178,1,8,0:0:0:0:
256,96,131420,1,8,0:0:0:0:
220,75,131541,1,0,0:0:0:0:
170,78,131662,1,8,0:0:0:0:
256,96,131904,1,0,0:0:0:0:
256,96,132145,1,8,0:0:0:0:
256,96,132387,1,4,0:0:0:0:
256,96,132629,1,4,0:0:0:0:
256,96,132871,1,12,0:0:0:0:
256,32,133355,1,8,0:0:0:0:
256,32,133718,1,0,0:0:0:0:
256,32,133960,1,0,0:0:0:0:
256,32,134323,1,4,0:0:0:0:
256,32,135291,5,0,0:0:0:0:
228,30,135412,1,0,0:0:0:0:
256,32,135533,1,8,0:0:0:0:
256,32,135654,1,8,0:0:0:0:
256,32,135775,1,0,0:0:0:0:
256,32,135895,1,8,0:0:0:0:
256,32,136137,1,4,0:0:0:0:
256,32,136379,1,12,0:0:0:0:
256,32,136742,1,12,0:0:0:0:
256,32,137226,1,0,0:0:0:0:
181,74,137468,1,0,0:0:0:0:
256,32,137710,1,8,0:0:0:0:
256,32,137952,1,0,0:0:0:0:
256,32,138194,1,12,0:0:0:0:
256,32,138678,1,12,0:0:0:0:
256,32,139041,1,4,0:0:0:0:
256,32,139645,1,12,0:0:0:0:
256,32,140008,1,8,0:0:0:0:
256,32,140371,1,0,0:0:0:0:
256,32,140613,1,8,0:0:0:0:
256,32,140855,1,0,0:0:0:0:
256,32,141097,1,0,0:0:0:0:
256,32,141218,1,8,0:0:0:0:
256,32,141339,1,0,0:0:0:0:
256,32,141581,1,8,0:0:0:0:
181,63,141702,1,8,0:0:0:0:
256,32,141823,1,0,0:0:0:0:
256,32,142065,1,12,0:0:0:0:
256,32,142549,1,12,0:0:0:0:
256,32,142912,1,4,0:0:0:0:
256,32,143516,1,12,0:0:0:0:
256,32,144000,1,0,0:0:0:0:
256,96,144363,1,8,0:0:0:0:
168,60,144726,1,8,0:0:0:0:
256,96,144968,1,0,0:0:0:0:
256,96,145210,1,0,0:0:0:0:
256,96,145452,1,8,0:0:0:0:
256,96,145936,1,4,0:0:0:0:
256,96,146420,1,12,0:0:0:0:
256,64,146783,1,4,0:0:0:0:
256,64,147387,1,12,0:0:0:0:
256,64,147871,1,8,0:0:0:0:
256,64,148113,1,8,0:0:0:0:
256,64,148355,1,8,0:0:0:0:
256,64,148597,1,8,0:0:0:0:
256,64,148839,1,0,0:0:0:0:
256,64,149081,1,12,0:0:0:0:
256,64,149807,1,4,0:0:0:0:
256,64,150291,1,8,0:0:0:0:
256,96,150654,1,8,0:0:0:0:
256,96,151016,1,0,0:0:0:0:
256,96,151258,1,8,0:0:0:0:
256,96,151742,1,8,0:0:0:0:
256,96,152105,1,0,0:0:0:0:
256,96,152347,1,0,0:0:0:0:
256,96,152468,1,12,0:0:0:0:
256,96,153194,1,0,0:0:0:0:
256,96,153436,1,8,0:0:0:0:
256,96,153678,1,4,0:0:0:0:
256,96,154162,1,8,0:0:0:0:
256,64,154525,1,0,0:0:0:0:
256,64,154887,1,0,0:0:0:0:
256,64,155129,1,8,0:0:0:0:
256,64,155613,1,8,0:0:0:0:
256,64,155976,1,8,0:0:0:0:
256,64,156218,1,0,0:0:0:0:
256,64,156339,1,12,0:0:0:0:
256,64,156702,1,0,0:0:0:0:
256,64,156823,1,0,0:0:0:0:
171,71,156944,1,0,0:0:0:0:
256,64,157065,1,8,0:0:0:0:
250,82,157186,1,0,0:0:0:0:
256,64,157307,1,0,0:0:0:0:
256,64,157549,1,12,0:0:0:0:
128,64,158033,1,0,0:0:0:0:
224,64,158516,1,8,0:0:0:0:
224,64,158879,1,8,0:0:0:0:
224,64,159242,1,8,0:0:0:0:
224,64,159484,1,4,0:0:0:0:
155,124,159726,1,8,0:0:0:0:
172,82,160089,1,0,0:0:0:0:
224,64,160452,1,8,0:0:0:0:
224,64,160815,1,8,0:0:0:0:
224,64,161420,1,0,0:0:0:0:
224,64,161904,1,12,0:0:0:0:
224,64,162387,1,0,0:0:0:0:
224,64,162629,1,0,0:0:0:0:
171,108,162750,1,0,0:0:0:0:
224,64,162871,1,12,0:0:0:0:
224,64,163355,1,8,0:0:0:0:
224,64,163476,1,0,0:0:0:0:
256,192,165291,5,12,0:0:0:0:
256,192,165412,1,4,0:0:0:0:
256,192,165775,1,12,0:0:0:0:
256,192,166016,1,12,0:0:0:0:
256,192,166137,1,4,0:0:0:0:
256,192,166500,1,12,0:0:0:0:
256,192,166742,1,12,0:0:0:0:
256,192,166984,1,0,0:0:0:0:
256,192,167226,1,12,0:0:0:0:
256,192,168194,1,4,0:0:0:0:
416,32,169162,1,12,0:0:0:0:
256,160,170129,1,0,0:0:0:0:
256,160,170371,1,0,0:0:0:0:
256,160,170492,1,0,0:0:0:0:
246,128,170613,1,8,0:0:0:0:
256,160,170855,1,0,0:0:0:0:
256,160,171097,1,12,0:0:0:0:
192,64,172065,1,12,0:0:0:0:
352,224,173033,1,4,0:0:0:0:
192,64,174000,1,0,0:0:0:0:
224,96,174242,1,8,0:0:0:0:
256,128,174726,1,8,0:0:0:0:
256,128,174968,1,4,0:0:0:0:
224,64,175331,1,8,0:0:0:0:
224,96,175452,1,0,0:0:0:0:
171,0,175694,1,8,0:0:0:0:
224,96,175936,1,0,0:0:0:0:
224,96,176057,1,0,0:0:0:0:
200,69,176178,1,8,0:0:0:0:
224,96,176420,1,0,0:0:0:0:
224,96,176662,1,8,0:0:0:0:
224,96,176904,1,0,0:0:0:0:
224,96,177266,1,8,0:0:0:0:
224,96,177387,1,0,0:0:0:0:
166,133,177629,1,8,0:0:0:0:
224,96,177871,1,0,0:0:0:0:
204,14,177992,1,0,0:0:0:0:
224,96,178113,1,8,0:0:0:0:
224,96,178355,1,0,0:0:0:0:
224,96,178476,1,8,0:0:0:0:
224,96,178839,1,12,0:0:0:0:
224,96,179565,1,8,0:0:0:0:
224,96,179807,1,4,0:0:0:0:
224,96,180533,1,0,0:0:0:0:
224,96,180775,1,12,0:0:0:0:
224,96,181742,1,12,0:0:0:0:
224,96,182104,1,4,0:0:0:0:
224,96,182467,1,8,0:0:0:0:
224,96,183193,1,12,0:0:0:0:
256,64,184160,1,8,0:0:0:0:
256,64,184281,1,0,0:0:0:0:
256,64,184523,1,8,0:0:0:0:
256,64,184765,1,0,0:0:0:0:
256,64,184886,1,8,0:0:0:0:
256,64,185007,1,8,0:0:0:0:
320,96,185128,1,4,0:0:0:0:
320,96,185370,1,8,0:0:0:0:
320,96,185612,1,0,0:0:0:0:
320,96,185733,1,0,0:0:0:0:
320,96,185975,1,8,0:0:0:0:
287,86,186096,1,0,0:0:0:0:
320,96,186217,1,8,0:0:0:0:
288,83,186338,1,0,0:0:0:0:
320,96,186580,1,8,0:0:0:0:
170,73,186701,1,0,0:0:0:0:
320,96,186822,1,8,0:0:0:0:
203,13,186943,1,8,0:0:0:0:
320,96,187063,1,4,0:0:0:0:
288,96,187547,1,8,0:0:0:0:
288,96,187668,1,0,0:0:0:0:
288,96,187910,1,8,0:0:0:0:
288,96,188031,1,8,0:0:0:0:
288,96,188152,1,0,0:0:0:0:
288,96,188273,1,8,0:0:0:0:
288,96,188515,1,8,0:0:0:0:
288,96,188636,1,0,0:0:0:0:
288,96,188878,1,0,0:0:0:0:
288,96,188999,1,0,0:0:0:0:
165,129,189120,1,0,0:0:0:0:
288,96,189241,1,8,0:0:0:0:
288,96,189483,1,8,0:0:0:0:
288,96,189604,1,0,0:0:0:0:
288,96,189846,1,8,0:0:0:0:
288,96,190209,1,12,0:0:0:0:
288,96,190934,1,8,0:0:0:0:
288,96,191176,1,0,0:0:0:0:
288,96,191418,1,12,0:0:0:0:
288,96,191902,1,8,0:0:0:0:
288,96,192023,1,0,0:0:0:0:
288,96,192265,1,8,0:0:0:0:
288,96,192386,1,0,0:0:0:0:
264,82,192507,1,0,0:0:0:0:
288,96,192628,1,8,0:0:0:0:
288,96,192870,1,0,0:0:0:0:
288,96,193112,1,8,0:0:0:0:
288,96,193354,1,8,0:0:0:0:
288,96,193475,1,0,0:0:0:0:
288,96,193596,1,8,0:0:0:0:
288,96,193717,1,8,0:0:0:0:
261,69,193838,1,0,0:0:0:0:
181,47,193959,1,0,0:0:0:0:
288,96,194080,1,8,0:0:0:0:
288,96,194322,1,8,0:0:0:0:
288,96,194443,1,0,0:0:0:0:
288,96,194805,1,4,0:0:0:0:
256,96,195289,1,0,0:0:0:0:
256,96,195531,1,8,0:0:0:0:
256,96,195773,1,8,0:0:0:0:
229,92,195894,1,0,0:0:0:0:
256,64,196015,1,8,0:0:0:0:
256,96,196257,1,0,0:0:0:0:
256,96,196378,1,0,0:0:0:0:
256,96,196499,1,8,0:0:0:0:
256,96,196741,1,4,0:0:0:0:
256,96,196983,1,4,0:0:0:0:
256,96,197225,1,12,0:0:0:0:
119,34,197709,1,8,0:0:0:0:
204,47,198193,1,0,0:0:0:0:
267,47,198434,1,8,0:0:0:0:
236,24,198676,1,4,0:0:0:0:
288,128,198918,1,0,0:0:0:0:
288,96,199160,1,12,0:0:0:0:
155,131,199523,1,0,0:0:0:0:
288,96,199644,1,8,0:0:0:0:
288,96,199886,1,8,0:0:0:0:
288,96,200128,1,0,0:0:0:0:
288,96,200612,1,0,0:0:0:0:
288,96,200854,1,8,0:0:0:0:
320,128,200975,1,8,0:0:0:0:
265,85,201217,1,0,0:0:0:0:
320,128,201338,1,8,0:0:0:0:
292,119,201459,1,8,0:0:0:0:
320,128,201580,1,0,0:0:0:0:
161,99,201701,1,0,0:0:0:0:
264,73,201822,1,8,0:0:0:0:
145,84,202063,1,0,0:0:0:0:
320,128,202305,1,8,0:0:0:0:
320,96,202426,1,8,0:0:0:0:
320,128,202547,1,4,0:0:0:0:
288,96,202910,1,0,0:0:0:0:
288,96,203152,1,0,0:0:0:0:
288,96,203394,1,0,0:0:0:0:
288,96,203515,1,8,0:0:0:0:
288,96,203757,1,8,0:0:0:0:
288,96,203878,1,0,0:0:0:0:
288,96,203999,1,8,0:0:0:0:
181,109,204120,1,0,0:0:0:0:
288,96,204241,1,8,0:0:0:0:
288,96,204483,1,0,0:0:0:0:
288,96,204725,1,8,0:0:0:0:
288,96,204967,1,8,0:0:0:0:
288,96,205088,1,0,0:0:0:0:
202,11,205330,1,0,0:0:0:0:
288,96,205451,1,8,0:0:0:0:
288,96,205693,1,12,0:0:0:0:
288,96,206176,1,8,0:0:0:0:
288,128,206418,1,0,0:0:0:0:
228,118,206660,1,0,0:0:0:0:
288,96,206902,1,12,0:0:0:0:
139,38,207265,1,0,0:0:0:0:
288,96,207386,1,8,0:0:0:0:
288,96,207628,1,0,0:0:0:0:
288,96,207870,1,8,0:0:0:0:
230,43,207991,1,0,0:0:0:0:
288,96,208112,1,8,0:0:0:0:
184,94,208233,1,8,0:0:0:0:
288,96,208354,1,0,0:0:0:0:
288,96,208596,1,8,0:0:0:0:
320,128,208838,1,8,0:0:0:0:
286,106,208959,1,0,0:0:0:0:
320,128,209080,1,8,0:0:0:0:
320,128,209322,1,0,0:0:0:0:
290,125,209443,1,0,0:0:0:0:
320,128,209563,1,8,0:0:0:0:
121,136,209684,1,8,0:0:0:0:
288,76,209805,1,0,0:0:0:0:
320,128,210289,1,4,0:0:0:0:
288,128,210531,1,8,0:0:0:0:
288,96,210652,1,8,0:0:0:0:
288,96,210894,1,0,0:0:0:0:
288,96,211015,1,8,0:0:0:0:
288,96,211257,1,0,0:0:0:0:
288,96,211378,1,8,0:0:0:0:
254,100,211499,1,0,0:0:0:0:
288,96,211620,1,0,0:0:0:0:
288,96,211741,1,8,0:0:0:0:
288,96,211862,1,0,0:0:0:0:
288,96,211983,1,8,0:0:0:0:
288,96,212225,1,0,0:0:0:0:
288,96,212346,1,8,0:0:0:0:
288,96,212709,1,8,0:0:0:0:
288,96,212951,1,0,0:0:0:0:
288,96,213072,1,8,0:0:0:0:
288,96,213434,1,8,0:0:0:0:
288,96,213676,1,8,0:0:0:0:
288,96,214160,1,0,0:0:0:0:
288,96,214281,1,12,0:0:0:0:
288,96,214523,1,0,0:0:0:0:
288,96,214644,1,12,0:0:0:0:
288,96,214886,1,0,0:0:0:0:
288,96,215007,1,12,0:0:0:0:
